osu file format v14

[General]
AudioFilename: audio.mp3
AudioLeadIn: 0
PreviewTime: 45583
Countdown: 0
SampleSet: Normal
StackLeniency: 0.7
Mode: 1
LetterboxInBreaks: 0
WidescreenStoryboard: 0

[Editor]
Bookmarks: 65494
DistanceSpacing: 0.8
BeatDivisor: 4
GridSize: 4
TimelineZoom: 1.5

[Metadata]
Title:SAVIOR OF SONG (feat. MY FIRST STORY)
TitleUnicode:SAVIOR OF SONG (feat. MY FIRST STORY)
Artist:nano
ArtistUnicode:ナノ
Creator:Volta
Version:Inner Oni
Source:蒼き鋼のアルペジオ -アルス・ノヴァ-
Tags:taiko opening aoki hagane no arpeggio of blue steel ars nova
BeatmapID:1283325
BeatmapSetID:607617

[Difficulty]
HPDrainRate:6
CircleSize:5
OverallDifficulty:6
ApproachRate:5
SliderMultiplier:1.4
SliderTickRate:1

[Events]
//Background and Video events
0,0,"abcdefghijklmnopqrstuvwxyz.png",0,100
//Break Periods
//Storyboard Layer 0 (Background)
//Storyboard Layer 1 (Fail)
//Storyboard Layer 2 (Pass)
//Storyboard Layer 3 (Foreground)
//Storyboard Sound Samples

[TimingPoints]
583,312.5,4,1,0,50,1,0
583,-125,4,1,0,50,0,0
7770,-125,4,1,0,5,0,0
9333,-100,4,1,0,5,0,0
9801,-100,4,1,0,70,0,0
22770,-116.279069767442,4,1,0,50,0,0
33395,-108.695652173913,4,1,0,50,0,0
43083,-100,4,1,0,50,0,0
45583,312.5,4,1,0,50,1,8
46051,-100,4,1,0,80,0,0
46208,312.5,4,1,0,80,1,1
76051,-100,4,1,0,70,0,0

[Colours]
Combo1 : 234,234,244
Combo2 : 217,255,217
Combo3 : 255,245,223
Combo4 : 255,255,210

[HitObjects]
248,220,583,5,8,0:0:0:0:
216,44,1051,1,8,0:0:0:0:
240,188,1520,1,8,0:0:0:0:
116,184,3083,1,8,0:0:0:0:
116,184,3551,1,8,0:0:0:0:
116,184,4020,1,8,0:0:0:0:
300,152,5583,1,8,0:0:0:0:
300,152,6051,1,8,0:0:0:0:
300,152,6520,1,8,0:0:0:0:
256,192,7926,12,0,9333,0:0:0:0:
232,160,9958,5,8,0:0:0:0:
232,160,10036,1,0,0:0:0:0:
232,160,10114,1,8,0:0:0:0:
232,160,10192,1,0,0:0:0:0:
232,160,10270,1,8,0:0:0:0:
232,160,10348,1,8,0:0:0:0:
232,160,10426,1,0,0:0:0:0:
156,200,10739,1,0,0:0:0:0:
184,188,10817,1,0,0:0:0:0:
192,172,10895,1,8,0:0:0:0:
160,156,11051,1,8,0:0:0:0:
168,128,11129,1,8,0:0:0:0:
196,156,11208,1,0,0:0:0:0:
168,128,11364,1,0,0:0:0:0:
188,156,11520,1,8,0:0:0:0:
196,156,11676,1,0,0:0:0:0:
196,156,11754,1,8,0:0:0:0:
212,156,11833,1,0,0:0:0:0:
212,156,11989,1,0,0:0:0:0:
184,128,12067,1,0,0:0:0:0:
172,168,12145,1,8,0:0:0:0:
184,188,12223,1,0,0:0:0:0:
184,188,12301,1,8,0:0:0:0:
184,188,12379,1,8,0:0:0:0:
184,188,12458,1,0,0:0:0:0:
172,156,12614,1,0,0:0:0:0:
140,136,12692,1,0,0:0:0:0:
172,156,12770,1,8,0:0:0:0:
212,156,12926,1,4,0:0:0:0:
52,172,13239,1,0,0:0:0:0:
92,168,13317,1,0,0:0:0:0:
128,172,13395,1,8,0:0:0:0:
164,120,13551,1,8,0:0:0:0:
176,100,13629,1,8,0:0:0:0:
192,80,13708,1,0,0:0:0:0:
192,80,13864,1,0,0:0:0:0:
192,80,14020,1,8,0:0:0:0:
192,80,14176,1,0,0:0:0:0:
192,80,14254,1,8,0:0:0:0:
192,80,14333,1,0,0:0:0:0:
224,136,14489,1,8,0:0:0:0:
192,144,14567,1,0,0:0:0:0:
192,144,14645,1,8,0:0:0:0:
192,144,14723,1,8,0:0:0:0:
184,108,14801,1,0,0:0:0:0:
196,144,14879,1,8,0:0:0:0:
172,112,14958,1,0,0:0:0:0:
192,144,15114,1,0,0:0:0:0:
156,160,15192,1,0,0:0:0:0:
192,144,15270,1,8,0:0:0:0:
268,148,15426,1,4,0:0:0:0:
112,164,15739,1,0,0:0:0:0:
152,164,15817,1,0,0:0:0:0:
188,176,15895,1,8,0:0:0:0:
224,244,16051,1,8,0:0:0:0:
204,212,16129,1,8,0:0:0:0:
180,184,16208,1,0,0:0:0:0:
168,128,16364,1,0,0:0:0:0:
188,156,16520,1,8,0:0:0:0:
196,156,16676,1,0,0:0:0:0:
196,156,16754,1,8,0:0:0:0:
212,156,16833,1,0,0:0:0:0:
212,156,16989,1,0,0:0:0:0:
184,128,17067,1,0,0:0:0:0:
172,168,17145,1,8,0:0:0:0:
184,188,17223,1,8,0:0:0:0:
184,188,17301,1,0,0:0:0:0:
184,188,17379,1,8,0:0:0:0:
184,188,17458,1,0,0:0:0:0:
172,156,17614,1,0,0:0:0:0:
140,136,17692,1,0,0:0:0:0:
172,156,17770,1,8,0:0:0:0:
212,156,17926,1,4,0:0:0:0:
112,164,18239,1,0,0:0:0:0:
152,164,18317,1,0,0:0:0:0:
188,176,18395,1,8,0:0:0:0:
224,244,18551,1,8,0:0:0:0:
204,212,18629,1,8,0:0:0:0:
180,184,18708,1,0,0:0:0:0:
168,128,18864,1,0,0:0:0:0:
188,156,19020,1,8,0:0:0:0:
196,156,19176,1,0,0:0:0:0:
196,156,19254,1,8,0:0:0:0:
212,156,19333,1,0,0:0:0:0:
244,228,19489,1,0,0:0:0:0:
248,188,19567,1,0,0:0:0:0:
248,188,19645,1,8,0:0:0:0:
248,188,19723,1,0,0:0:0:0:
248,188,19801,1,8,0:0:0:0:
248,188,19879,1,8,0:0:0:0:
248,188,19958,1,0,0:0:0:0:
248,188,20036,1,8,0:0:0:0:
248,188,20114,1,0,0:0:0:0:
248,188,20192,1,0,0:0:0:0:
216,216,20270,1,8,0:0:0:0:
244,216,20348,1,0,0:0:0:0:
216,216,20426,1,8,0:0:0:0:
216,216,20504,1,8,0:0:0:0:
168,164,23083,5,4,0:0:0:0:
168,164,23551,1,0,0:0:0:0:
168,164,24020,1,8,0:0:0:0:
296,196,24333,1,8,0:0:0:0:
108,156,24801,1,0,0:0:0:0:
224,248,25270,1,0,0:0:0:0:
232,232,25583,1,8,0:0:0:0:
316,224,26051,1,0,0:0:0:0:
240,212,26520,1,8,0:0:0:0:
252,196,26833,1,8,0:0:0:0:
256,184,27301,1,0,0:0:0:0:
256,184,27770,1,8,0:0:0:0:
276,180,28083,1,0,0:0:0:0:
284,184,28551,1,0,0:0:0:0:
280,184,29020,1,0,0:0:0:0:
284,184,29333,1,8,0:0:0:0:
268,188,29801,1,8,0:0:0:0:
268,188,30270,1,0,0:0:0:0:
268,188,30583,1,0,0:0:0:0:
268,188,31051,1,8,0:0:0:0:
268,188,31520,1,0,0:0:0:0:
260,188,31833,1,0,0:0:0:0:
272,184,32301,1,0,0:0:0:0:
140,184,32379,1,0,0:0:0:0:
192,144,32458,1,8,0:0:0:0:
216,120,32614,1,0,0:0:0:0:
216,120,32770,1,0,0:0:0:0:
248,120,32926,1,0,0:0:0:0:
248,120,33083,1,4,0:0:0:0:
72,204,33395,5,0,0:0:0:0:
72,204,33551,1,0,0:0:0:0:
72,204,33708,1,0,0:0:0:0:
72,204,33864,1,0,0:0:0:0:
72,204,34020,1,0,0:0:0:0:
72,204,34176,1,0,0:0:0:0:
72,204,34333,1,8,0:0:0:0:
212,168,34489,1,8,0:0:0:0:
212,168,34645,1,0,0:0:0:0:
212,168,34801,1,8,0:0:0:0:
32,200,34958,1,0,0:0:0:0:
156,208,35114,1,8,0:0:0:0:
224,192,35270,1,8,0:0:0:0:
224,192,35426,1,0,0:0:0:0:
224,192,35583,1,0,0:0:0:0:
144,136,35739,1,0,0:0:0:0:
216,144,35895,1,0,0:0:0:0:
128,184,36051,1,0,0:0:0:0:
128,184,36208,1,0,0:0:0:0:
128,184,36364,1,0,0:0:0:0:
128,184,36520,1,0,0:0:0:0:
128,184,36676,1,0,0:0:0:0:
232,140,36833,1,8,0:0:0:0:
232,140,36989,1,8,0:0:0:0:
108,112,37145,1,0,0:0:0:0:
236,144,37301,1,8,0:0:0:0:
108,112,37458,1,0,0:0:0:0:
224,152,37614,1,8,0:0:0:0:
184,128,37770,1,8,0:0:0:0:
264,160,37926,1,0,0:0:0:0:
236,156,38083,1,0,0:0:0:0:
264,160,38239,1,0,0:0:0:0:
264,160,38395,1,0,0:0:0:0:
264,160,38551,1,0,0:0:0:0:
264,160,38708,1,8,0:0:0:0:
264,160,38864,1,8,0:0:0:0:
264,160,39020,1,0,0:0:0:0:
264,160,39176,1,0,0:0:0:0:
248,140,39333,1,8,0:0:0:0:
248,140,39489,1,8,0:0:0:0:
176,144,39645,1,0,0:0:0:0:
248,140,39801,1,8,0:0:0:0:
272,136,39958,1,8,0:0:0:0:
248,140,40114,1,8,0:0:0:0:
256,148,40270,1,0,0:0:0:0:
252,152,40583,1,12,0:0:0:0:
252,152,40739,1,12,0:0:0:0:
252,152,40895,1,12,0:0:0:0:
280,152,41051,1,4,0:0:0:0:
272,152,41520,1,12,0:0:0:0:
272,152,41676,1,12,0:0:0:0:
272,152,41833,1,12,0:0:0:0:
272,152,41989,1,4,0:0:0:0:
192,144,43083,1,0,0:0:0:0:
192,144,43239,1,8,0:0:0:0:
212,140,43551,1,8,0:0:0:0:
208,128,43708,1,0,0:0:0:0:
212,140,43864,1,8,0:0:0:0:
80,180,44020,1,0,0:0:0:0:
80,180,44176,1,0,0:0:0:0:
80,180,44254,1,0,0:0:0:0:
164,120,44333,1,8,0:0:0:0:
164,124,44489,1,0,0:0:0:0:
164,124,44645,1,8,0:0:0:0:
168,112,44801,1,0,0:0:0:0:
168,112,44958,1,8,0:0:0:0:
200,176,45270,1,8,0:0:0:0:
192,144,45583,1,0,0:0:0:0:
192,152,46051,1,4,0:0:0:0:
168,176,46364,1,0,0:0:0:0:
196,168,46520,1,8,0:0:0:0:
168,128,46676,1,0,0:0:0:0:
168,128,46754,1,8,0:0:0:0:
168,128,46833,1,0,0:0:0:0:
64,184,46989,1,0,0:0:0:0:
64,184,47067,1,0,0:0:0:0:
144,152,47145,1,8,0:0:0:0:
128,144,47223,1,0,0:0:0:0:
128,144,47301,1,8,0:0:0:0:
184,104,47379,1,8,0:0:0:0:
184,108,47458,1,0,0:0:0:0:
236,156,47614,1,0,0:0:0:0:
236,156,47770,1,8,0:0:0:0:
192,184,47926,1,0,0:0:0:0:
240,72,48004,1,0,0:0:0:0:
240,80,48083,1,8,0:0:0:0:
240,84,48161,1,8,0:0:0:0:
264,140,48239,1,0,0:0:0:0:
248,176,48395,1,8,0:0:0:0:
160,124,48551,1,12,0:0:0:0:
160,124,48864,1,0,0:0:0:0:
160,124,49020,1,8,0:0:0:0:
204,120,49098,1,8,0:0:0:0:
204,120,49176,1,0,0:0:0:0:
128,144,49254,1,0,0:0:0:0:
128,144,49333,1,8,0:0:0:0:
240,160,49489,1,0,0:0:0:0:
240,160,49645,1,8,0:0:0:0:
248,168,49723,1,0,0:0:0:0:
240,160,49801,1,8,0:0:0:0:
176,144,49879,1,8,0:0:0:0:
260,184,49958,1,0,0:0:0:0:
268,184,50114,1,0,0:0:0:0:
304,184,50270,1,8,0:0:0:0:
312,184,50426,1,0,0:0:0:0:
304,184,50504,1,8,0:0:0:0:
312,184,50583,1,0,0:0:0:0:
312,184,50661,1,0,0:0:0:0:
312,184,50739,1,8,0:0:0:0:
312,184,50817,1,0,0:0:0:0:
312,184,50895,1,8,0:0:0:0:
188,160,50973,1,8,0:0:0:0:
192,156,51051,1,0,0:0:0:0:
192,152,51208,1,4,0:0:0:0:
320,144,51520,1,8,0:0:0:0:
152,176,51676,1,0,0:0:0:0:
152,176,51754,1,0,0:0:0:0:
152,176,51833,1,8,0:0:0:0:
272,108,51989,1,0,0:0:0:0:
272,116,52145,1,8,0:0:0:0:
272,116,52223,1,0,0:0:0:0:
272,120,52301,1,8,0:0:0:0:
272,124,52379,1,8,0:0:0:0:
184,120,52458,1,0,0:0:0:0:
144,132,52614,1,8,0:0:0:0:
220,116,52692,1,0,0:0:0:0:
264,100,52770,1,8,0:0:0:0:
144,172,52926,1,0,0:0:0:0:
192,176,53004,1,0,0:0:0:0:
156,176,53083,1,8,0:0:0:0:
196,180,53239,1,0,0:0:0:0:
196,184,53395,1,8,0:0:0:0:
196,184,53473,1,8,0:0:0:0:
248,132,53551,1,0,0:0:0:0:
228,140,53708,1,8,0:0:0:0:
284,204,53864,1,0,0:0:0:0:
284,204,53942,1,8,0:0:0:0:
292,204,54020,1,0,0:0:0:0:
292,208,54098,1,0,0:0:0:0:
292,208,54176,1,8,0:0:0:0:
152,160,54254,1,8,0:0:0:0:
152,168,54333,1,0,0:0:0:0:
292,208,54489,1,8,0:0:0:0:
292,208,54567,1,8,0:0:0:0:
296,208,54645,1,0,0:0:0:0:
396,172,54801,1,8,0:0:0:0:
264,200,54958,1,0,0:0:0:0:
140,124,55036,1,8,0:0:0:0:
216,136,55114,1,0,0:0:0:0:
216,140,55192,1,0,0:0:0:0:
216,144,55270,1,8,0:0:0:0:
252,136,55348,1,8,0:0:0:0:
216,152,55426,1,0,0:0:0:0:
220,152,55583,1,8,0:0:0:0:
368,172,55661,1,8,0:0:0:0:
368,176,55739,1,0,0:0:0:0:
252,136,55817,1,8,0:0:0:0:
252,136,55895,1,8,0:0:0:0:
252,136,55973,1,8,0:0:0:0:
252,136,56051,1,0,0:0:0:0:
168,176,56364,1,0,0:0:0:0:
196,168,56520,1,8,0:0:0:0:
168,128,56676,1,0,0:0:0:0:
168,128,56754,1,8,0:0:0:0:
168,128,56833,1,0,0:0:0:0:
64,184,56989,1,0,0:0:0:0:
64,184,57067,1,0,0:0:0:0:
144,152,57145,1,8,0:0:0:0:
128,144,57223,1,0,0:0:0:0:
128,144,57301,1,8,0:0:0:0:
184,104,57379,1,8,0:0:0:0:
184,108,57458,1,0,0:0:0:0:
228,104,57614,1,8,0:0:0:0:
232,108,57692,1,0,0:0:0:0:
236,156,57770,1,8,0:0:0:0:
192,184,57926,1,0,0:0:0:0:
240,72,58004,1,0,0:0:0:0:
240,80,58083,1,8,0:0:0:0:
240,84,58161,1,8,0:0:0:0:
236,120,58239,1,0,0:0:0:0:
248,176,58395,1,8,0:0:0:0:
160,124,58551,1,12,0:0:0:0:
160,124,58864,1,0,0:0:0:0:
160,124,59020,1,8,0:0:0:0:
204,120,59098,1,8,0:0:0:0:
204,120,59176,1,0,0:0:0:0:
128,144,59254,1,0,0:0:0:0:
128,144,59333,1,8,0:0:0:0:
240,160,59489,1,0,0:0:0:0:
240,160,59645,1,8,0:0:0:0:
248,168,59723,1,0,0:0:0:0:
240,160,59801,1,8,0:0:0:0:
176,144,59879,1,8,0:0:0:0:
260,184,59958,1,0,0:0:0:0:
268,184,60114,1,0,0:0:0:0:
320,152,60192,1,8,0:0:0:0:
304,184,60270,1,0,0:0:0:0:
312,184,60426,5,8,0:0:0:0:
304,184,60504,1,8,0:0:0:0:
312,184,60583,1,0,0:0:0:0:
312,184,60661,1,0,0:0:0:0:
312,184,60739,1,8,0:0:0:0:
312,184,60817,1,0,0:0:0:0:
312,184,60895,1,8,0:0:0:0:
188,160,60973,1,8,0:0:0:0:
192,156,61051,1,0,0:0:0:0:
192,152,61208,1,4,0:0:0:0:
320,144,61520,5,8,0:0:0:0:
152,176,61676,1,0,0:0:0:0:
152,176,61754,1,0,0:0:0:0:
152,176,61833,1,8,0:0:0:0:
272,108,61989,1,0,0:0:0:0:
272,116,62145,1,8,0:0:0:0:
272,116,62223,1,0,0:0:0:0:
272,120,62301,1,8,0:0:0:0:
272,124,62379,1,8,0:0:0:0:
272,124,62458,1,0,0:0:0:0:
144,132,62614,1,8,0:0:0:0:
220,116,62692,1,0,0:0:0:0:
264,100,62770,1,8,0:0:0:0:
356,72,62848,1,8,0:0:0:0:
144,172,62926,1,0,0:0:0:0:
192,176,63004,1,0,0:0:0:0:
156,176,63083,1,8,0:0:0:0:
196,180,63239,1,0,0:0:0:0:
340,72,63317,1,0,0:0:0:0:
196,184,63395,1,8,0:0:0:0:
196,184,63473,1,8,0:0:0:0:
248,132,63551,1,0,0:0:0:0:
228,140,63708,1,8,0:0:0:0:
284,204,63864,1,0,0:0:0:0:
284,204,63942,1,8,0:0:0:0:
292,204,64020,1,0,0:0:0:0:
292,208,64098,1,0,0:0:0:0:
292,208,64176,1,8,0:0:0:0:
152,160,64254,1,8,0:0:0:0:
152,168,64333,1,0,0:0:0:0:
292,208,64489,5,8,0:0:0:0:
292,208,64567,1,8,0:0:0:0:
296,208,64645,1,0,0:0:0:0:
396,172,64801,1,8,0:0:0:0:
264,200,64958,1,0,0:0:0:0:
140,124,65036,1,8,0:0:0:0:
216,136,65114,1,0,0:0:0:0:
216,140,65192,1,0,0:0:0:0:
216,144,65270,1,8,0:0:0:0:
252,136,65348,1,8,0:0:0:0:
216,152,65426,1,0,0:0:0:0:
140,120,65583,1,8,0:0:0:0:
240,120,65661,1,8,0:0:0:0:
240,120,65739,1,0,0:0:0:0:
240,124,65817,1,8,0:0:0:0:
232,76,65895,1,8,0:0:0:0:
232,76,65973,1,8,0:0:0:0:
220,88,66051,1,0,0:0:0:0:
228,88,66129,1,8,0:0:0:0:
180,132,66208,1,0,0:0:0:0:
124,136,66364,1,0,0:0:0:0:
284,116,66520,1,8,0:0:0:0:
256,132,66598,1,0,0:0:0:0:
256,128,66676,1,8,0:0:0:0:
232,116,66754,1,8,0:0:0:0:
232,116,66833,1,0,0:0:0:0:
40,192,66989,1,8,0:0:0:0:
272,148,67067,1,8,0:0:0:0:
80,128,67145,1,0,0:0:0:0:
116,96,67301,1,0,0:0:0:0:
224,176,67379,1,8,0:0:0:0:
116,96,67458,1,0,0:0:0:0:
160,132,67536,1,0,0:0:0:0:
128,120,67614,1,8,0:0:0:0:
128,120,67692,1,8,0:0:0:0:
136,168,67770,1,0,0:0:0:0:
192,132,67926,1,8,0:0:0:0:
184,152,68004,1,8,0:0:0:0:
84,168,68083,1,0,0:0:0:0:
84,168,68161,1,0,0:0:0:0:
116,168,68239,1,8,0:0:0:0:
168,152,68317,1,0,0:0:0:0:
168,152,68395,1,8,0:0:0:0:
168,152,68473,1,8,0:0:0:0:
184,152,68551,1,0,0:0:0:0:
168,156,68629,1,8,0:0:0:0:
168,164,68708,1,0,0:0:0:0:
96,160,68864,1,0,0:0:0:0:
240,100,69020,1,8,0:0:0:0:
240,108,69098,1,0,0:0:0:0:
240,120,69176,1,8,0:0:0:0:
176,132,69254,1,8,0:0:0:0:
176,140,69333,1,0,0:0:0:0:
208,160,69411,1,0,0:0:0:0:
184,144,69489,1,8,0:0:0:0:
192,152,69645,1,0,0:0:0:0:
308,136,69723,1,0,0:0:0:0:
200,136,69801,1,8,0:0:0:0:
232,160,69879,1,8,0:0:0:0:
196,148,69958,1,0,0:0:0:0:
196,152,70036,5,8,0:0:0:0:
196,152,70114,1,0,0:0:0:0:
196,156,70192,1,0,0:0:0:0:
196,156,70270,1,8,0:0:0:0:
196,160,70348,1,0,0:0:0:0:
196,164,70426,1,8,0:0:0:0:
196,164,70504,1,8,0:0:0:0:
196,164,70583,1,0,0:0:0:0:
164,132,70661,1,0,0:0:0:0:
204,144,70739,1,8,0:0:0:0:
188,140,70817,1,0,0:0:0:0:
256,120,70895,1,8,0:0:0:0:
208,88,70973,1,8,0:0:0:0:
156,148,71051,1,0,0:0:0:0:
196,168,71208,5,4,0:0:0:0:
196,168,71520,1,4,0:0:0:0:
196,168,71833,1,4,0:0:0:0:
196,168,72145,1,4,0:0:0:0:
196,168,72458,1,12,0:0:0:0:
196,168,72770,1,12,0:0:0:0:
196,168,73083,1,12,0:0:0:0:
196,168,73395,1,12,0:0:0:0:
196,168,73708,1,4,0:0:0:0:
196,168,74020,1,4,0:0:0:0:
196,168,74333,1,12,0:0:0:0:
196,168,74645,1,12,0:0:0:0:
196,168,74958,1,4,0:0:0:0:
196,168,75270,1,4,0:0:0:0:
224,156,75583,5,8,0:0:0:0:
224,156,75661,1,0,0:0:0:0:
224,156,75739,1,8,0:0:0:0:
224,156,75817,1,0,0:0:0:0:
224,156,75895,1,8,0:0:0:0:
224,156,75973,1,8,0:0:0:0:
224,156,76051,1,0,0:0:0:0:
156,200,76364,1,0,0:0:0:0:
184,188,76442,1,0,0:0:0:0:
192,172,76520,1,8,0:0:0:0:
160,156,76676,1,8,0:0:0:0:
168,128,76754,1,8,0:0:0:0:
196,156,76833,1,0,0:0:0:0:
168,128,76989,1,0,0:0:0:0:
188,156,77145,1,8,0:0:0:0:
196,156,77301,1,0,0:0:0:0:
196,156,77379,1,8,0:0:0:0:
212,156,77458,1,0,0:0:0:0:
212,156,77614,1,0,0:0:0:0:
184,128,77692,1,0,0:0:0:0:
172,168,77770,1,8,0:0:0:0:
184,188,77848,1,0,0:0:0:0:
184,188,77926,1,8,0:0:0:0:
184,188,78004,1,8,0:0:0:0:
184,188,78083,1,0,0:0:0:0:
172,156,78239,1,0,0:0:0:0:
140,136,78317,1,0,0:0:0:0:
172,156,78395,1,8,0:0:0:0:
212,156,78551,1,4,0:0:0:0:
52,172,78864,1,0,0:0:0:0:
92,168,78942,1,0,0:0:0:0:
128,172,79020,1,8,0:0:0:0:
164,120,79176,1,8,0:0:0:0:
176,100,79254,1,8,0:0:0:0:
192,80,79333,1,0,0:0:0:0:
192,80,79489,1,0,0:0:0:0:
192,80,79645,1,8,0:0:0:0:
192,80,79801,1,0,0:0:0:0:
192,80,79879,1,8,0:0:0:0:
192,80,79958,1,0,0:0:0:0:
224,136,80114,1,8,0:0:0:0:
192,144,80192,1,0,0:0:0:0:
192,144,80270,1,8,0:0:0:0:
192,144,80348,1,8,0:0:0:0:
184,108,80426,1,0,0:0:0:0:
196,144,80504,1,8,0:0:0:0:
172,112,80583,1,0,0:0:0:0:
192,144,80739,1,0,0:0:0:0:
156,160,80817,1,0,0:0:0:0:
192,144,80895,1,8,0:0:0:0:
268,148,81051,1,4,0:0:0:0:
112,164,81364,1,0,0:0:0:0:
152,164,81442,1,0,0:0:0:0:
188,176,81520,1,8,0:0:0:0:
224,244,81676,1,8,0:0:0:0:
204,212,81754,1,8,0:0:0:0:
180,184,81833,1,0,0:0:0:0:
168,128,81989,1,0,0:0:0:0:
188,156,82145,1,8,0:0:0:0:
196,156,82301,1,0,0:0:0:0:
196,156,82379,1,8,0:0:0:0:
212,156,82458,1,0,0:0:0:0:
212,156,82614,1,0,0:0:0:0:
184,128,82692,1,0,0:0:0:0:
172,168,82770,1,8,0:0:0:0:
184,188,82848,1,8,0:0:0:0:
184,188,82926,1,0,0:0:0:0:
184,188,83004,1,8,0:0:0:0:
184,188,83083,1,0,0:0:0:0:
172,156,83239,1,0,0:0:0:0:
140,136,83317,1,0,0:0:0:0:
172,156,83395,1,8,0:0:0:0:
212,156,83551,1,4,0:0:0:0:
112,164,83864,1,0,0:0:0:0:
152,164,83942,1,0,0:0:0:0:
188,176,84020,1,8,0:0:0:0:
224,244,84176,1,8,0:0:0:0:
204,212,84254,1,8,0:0:0:0:
180,184,84333,1,0,0:0:0:0:
168,128,84489,1,0,0:0:0:0:
188,156,84645,1,8,0:0:0:0:
196,156,84801,1,0,0:0:0:0:
196,156,84879,1,8,0:0:0:0:
212,156,84958,1,0,0:0:0:0:
244,228,85114,1,0,0:0:0:0:
248,188,85192,1,0,0:0:0:0:
248,188,85270,1,8,0:0:0:0:
248,188,85348,1,0,0:0:0:0:
248,188,85426,1,8,0:0:0:0:
248,188,85504,1,8,0:0:0:0:
248,188,85583,1,0,0:0:0:0:
248,188,85661,1,8,0:0:0:0:
248,188,85739,1,0,0:0:0:0:
248,188,85817,1,0,0:0:0:0:
216,216,85895,1,8,0:0:0:0:
244,216,85973,1,0,0:0:0:0:
216,216,86051,1,8,0:0:0:0:
216,216,86129,1,8,0:0:0:0:
