osu file format v14

[General]
AudioFilename: audio.mp3
AudioLeadIn: 0
PreviewTime: 45583
Countdown: 0
SampleSet: Normal
StackLeniency: 0.7
Mode: 1
LetterboxInBreaks: 0
WidescreenStoryboard: 0

[Editor]
DistanceSpacing: 0.8
BeatDivisor: 2
GridSize: 4
TimelineZoom: 0.9

[Metadata]
Title:SAVIOR OF SONG (feat. MY FIRST STORY)
TitleUnicode:SAVIOR OF SONG (feat. MY FIRST STORY)
Artist:nano
ArtistUnicode:ナノ
Creator:Volta
Version:Futsuu
Source:蒼き鋼のアルペジオ -アルス・ノヴァ-
Tags:taiko opening aoki hagane no arpeggio of blue steel ars nova
BeatmapID:1309789
BeatmapSetID:607617

[Difficulty]
HPDrainRate:6
CircleSize:5
OverallDifficulty:4
ApproachRate:5
SliderMultiplier:1.4
SliderTickRate:1

[Events]
//Background and Video events
0,0,"abcdefghijklmnopqrstuvwxyz.png",0,100
//Break Periods
//Storyboard Layer 0 (Background)
//Storyboard Layer 1 (Fail)
//Storyboard Layer 2 (Pass)
//Storyboard Layer 3 (Foreground)
//Storyboard Sound Samples

[TimingPoints]
583,312.5,4,1,0,50,1,0
7770,-100,4,1,0,5,0,0
9801,-100,4,1,0,70,0,0
22770,-100,4,1,0,50,0,0
43083,-100,4,1,0,50,0,0
45583,312.5,4,1,0,50,1,8
46051,-100,4,1,0,80,0,0
46208,312.5,4,1,0,80,1,1
76051,-100,4,1,0,70,0,0

[Colours]
Combo1 : 234,234,244
Combo2 : 217,255,217
Combo3 : 255,245,223
Combo4 : 255,255,210

[HitObjects]
248,220,583,5,8,0:0:0:0:
40,152,1520,1,8,0:0:0:0:
116,184,3083,1,8,0:0:0:0:
192,116,4020,1,8,0:0:0:0:
300,152,5583,1,8,0:0:0:0:
216,80,6520,1,8,0:0:0:0:
256,192,7926,12,0,9333,0:0:0:0:
232,160,9958,5,8,0:0:0:0:
232,160,10426,1,4,0:0:0:0:
320,132,10895,1,8,0:0:0:0:
264,100,11208,1,0,0:0:0:0:
252,104,11364,1,0,0:0:0:0:
284,160,11520,1,8,0:0:0:0:
236,88,11833,1,0,0:0:0:0:
284,160,12145,1,8,0:0:0:0:
112,172,12458,1,0,0:0:0:0:
288,168,12926,1,4,0:0:0:0:
292,104,13395,1,8,0:0:0:0:
208,116,13708,1,0,0:0:0:0:
228,100,13864,1,0,0:0:0:0:
288,104,14020,1,8,0:0:0:0:
240,88,14333,1,0,0:0:0:0:
288,104,14958,1,8,0:0:0:0:
264,124,15426,1,4,0:0:0:0:
252,124,15895,1,8,0:0:0:0:
208,96,16208,1,0,0:0:0:0:
208,96,16364,1,0,0:0:0:0:
252,124,16520,1,8,0:0:0:0:
204,104,16833,1,0,0:0:0:0:
252,124,17145,1,8,0:0:0:0:
252,124,17458,1,0,0:0:0:0:
252,124,17926,1,4,0:0:0:0:
244,140,18395,1,8,0:0:0:0:
148,132,18708,1,0,0:0:0:0:
188,140,18864,1,0,0:0:0:0:
244,140,19020,1,8,0:0:0:0:
188,140,19333,1,0,0:0:0:0:
312,132,19645,1,8,0:0:0:0:
256,144,19958,1,0,0:0:0:0:
124,132,20114,1,0,0:0:0:0:
256,144,20270,1,0,0:0:0:0:
260,184,20583,1,8,0:0:0:0:
168,164,23083,5,4,0:0:0:0:
88,124,23708,1,0,0:0:0:0:
296,196,24333,1,8,0:0:0:0:
232,232,25583,1,8,0:0:0:0:
152,108,26208,1,8,0:0:0:0:
252,196,26833,1,0,0:0:0:0:
276,180,28083,1,0,0:0:0:0:
152,88,28708,1,0,0:0:0:0:
284,184,29333,1,8,0:0:0:0:
268,188,30583,1,0,0:0:0:0:
208,68,31208,1,8,0:0:0:0:
260,188,31833,1,0,0:0:0:0:
192,144,32458,1,8,0:0:0:0:
196,64,32614,1,0,0:0:0:0:
216,120,32770,1,0,0:0:0:0:
248,120,33083,1,4,0:0:0:0:
72,204,33708,1,0,0:0:0:0:
72,204,34020,1,0,0:0:0:0:
72,204,34333,1,8,0:0:0:0:
196,128,34645,1,0,0:0:0:0:
196,128,34801,1,8,0:0:0:0:
32,200,34958,1,0,0:0:0:0:
224,192,35270,1,8,0:0:0:0:
224,192,35583,1,0,0:0:0:0:
128,184,36208,1,0,0:0:0:0:
128,184,36520,1,0,0:0:0:0:
232,140,36833,1,8,0:0:0:0:
224,88,37145,1,8,0:0:0:0:
224,96,37301,1,0,0:0:0:0:
108,112,37458,1,8,0:0:0:0:
184,128,37770,1,8,0:0:0:0:
236,156,38083,1,0,0:0:0:0:
264,160,38708,1,0,0:0:0:0:
264,160,39020,1,0,0:0:0:0:
248,140,39333,1,8,0:0:0:0:
240,96,39645,1,8,0:0:0:0:
240,96,39801,1,8,0:0:0:0:
272,136,39958,1,8,0:0:0:0:
256,148,40270,1,0,0:0:0:0:
252,152,40583,1,12,0:0:0:0:
264,80,41051,1,4,0:0:0:0:
272,152,41520,1,12,0:0:0:0:
264,88,41989,1,4,0:0:0:0:
316,72,43239,1,8,0:0:0:0:
316,72,43551,1,8,0:0:0:0:
316,72,43864,1,0,0:0:0:0:
164,132,44333,1,8,0:0:0:0:
192,56,44958,1,8,0:0:0:0:
236,136,45270,1,8,0:0:0:0:
92,136,45583,1,0,0:0:0:0:
192,152,46051,5,4,0:0:0:0:
280,92,46520,1,8,0:0:0:0:
64,152,46833,1,0,0:0:0:0:
272,96,47145,1,8,0:0:0:0:
272,96,47301,1,8,0:0:0:0:
232,92,47458,1,0,0:0:0:0:
328,112,47770,1,8,0:0:0:0:
352,80,48083,1,0,0:0:0:0:
144,140,48551,1,12,0:0:0:0:
252,88,49020,1,8,0:0:0:0:
144,164,49333,1,0,0:0:0:0:
288,88,49645,1,8,0:0:0:0:
288,92,49801,1,0,0:0:0:0:
216,112,49958,1,8,0:0:0:0:
216,116,50270,1,8,0:0:0:0:
216,120,50583,1,0,0:0:0:0:
216,116,50895,1,8,0:0:0:0:
216,108,51208,1,4,0:0:0:0:
104,168,51833,1,0,0:0:0:0:
264,116,52145,1,8,0:0:0:0:
124,168,52458,1,0,0:0:0:0:
212,96,52770,1,8,0:0:0:0:
212,96,52926,1,8,0:0:0:0:
224,132,53083,1,0,0:0:0:0:
224,132,53395,1,8,0:0:0:0:
224,132,53708,1,0,0:0:0:0:
200,96,54020,1,8,0:0:0:0:
200,96,54176,1,0,0:0:0:0:
224,132,54333,1,8,0:0:0:0:
116,156,54645,1,8,0:0:0:0:
224,132,54958,1,0,0:0:0:0:
192,120,55583,1,8,0:0:0:0:
168,176,56051,5,4,0:0:0:0:
72,152,56520,1,8,0:0:0:0:
244,128,56833,1,0,0:0:0:0:
120,144,57145,1,0,0:0:0:0:
120,144,57301,1,8,0:0:0:0:
216,148,57458,1,0,0:0:0:0:
216,148,57770,1,8,0:0:0:0:
216,148,58083,1,0,0:0:0:0:
216,148,58551,1,12,0:0:0:0:
156,156,59020,1,8,0:0:0:0:
68,148,59333,1,0,0:0:0:0:
220,136,59645,1,8,0:0:0:0:
220,136,59801,1,0,0:0:0:0:
84,144,59958,1,8,0:0:0:0:
160,144,60270,1,8,0:0:0:0:
160,144,60583,1,0,0:0:0:0:
160,144,60895,1,8,0:0:0:0:
160,144,61208,1,4,0:0:0:0:
180,204,61833,1,0,0:0:0:0:
224,116,62145,1,8,0:0:0:0:
180,204,62458,1,0,0:0:0:0:
204,124,62770,1,8,0:0:0:0:
204,124,62926,1,0,0:0:0:0:
180,204,63083,1,8,0:0:0:0:
180,204,63395,1,8,0:0:0:0:
288,124,63708,1,0,0:0:0:0:
220,112,64020,1,8,0:0:0:0:
216,120,64176,1,8,0:0:0:0:
288,124,64333,1,0,0:0:0:0:
220,124,64645,1,8,0:0:0:0:
288,128,64958,1,0,0:0:0:0:
236,96,65270,1,8,0:0:0:0:
236,96,65583,1,8,0:0:0:0:
328,136,66208,1,0,0:0:0:0:
164,116,66520,1,8,0:0:0:0:
324,140,66833,1,0,0:0:0:0:
216,92,67145,1,8,0:0:0:0:
216,92,67301,1,8,0:0:0:0:
324,140,67458,1,0,0:0:0:0:
324,140,67770,1,8,0:0:0:0:
324,140,68083,1,0,0:0:0:0:
324,140,68708,1,8,0:0:0:0:
216,96,69020,1,0,0:0:0:0:
236,92,69176,1,0,0:0:0:0:
324,140,69333,1,8,0:0:0:0:
248,92,69645,1,8,0:0:0:0:
324,140,69958,1,0,0:0:0:0:
324,140,70270,1,8,0:0:0:0:
324,140,70583,1,0,0:0:0:0:
196,168,71208,5,4,0:0:0:0:
196,96,71520,1,4,0:0:0:0:
196,168,71833,1,4,0:0:0:0:
196,96,72145,1,4,0:0:0:0:
196,168,72458,1,12,0:0:0:0:
196,96,72770,1,12,0:0:0:0:
196,168,73083,1,12,0:0:0:0:
196,168,73708,1,4,0:0:0:0:
196,168,74020,1,4,0:0:0:0:
196,168,74333,1,12,0:0:0:0:
208,92,74645,1,12,0:0:0:0:
196,168,74958,1,4,0:0:0:0:
208,92,75583,1,8,0:0:0:0:
224,156,76051,1,4,0:0:0:0:
320,132,76520,1,8,0:0:0:0:
264,100,76833,1,0,0:0:0:0:
252,104,76989,1,0,0:0:0:0:
284,160,77145,1,8,0:0:0:0:
236,88,77458,1,0,0:0:0:0:
284,160,77770,1,8,0:0:0:0:
112,172,78083,1,0,0:0:0:0:
288,168,78551,1,4,0:0:0:0:
292,104,79020,1,8,0:0:0:0:
208,116,79333,1,0,0:0:0:0:
228,100,79489,1,0,0:0:0:0:
288,104,79645,1,8,0:0:0:0:
240,88,79958,1,0,0:0:0:0:
288,104,80583,1,8,0:0:0:0:
264,124,81051,1,4,0:0:0:0:
252,124,81520,1,8,0:0:0:0:
208,96,81833,1,0,0:0:0:0:
208,96,81989,1,0,0:0:0:0:
252,124,82145,1,8,0:0:0:0:
204,104,82458,1,0,0:0:0:0:
252,124,82770,1,8,0:0:0:0:
252,124,83083,1,0,0:0:0:0:
252,124,83551,1,4,0:0:0:0:
244,140,84020,1,8,0:0:0:0:
148,132,84333,1,0,0:0:0:0:
188,140,84489,1,0,0:0:0:0:
244,140,84645,1,8,0:0:0:0:
188,140,84958,1,0,0:0:0:0:
312,132,85270,1,8,0:0:0:0:
256,144,85583,1,0,0:0:0:0:
124,132,85739,1,0,0:0:0:0:
256,144,85895,1,0,0:0:0:0:
260,152,86208,1,8,0:0:0:0:
