osu file format v14

[General]
AudioFilename: audio.mp3
AudioLeadIn: 0
PreviewTime: 45504
Countdown: 0
SampleSet: Soft
StackLeniency: 0.5
Mode: 0
LetterboxInBreaks: 0
WidescreenStoryboard: 0

[Editor]
DistanceSpacing: 0.5
BeatDivisor: 4
GridSize: 4
TimelineZoom: 1

[Metadata]
Title:SAVIOR OF SONG (feat. MY FIRST STORY)
TitleUnicode:SAVIOR OF SONG (feat. MY FIRST STORY)
Artist:nano
ArtistUnicode:ナノ
Creator:A r M i N
Version:SCHOOLBOY'S EXTRA
Source:蒼き鋼のアルペジオ -アルス・ノヴァ-
Tags:opening aoki hagane no arpeggio of blue steel ars nova Armin A_r_M_i_N schoolboy Komore Kittyadventure _dt3 Turtle Akitoshi Corinn -Laura- Gero
BeatmapID:1573324
BeatmapSetID:743684

[Difficulty]
HPDrainRate:6
CircleSize:4
OverallDifficulty:8.5
ApproachRate:9.2
SliderMultiplier:1.7
SliderTickRate:1

[Events]
//Background and Video events
0,0,"Savior of Song.png",0,0
//Break Periods
//Storyboard Layer 0 (Background)
//Storyboard Layer 1 (Fail)
//Storyboard Layer 2 (Pass)
//Storyboard Layer 3 (Foreground)
//Storyboard Sound Samples

[TimingPoints]
583,312.5,4,2,2,40,1,0
583,-133.333333333333,4,2,2,40,0,0
9958,-100,4,2,1,70,0,0
20583,-133.333333333333,4,2,2,40,0,0
23004,-133.333333333333,4,2,2,40,0,0
23083,-133.333333333333,4,2,1,50,0,0
23551,-133.333333333333,4,2,2,50,0,0
32301,-133.333333333333,4,2,1,50,0,0
32458,-133.333333333333,4,2,1,60,0,0
33083,-117.647058823529,4,2,1,65,0,0
35583,-111.111111111111,4,2,1,65,0,0
38083,-105.263157894737,4,2,1,65,0,0
40583,-100,4,2,1,70,0,0
43083,-100,4,2,2,40,0,0
45583,-200,4,2,2,40,0,0
45973,-200,4,2,2,5,0,0
46051,-90.9090909090909,4,2,1,85,0,1
46207,312.5,4,2,1,85,1,1
46207,-90.9090909090909,4,2,1,85,0,1
51128,-90.9090909090909,4,2,1,5,0,1
51207,-90.9090909090909,4,2,1,85,0,1
55972,-90.9090909090909,4,2,1,85,0,0
56050,-90.9090909090909,4,2,1,85,0,1
61128,-90.9090909090909,4,2,1,5,0,1
61207,-90.9090909090909,4,2,1,85,0,1
66128,-90.9090909090909,4,2,1,85,0,0
66207,-90.9090909090909,4,2,1,85,0,1
76050,-100,4,2,1,70,0,0

[Colours]
Combo1 : 253,165,142
Combo2 : 151,28,71
Combo3 : 65,164,213
Combo4 : 19,56,108
SliderBorder : 255,255,255
SliderTrackOverride : 0,0,0

[HitObjects]
132,223,583,5,0,0:0:0:0:
132,223,739,2,0,P|126:191|118:161,1,63.7500024318696,2|0,0:0|0:0,0:0:0:0:
48,116,1051,1,2,0:0:0:0:
118,161,1208,2,0,P|190:176|239:139,1,127.500004863739,2|2,0:0|0:0,0:0:0:0:
288,81,1676,1,2,0:0:0:0:
483,212,1989,1,2,0:0:0:0:
308,310,2301,2,0,P|311:277|317:228,1,63.7500024318696,2|0,0:0|0:0,0:0:0:0:
242,200,2614,2,0,P|207:239|234:320,1,127.500004863739,2|2,0:0|0:0,0:0:0:0:
120,381,3083,6,0,P|122:349|127:317,1,63.7500024318696,0|2,0:0|0:0,0:0:0:0:
65,258,3395,1,2,0:0:0:0:
132,204,3551,1,2,0:0:0:0:
54,139,3708,2,0,P|120:158|175:117,1,127.500004863739,2|2,0:0|0:0,0:0:0:0:
221,64,4176,2,0,P|214:32|207:1,1,63.7500024318696,2|0,0:0|0:0,0:0:0:0:
292,110,4489,2,0,L|278:172,1,63.7500024318696,2|0,0:0|0:0,0:0:0:0:
332,238,4801,2,0,B|423:261|424:178|513:201,1,191.250007295609,2|0,0:0|0:0,0:0:0:0:
481,286,5426,6,0,P|474:315|468:351,1,63.7500024318696,2|0,0:0|0:0,0:0:0:0:
393,382,5739,1,2,0:0:0:0:
317,337,5895,2,0,P|279:329|240:336,1,63.7500024318696,2|2,0:0|0:0,0:0:0:0:
165,378,6208,2,0,P|140:315|175:248,1,127.500004863739,2|2,0:0|0:0,0:0:0:0:
216,195,6676,1,2,0:0:0:0:
155,134,6833,1,2,0:0:0:0:
155,134,6989,2,0,P|113:143|66:145,1,63.7500024318696,2|0,0:0|0:0,0:0:0:0:
25,93,7301,1,2,0:0:0:0:
216,195,7614,1,2,0:0:0:0:
44,300,7926,5,0,0:0:0:0:
256,192,8004,12,0,9645,0:0:0:0:
78,346,9958,6,0,L|62:276,1,42.5,8|8,0:0|0:0,0:0:0:0:
181,231,10114,2,0,L|170:303,1,42.5,8|8,0:0|0:0,0:0:0:0:
89,188,10270,2,0,L|74:117,1,42.5,8|8,0:0|0:0,0:0:0:0:
176,66,10426,6,0,B|269:43|251:115|349:96,1,170,6|2,0:0|0:0,0:0:0:0:
372,86,10817,1,2,0:0:0:0:
372,86,10895,2,0,P|364:127|357:178,1,85,8|0,0:0|0:0,0:0:0:0:
511,286,11208,1,2,0:0:0:0:
453,150,11364,1,2,0:0:0:0:
385,342,11520,1,8,0:0:0:0:
221,257,11676,6,0,P|175:241|116:246,1,85,2|0,0:0|0:0,0:0:0:0:
0,362,11989,2,0,P|64:361|100:337,1,85,2|8,0:0|0:0,0:0:0:0:
13,142,12301,2,0,P|21:182|32:238,1,85,0|2,0:0|0:0,0:0:0:0:
180,124,12614,2,0,P|191:83|165:25,1,85,2|8,0:0|0:0,0:0:0:0:
300,212,12926,6,0,B|385:233|385:165|461:184,1,170,6|2,0:0|0:0,0:0:0:0:
492,211,13317,1,2,0:0:0:0:
492,211,13395,2,0,L|509:127,1,85,8|0,0:0|0:0,0:0:0:0:
314,18,13708,1,2,0:0:0:0:
385,173,13864,1,2,0:0:0:0:
472,0,14020,1,8,0:0:0:0:
270,120,14176,6,0,P|230:114|171:106,1,85,2|0,0:0|0:0,0:0:0:0:
38,229,14489,1,0,0:0:0:0:
58,224,14567,1,0,0:0:0:0:
78,219,14645,1,8,0:0:0:0:
36,119,14801,1,2,0:0:0:0:
103,319,14958,1,2,0:0:0:0:
186,108,15114,1,0,0:0:0:0:
38,229,15270,1,8,0:0:0:0:
236,312,15426,6,0,P|320:299|404:291,1,170,6|2,0:0|0:0,0:0:0:0:
469,230,15817,1,2,0:0:0:0:
469,230,15895,2,0,P|411:204|372:214,1,85,8|0,0:0|0:0,0:0:0:0:
290,132,16208,1,2,0:0:0:0:
403,52,16364,1,2,0:0:0:0:
313,251,16520,1,8,0:0:0:0:
172,100,16676,6,0,P|179:54|186:10,1,85,2|0,0:0|0:0,0:0:0:0:
2,150,16989,2,0,P|52:130|105:132,1,85,2|8,0:0|0:0,0:0:0:0:
124,299,17301,2,0,P|74:319|21:317,1,85,0|2,0:0|0:0,0:0:0:0:
205,204,17614,2,0,P|248:212|304:226,1,85,2|8,0:0|0:0,0:0:0:0:
466,370,17926,6,0,P|504:280|455:219,1,170,6|2,0:0|0:0,0:0:0:0:
388,206,18317,1,2,0:0:0:0:
388,206,18395,2,0,L|398:299,1,85,8|0,0:0|0:0,0:0:0:0:
484,134,18708,1,2,0:0:0:0:
288,221,18864,1,2,0:0:0:0:
475,339,19020,1,8,0:0:0:0:
264,372,19176,6,0,P|224:362|160:361,1,85,2|0,0:0|0:0,0:0:0:0:
88,217,19489,1,2,0:0:0:0:
0,318,19645,2,0,L|84:306,1,85,8|0,0:0|0:0,0:0:0:0:
225,229,19958,6,0,L|236:181,1,42.5,8|8,0:0|0:0,0:0:0:0:
111,69,20114,2,0,L|122:134,1,42.5,8|8,0:0|0:0,0:0:0:0:
259,96,20270,2,0,L|207:85,1,42.5,8|8,0:0|0:0,0:0:0:0:
88,217,20426,2,0,L|129:208,1,42.5,8|8,0:0|0:0,0:0:0:0:
322,297,20583,6,0,L|311:370,1,63.7500024318696,2|0,0:0|0:0,0:0:0:0:
312,360,21051,2,0,P|379:334|441:353,1,127.500004863739,2|0,0:0|0:0,0:0:0:0:
512,272,21520,6,0,P|481:266|439:257,1,63.7500024318696,2|0,0:0|0:0,0:0:0:0:
449,259,21989,2,0,P|462:192|481:118,1,127.500004863739,2|0,0:0|0:0,0:0:0:0:
426,63,22458,1,2,0:0:0:0:
488,2,22614,1,0,0:0:0:0:
416,69,22770,2,0,P|373:65|310:56,1,95.6250036478044,2|0,0:0|0:0,0:0:0:0:
306,54,23083,6,0,L|327:190,1,127.500004863739,6|0,0:0|0:0,0:0:0:0:
241,233,23551,2,0,P|205:178|245:119,1,127.500004863739,2|0,0:0|0:0,0:0:0:0:
155,67,24020,2,0,P|100:79|30:92,1,127.500004863739,2|0,0:0|0:0,0:0:0:0:
0,194,24489,2,0,P|55:182|124:168,1,127.500004863739,2|0,0:0|0:0,0:0:0:0:
203,223,25270,1,2,0:0:0:0:
203,223,25583,6,0,P|212:152|223:75,1,127.500004863739,2|0,0:0|0:0,0:0:0:0:
297,150,26051,2,0,P|360:175|425:131,1,127.500004863739,2|0,0:0|0:0,0:0:0:0:
411,51,26520,2,0,P|353:27|297:52,1,127.500004863739,2|0,0:0|0:0,0:0:0:0:
219,96,26989,2,0,P|155:86|92:77,1,127.500004863739,2|0,0:0|0:0,0:0:0:0:
17,121,27458,1,2,0:0:0:0:
81,185,27614,1,0,0:0:0:0:
21,259,27770,2,0,P|68:230|146:249,1,127.500004863739,2|2,0:0|0:0,0:0:0:0:
300,362,28395,6,0,P|306:326|320:272,1,63.7500024318696,2|0,0:0|0:0,0:0:0:0:
215,219,28708,2,0,L|233:305,1,63.7500024318696,2|0,0:0|0:0,0:0:0:0:
300,218,29020,1,2,0:0:0:0:
243,138,29176,1,0,0:0:0:0:
320,83,29333,2,0,P|354:90|388:101,1,63.7500024318696,2|0,0:0|0:0,0:0:0:0:
237,22,29645,2,0,P|177:35|105:52,1,127.500004863739,2|0,0:0|0:0,0:0:0:0:
28,25,30270,1,2,0:0:0:0:
28,25,30583,6,0,P|39:87|51:150,1,127.500004863739,2|0,0:0|0:0,0:0:0:0:
125,205,31051,2,0,P|190:167|244:186,1,127.500004863739,2|0,0:0|0:0,0:0:0:0:
307,237,31520,2,0,P|369:226|433:218,1,127.500004863739,2|0,0:0|0:0,0:0:0:0:
490,292,31989,2,0,P|421:333|374:296,1,127.500004863739,2|2,0:0|0:0,0:0:0:0:
201,238,32458,5,10,0:0:0:0:
256,347,32614,1,8,3:0:0:0:
279,176,32770,1,8,3:0:0:0:
108,254,32926,1,8,3:0:0:0:
256,347,33083,6,0,P|295:339|329:335,1,72.2500013780594,6|0,0:0|0:0,0:0:0:0:
474,275,33395,2,0,P|435:267|401:263,1,72.2500013780594,2|0,0:0|3:0,0:0:0:0:
250,207,33708,2,0,P|289:199|323:195,1,72.2500013780594,2|0,0:0|3:0,0:0:0:0:
470,136,34020,2,0,P|431:128|397:124,1,72.2500013780594,2|0,0:0|3:0,0:0:0:0:
304,49,34333,6,0,P|207:70|151:80,1,144.500002756119,2|2,0:0|0:0,0:0:0:0:
45,141,34801,2,0,P|17:94|57:18,1,144.500002756119,0|0,3:0|3:0,0:0:0:0:
154,165,35270,2,0,L|143:252,1,72.2500013780594,2|0,0:0|3:0,0:0:0:0:
240,343,35583,5,2,0:0:0:0:
240,343,35739,1,0,0:0:0:0:
240,343,35895,2,0,P|279:339|329:335,1,76.4999976654053,2|0,0:0|3:0,0:0:0:0:
443,287,36208,2,0,P|434:322|426:362,1,76.4999976654053,2|0,0:0|3:0,0:0:0:0:
343,247,36520,1,2,0:0:0:0:
430,167,36676,1,0,3:0:0:0:
328,100,36833,6,0,P|321:63|315:21,1,76.4999976654053,2|0,0:0|3:0,0:0:0:0:
176,168,37145,2,0,P|184:133|188:92,1,76.4999976654053,2|0,0:0|3:0,0:0:0:0:
323,235,37458,2,0,P|382:221|411:225,1,76.4999976654053,2|0,0:0|3:0,0:0:0:0:
155,293,37770,2,0,P|96:279|67:283,1,76.4999976654053,2|0,0:0|3:0,0:0:0:0:
277,384,38083,5,2,0:0:0:0:
368,308,38239,1,0,3:0:0:0:
243,208,38395,2,0,P|250:245|260:300,1,80.7499978437424,2|0,0:0|3:0,0:0:0:0:
440,195,38708,2,0,P|404:187|351:177,1,80.7499978437424,2|0,0:0|0:0,0:0:0:0:
214,95,39020,2,0,P|254:87|301:81,1,80.7499978437424,2|0,0:0|3:0,0:0:0:0:
435,30,39333,5,2,0:0:0:0:
360,178,39489,1,0,3:0:0:0:
502,126,39645,1,2,0:0:0:0:
340,22,39801,1,0,3:0:0:0:
475,216,39958,5,0,0:0:0:0:
435,30,40114,1,0,3:0:0:0:
329,272,40270,1,2,0:0:0:0:
329,272,40583,5,8,0:0:0:0:
98,119,40739,1,8,0:0:0:0:
290,165,40895,1,8,0:0:0:0:
120,321,41051,1,8,0:0:0:0:
120,321,41520,5,8,0:0:0:0:
370,185,41676,1,8,0:0:0:0:
177,212,41832,1,8,0:0:0:0:
412,350,41989,1,8,0:0:0:0:
342,71,42458,6,0,B|310:240|310:240|333:196|371:184,1,255
256,192,43083,12,2,45270,0:0:0:0:
163,236,45583,5,0,0:0:0:0:
163,236,45739,2,0,L|153:289,1,42.5,0|2,0:0|0:0,0:0:0:0:
92,175,46051,6,0,P|162:207|255:139,1,187.000005706787,6|2,0:0|0:0,0:0:0:0:
324,62,46519,2,0,P|285:39|220:43,1,93.5000028533936,8|0,0:0|0:0,0:0:0:0:
379,168,46832,2,0,P|425:159|470:151,1,93.5000028533936,2|2,0:0|0:0,0:0:0:0:
299,271,47144,1,8,0:0:0:0:
412,368,47300,2,0,P|418:321|425:275,1,93.5000028533936,2|0,0:0|0:0,0:0:0:0:
174,152,47613,2,0,P|181:197|187:244,1,93.5000028533936,2|8,0:0|0:0,0:0:0:0:
291,172,47925,1,0,0:0:0:0:
80,257,48082,1,2,0:0:0:0:
282,358,48238,2,0,P|304:299|294:260,1,93.5000028533936,2|8,0:0|0:0,0:0:0:0:
214,59,48550,6,0,P|199:151|186:243,1,187.000005706787,6|2,0:0|0:0,0:0:0:0:
310,93,49019,1,8,0:0:0:0:
71,170,49175,1,0,0:0:0:0:
298,270,49332,1,2,0:0:0:0:
58,167,49488,1,2,0:0:0:0:
214,59,49644,1,8,0:0:0:0:
185,243,49800,6,0,P|192:288|199:335,1,93.5000028533936,2|0,0:0|0:0,0:0:0:0:
426,247,50113,2,0,P|382:240|333:233,1,93.5000028533936,2|8,0:0|0:0,0:0:0:0:
217,141,50425,1,0,3:0:0:0:
318,46,50582,2,0,P|333:91|329:137,1,93.5000028533936,0|2,0:0|0:0,0:0:0:0:
184,243,50894,2,0,P|122:202|36:233,1,140.25000428009,8|0,0:0|0:0,0:0:0:0:
37,230,51207,6,0,P|43:183|49:137,1,93.5000028533936,6|0,0:0|0:0,0:0:0:0:
108,353,51519,2,0,P|63:351|-5:377,1,93.5000028533936,8|0,0:0|0:0,0:0:0:0:
184,242,51832,2,0,P|272:265|368:273,1,187.000005706787,2|8,0:0|0:0,0:0:0:0:
487,158,52300,2,0,P|440:155|396:177,1,93.5000028533936
460,263,52613,1,0,0:0:0:0:
389,72,52769,6,0,B|289:43|309:122|197:97,1,187.000005706787,8|2,0:0|0:0,0:0:0:0:
8,119,53238,1,0,0:0:0:0:
115,46,53394,2,0,P|123:92|127:138,1,93.5000028533936,8|0,0:0|0:0,0:0:0:0:
0,316,53707,6,0,P|77:252|176:287,1,187.000005706787,2|8,0:0|0:0,0:0:0:0:
359,252,54175,2,0,P|349:292|342:349,1,93.5000028533936,0|2,0:0|0:0,0:0:0:0:
246,209,54488,2,0,L|234:108,1,93.5000028533936,0|8,0:0|0:0,0:0:0:0:
95,5,54800,6,0,P|47:42|63:166,1,187.000005706787,0|0,0:0|0:0,0:0:0:0:
246,209,55269,1,8,0:0:0:0:
126,95,55425,1,0,0:0:0:0:
19,263,55582,6,0,L|92:246,1,46.7500014266968,8|8,0:0|0:0,0:0:0:0:
188,349,55738,2,0,L|143:359,1,46.7500014266968,8|8,0:0|0:0,0:0:0:0:
284,254,55894,2,0,L|358:278,1,46.7500014266968,8|8,0:0|0:0,0:0:0:0:
460,383,56050,6,0,P|491:222|504:175,1,187.000005706787,6|2,0:0|0:0,0:0:0:0:
382,78,56519,2,0,L|398:193,1,93.5000028533936,8|0,0:0|0:0,0:0:0:0:
285,268,56832,2,0,P|221:277|182:255,1,93.5000028533936,2|2,0:0|0:0,0:0:0:0:
111,111,57144,1,8,0:0:0:0:
0,233,57300,2,0,L|105:219,1,93.5000028533936,2|0,0:0|0:0,0:0:0:0:
35,41,57613,2,0,P|14:81|14:139,1,93.5000028533936,2|8,0:0|0:0,0:0:0:0:
196,266,57925,2,0,P|217:226|217:168,1,93.5000028533936,0|2,0:0|0:0,0:0:0:0:
111,111,58238,1,2,0:0:0:0:
134,339,58394,1,8,0:0:0:0:
318,229,58550,6,0,B|415:197|398:279|510:254,1,187.000005706787,6|2,0:0|0:0,0:0:0:0:
368,104,59019,1,8,0:0:0:0:
239,233,59175,1,0,0:0:0:0:
460,162,59332,1,2,0:0:0:0:
256,99,59488,1,2,0:0:0:0:
398,314,59644,1,8,0:0:0:0:
230,352,59800,6,0,P|169:339|126:351,1,93.5000028533936,2|0,0:0|0:0,0:0:0:0:
0,218,60113,2,0,P|49:210|98:203,1,93.5000028533936,2|8,0:0|0:0,0:0:0:0:
199,39,60425,2,0,P|192:85|185:131,1,93.5000028533936,0|0,3:0|0:0,0:0:0:0:
375,245,60738,1,2,0:0:0:0:
253,373,60894,2,0,P|229:306|273:234,1,140.25000428009,8|0,0:0|0:0,0:0:0:0:
284,227,61207,6,0,P|329:239|385:247,1,93.5000028533936,6|0,0:0|0:0,0:0:0:0:
184,131,61519,2,0,L|86:150,1,93.5000028533936,8|0,0:0|0:0,0:0:0:0:
307,36,61832,2,0,P|395:29|439:120,1,187.000005706787,2|8,0:0|0:0,0:0:0:0:
301,245,62300,2,0,L|284:132,1,93.5000028533936
422,250,62613,1,0,0:0:0:0:
295,352,62769,2,0,P|255:335|200:337,1,93.5000028533936,8|0,0:0|0:0,0:0:0:0:
40,234,63082,2,0,P|31:185|60:132,1,93.5000028533936,2|0,0:0|0:0,0:0:0:0:
157,264,63394,1,8,0:0:0:0:
15,357,63550,1,0,0:0:0:0:
160,169,63707,6,0,P|268:188|357:201,1,187.000005706787,2|8,0:0|0:0,0:0:0:0:
442,59,64175,2,0,P|396:69|346:81,1,93.5000028533936,0|2,0:0|0:0,0:0:0:0:
470,245,64488,2,0,P|487:194|462:146,1,93.5000028533936,0|8,0:0|0:0,0:0:0:0:
345,343,64800,6,0,P|411:314|507:395,1,187.000005706787
334,238,65269,2,0,P|291:242|224:247,1,93.5000028533936,8|0,0:0|0:0,0:0:0:0:
44,320,65582,6,0,L|35:369,1,46.7500014266968,8|8,0:0|0:0,0:0:0:0:
153,271,65738,2,0,L|142:226,1,46.7500014266968,8|8,0:0|0:0,0:0:0:0:
36,141,65894,2,0,L|27:186,1,46.7500014266968,8|8,0:0|0:0,0:0:0:0:
167,87,66050,2,0,L|156:42,1,46.7500014266968,8|8,0:0|0:0,0:0:0:0:
302,184,66207,6,0,L|426:169,1,93.5000028533936,6|0,0:0|0:0,0:0:0:0:
334,78,66519,1,8,0:0:0:0:
509,185,66675,1,0,0:0:0:0:
345,283,66832,1,2,0:0:0:0:
452,98,66988,2,0,P|445:51|437:5,1,93.5000028533936,2|8,0:0|0:0,0:0:0:0:
302,184,67300,6,0,P|255:175|196:168,1,93.5000028533936,0|6,0:0|0:0,0:0:0:0:
39,312,67613,2,0,P|90:317|137:293,1,93.5000028533936,0|8,0:0|0:0,0:0:0:0:
72,209,67925,1,0,0:0:0:0:
237,277,68082,1,2,0:0:0:0:
59,202,68238,1,2,0:0:0:0:
239,92,68394,1,8,0:0:0:0:
166,210,68550,1,0,0:0:0:0:
22,119,68707,6,0,P|66:94|120:98,1,93.5000028533936,6|0,0:0|0:0,0:0:0:0:
289,157,69019,1,8,0:0:0:0:
227,5,69175,2,0,P|220:50|213:103,1,93.5000028533936,0|2,0:0|0:0,0:0:0:0:
383,196,69488,1,2,0:0:0:0:
314,68,69644,1,8,0:0:0:0:
325,278,69800,6,0,P|382:298|420:287,1,93.5000028533936,0|6,0:0|0:0,0:0:0:0:
209,193,70113,1,0,0:0:0:0:
304,364,70269,1,8,0:0:0:0:
383,196,70425,1,0,0:0:0:0:
205,290,70582,2,0,L|88:273,1,93.5000028533936,2|2,0:0|0:0,0:0:0:0:
29,118,70894,1,8,0:0:0:0:
168,191,71050,1,0,0:0:0:0:
31,344,71207,6,0,L|8:217,1,93.5000028533936,6|0,0:0|3:0,0:0:0:0:
151,98,71519,2,0,P|159:144|167:190,1,93.5000028533936,8|0,0:0|3:0,0:0:0:0:
311,349,71832,5,8,0:0:0:0:
374,159,71988,1,0,3:0:0:0:
400,321,72144,5,8,0:0:0:0:
305,93,72300,1,0,3:0:0:0:
512,246,72457,6,0,P|470:239|415:234,1,93.5000028533936,8|0,0:0|3:0,0:0:0:0:
218,360,72769,2,0,P|260:353|315:348,1,93.5000028533936,8|0,0:0|3:0,0:0:0:0:
441,140,73082,5,8,0:0:0:0:
233,207,73238,1,0,3:0:0:0:
419,234,73394,5,8,0:0:0:0:
171,127,73550,1,0,3:0:0:0:
348,57,73707,6,0,P|393:52|458:46,1,93.5000028533936,8|0,0:0|3:0,0:0:0:0:
201,224,74019,2,0,P|155:219|91:213,1,93.5000028533936,8|0,0:0|3:0,0:0:0:0:
353,290,74332,5,8,0:0:0:0:
253,90,74488,1,0,0:0:0:0:
442,214,74644,5,8,0:0:0:0:
234,311,74800,1,0,3:0:0:0:
347,120,74957,5,8,0:0:0:0:
448,341,75113,1,0,3:0:0:0:
259,195,75269,5,8,0:0:0:0:
461,111,75425,1,0,3:0:0:0:
353,290,75582,6,0,L|292:279,1,46.7500014266968,8|8,0:0|0:0,0:0:0:0:
113,169,75738,2,0,L|172:163,1,46.7500014266968,8|8,0:0|0:0,0:0:0:0:
358,61,75894,2,0,L|299:55,1,46.7500014266968,8|8,0:0|0:0,0:0:0:0:
61,273,76050,6,0,P|140:303|213:259,1,170,6|2,0:0|0:0,0:0:0:0:
259,195,76441,1,2,0:0:0:0:
259,195,76519,2,0,P|251:154|243:112,1,85,8|0,0:0|0:0,0:0:0:0:
163,50,76832,1,2,0:0:0:0:
350,122,76988,1,2,0:0:0:0:
161,226,77144,1,8,0:0:0:0:
303,346,77300,6,0,P|351:341|426:338,1,85,2|0,0:0|0:0,0:0:0:0:
512,223,77613,2,0,P|473:208|424:214,1,85,2|8,0:0|0:0,0:0:0:0:
332,112,77925,2,0,P|339:68|350:12,1,85,0|2,0:0|0:0,0:0:0:0:
190,130,78238,2,0,P|197:171|204:213,1,85,2|8,0:0|0:0,0:0:0:0:
278,349,78550,6,0,B|368:362|357:298|443:317,1,170,6|2,0:0|0:0,0:0:0:0:
508,363,78941,1,2,0:0:0:0:
508,363,79019,2,0,P|518:301|501:263,1,85,8|0,0:0|0:0,0:0:0:0:
346,190,79332,1,2,0:0:0:0:
440,317,79488,1,2,0:0:0:0:
497,130,79644,1,8,0:0:0:0:
333,201,79800,6,0,L|226:182,1,85,2|0,0:0|0:0,0:0:0:0:
98,87,80113,1,0,0:0:0:0:
103,107,80191,1,0,0:0:0:0:
108,127,80269,1,8,0:0:0:0:
172,17,80425,1,2,0:0:0:0:
3,125,80582,1,2,0:0:0:0:
172,204,80738,1,0,0:0:0:0:
98,87,80894,1,8,0:0:0:0:
0,266,81050,6,0,P|68:217|163:241,1,170,6|2,0:0|0:0,0:0:0:0:
213,289,81441,1,2,0:0:0:0:
213,289,81519,2,0,P|255:282|297:276,1,85,8|0,0:0|0:0,0:0:0:0:
507,232,81832,1,2,0:0:0:0:
411,349,81988,1,2,0:0:0:0:
283,190,82144,1,8,0:0:0:0:
426,59,82300,6,0,L|412:167,1,85,2|0,0:0|0:0,0:0:0:0:
266,300,82613,2,0,L|255:215,1,85,2|8,0:0|0:0,0:0:0:0:
367,295,82925,1,0,0:0:0:0:
186,354,83082,1,2,0:0:0:0:
349,198,83238,2,0,P|394:201|446:235,1,85,2|8,0:0|0:0,0:0:0:0:
182,114,83550,6,0,P|98:129|14:144,1,170,6|2,0:0|0:0,0:0:0:0:
57,225,83941,1,0,0:0:0:0:
57,225,84019,2,0,P|101:237|160:224,1,85,8|0,0:0|0:0,0:0:0:0:
306,76,84332,1,2,0:0:0:0:
110,149,84488,1,2,0:0:0:0:
278,289,84644,1,8,0:0:0:0:
211,108,84800,6,0,L|227:8,1,85,0|2,0:0|0:0,0:0:0:0:
110,149,85113,1,2,0:0:0:0:
229,223,85269,2,0,P|275:213|327:211,1,85,8|0,0:0|0:0,0:0:0:0:
512,137,85582,6,0,L|461:126,1,42.5,2|2,0:0|0:0,0:0:0:0:
365,37,85738,2,0,L|370:79,1,42.5,2|2,0:0|0:0,0:0:0:0:
248,177,85894,2,0,L|253:134,1,42.5,8|8,0:0|0:0,0:0:0:0:
141,66,86050,2,0,L|93:81,1,42.5,8|8,0:0|0:0,0:0:0:0:
