osu file format v14

[General]
AudioFilename: audio.mp3
AudioLeadIn: 0
PreviewTime: 45504
Countdown: 0
SampleSet: Soft
StackLeniency: 0.7
Mode: 0
LetterboxInBreaks: 0
WidescreenStoryboard: 0

[Editor]
DistanceSpacing: 1
BeatDivisor: 4
GridSize: 4
TimelineZoom: 1

[Metadata]
Title:SAVIOR OF SONG (feat. MY FIRST STORY)
TitleUnicode:SAVIOR OF SONG (feat. MY FIRST STORY)
Artist:nano
ArtistUnicode:ナノ
Creator:A r M i N
Version:EASY
Source:蒼き鋼のアルペジオ -アルス・ノヴァ-
Tags:opening aoki hagane no arpeggio of blue steel ars nova Armin A_r_M_i_N schoolboy Komore Kittyadventure _dt3 Turtle Akitoshi Corinn -Laura- Gero
BeatmapID:1568930
BeatmapSetID:743684

[Difficulty]
HPDrainRate:2
CircleSize:2.5
OverallDifficulty:2
ApproachRate:3
SliderMultiplier:0.899999999999999
SliderTickRate:1

[Events]
//Background and Video events
0,0,"Savior of Song.png",0,0
//Break Periods
2,7926,8986
2,20782,21643
//Storyboard Layer 0 (Background)
//Storyboard Layer 1 (Fail)
//Storyboard Layer 2 (Pass)
//Storyboard Layer 3 (Foreground)
//Storyboard Sound Samples

[TimingPoints]
583,312.5,4,2,2,40,1,0
9958,-100,4,2,1,70,0,0
20583,-100,4,2,2,40,0,0
23083,-100,4,2,1,50,0,0
23551,-100,4,2,2,50,0,0
32301,-100,4,2,1,50,0,0
32458,-100,4,2,1,60,0,0
33083,-100,4,2,1,65,0,0
35583,-100,4,2,1,65,0,0
38083,-100,4,2,1,65,0,0
40583,-100,4,2,1,70,0,0
43083,-100,4,2,2,40,0,0
45583,-100,4,2,2,40,0,0
46051,-100,4,2,1,85,0,1
46207,312.5,4,2,1,85,1,1
46207,-100,4,2,1,85,0,1
55972,-100,4,2,1,85,0,0
56050,-100,4,2,1,85,0,1
66128,-100,4,2,1,85,0,0
66207,-100,4,2,1,85,0,1
76050,-100,4,2,1,70,0,0

[Colours]
Combo1 : 253,165,142
Combo2 : 151,28,71
Combo3 : 65,164,213
Combo4 : 19,56,108
SliderBorder : 255,255,255
SliderTrackOverride : 0,0,0

[HitObjects]
364,56,583,6,0,B|447:36|447:36|495:56,2,135,2|2|2,0:0|0:0|0:0,0:0:0:0:
148,56,3083,6,0,B|65:36|65:36|17:56,2,135,2|2|2,0:0|0:0|0:0,0:0:0:0:
256,240,5583,6,0,L|256:376,2,135,2|2|2,0:0|0:0|0:0,0:0:0:0:
350,254,10426,6,0,P|368:317|336:378,2,135,6|8|2,0:0|0:0|0:0,0:0:0:0:
269,214,11676,2,0,L|178:225,1,89.9999999999999,2|2,0:0|0:0,0:0:0:0:
110,166,12301,2,0,P|107:118|128:78,1,89.9999999999999,2|2,0:0|0:0,0:0:0:0:
204,36,12926,6,0,L|338:52,2,135,6|8|2,0:0|0:0|0:0,0:0:0:0:
126,81,14176,2,0,P|107:121|109:165,1,89.9999999999999,2|2,0:0|0:0,0:0:0:0:
179,224,14801,1,2,0:0:0:0:
135,302,15114,1,2,0:0:0:0:
216,340,15426,6,0,L|350:323,2,135,6|8|2,0:0|0:0|0:0,0:0:0:0:
135,302,16676,2,0,P|132:257|151:217,1,89.9999999999999,2|2,0:0|0:0,0:0:0:0:
227,168,17301,2,0,L|316:178,1,89.9999999999999,2|2,0:0|0:0,0:0:0:0:
394,223,17926,6,0,P|404:162|365:103,2,135,6|8|2,0:0|0:0|0:0,0:0:0:0:
317,270,19176,2,0,L|182:253,1,135,2|8,0:0|0:0,0:0:0:0:
121,186,19958,1,8,0:0:0:0:
187,125,20270,2,0,P|190:80|171:40,1,89.9999999999999,8|2,0:0|0:0,0:0:0:0:
378,357,23083,6,0,P|312:366|258:328,2,135,6|2|2,0:0|0:0|0:0,0:0:0:0:
423,279,24333,2,0,L|406:144,2,135,2|2|2,0:0|0:0|0:0,0:0:0:0:
378,357,25583,6,0,P|312:366|258:328,1,135,2|2,0:0|0:0,0:0:0:0:
211,202,26520,2,0,B|128:182|128:182|82:201,1,135,2|2,0:0|0:0,0:0:0:0:
79,336,27458,2,0,L|168:325,1,89.9999999999999,2|0,0:0|0:0,0:0:0:0:
258,328,28083,5,2,0:0:0:0:
306,252,28395,2,0,P|308:207|289:167,1,89.9999999999999,2|0,0:0|0:0,0:0:0:0:
208,128,29020,1,2,0:0:0:0:
256,52,29333,1,2,0:0:0:0:
166,48,29645,2,0,B|88:99|148:139|69:192,1,180,2|2,0:0|0:0,0:0:0:0:
25,271,30583,6,0,P|90:280|144:242,1,135,2|2,0:0|0:0,0:0:0:0:
243,150,31520,2,0,B|326:130|326:130|371:149,1,135,2|2,0:0|0:0,0:0:0:0:
321,275,32458,2,0,L|231:264,1,89.9999999999999,10|8,0:0|3:0,0:0:0:0:
144,242,33083,6,0,B|136:182|136:182|151:127|151:127|144:64,1,180,6|2,0:0|0:0,0:0:0:0:
211,5,34020,1,2,0:0:0:0:
288,51,34333,2,0,B|333:70|333:70|416:50,2,135,2|0|2,0:0|3:0|0:0,0:0:0:0:
210,96,35583,5,2,0:0:0:0:
261,169,35895,2,0,P|263:214|244:254,1,89.9999999999999,2|2,0:0|0:0,0:0:0:0:
167,300,36520,1,2,0:0:0:0:
245,344,36833,2,0,L|335:333,1,89.9999999999999,2|2,0:0|0:0,0:0:0:0:
390,262,37458,2,0,P|392:217|373:177,1,89.9999999999999,2|2,0:0|0:0,0:0:0:0:
297,128,38083,5,2,0:0:0:0:
232,190,38395,2,0,L|142:179,1,89.9999999999999,2|2,0:0|0:0,0:0:0:0:
57,148,39020,1,2,0:0:0:0:
13,227,39333,2,0,B|-7:310|-7:310|12:355,2,135,2|0|2,0:0|3:0|0:0,0:0:0:0:
57,148,40583,6,0,L|40:13,1,135,8|8,0:0|0:0,0:0:0:0:
174,29,41520,2,0,L|190:162,1,135,8|8,0:0|0:0,0:0:0:0:
323,178,42458,2,0,L|307:312,1,135
256,192,43083,12,2,44333,0:0:0:0:
206,39,45583,6,0,P|183:32|158:30,1,45
79,63,46051,2,0,L|95:197,1,135,6|8,0:0|0:0,0:0:0:0:
50,276,46832,2,0,P|104:237|170:246,1,135,2|2,0:0|0:0,0:0:0:0:
232,311,47613,2,0,B|312:347|328:275|406:310,1,180,2|2,0:0|0:0,0:0:0:0:
484,354,48550,6,0,P|492:288|454:234,1,135,6|8,0:0|0:0,0:0:0:0:
376,189,49332,2,0,B|357:144|357:144|377:61,2,135,2|2|8,0:0|0:0|0:0,0:0:0:0:
454,234,50582,1,2,0:0:0:0:
405,310,50894,1,8,0:0:0:0:
327,265,51207,6,0,L|237:276,1,89.9999999999999,6|8,0:0|0:0,0:0:0:0:
184,349,51832,2,0,P|118:358|64:320,2,135,2|0|8,0:0|0:0|0:0,0:0:0:0:
238,276,53082,2,0,L|227:186,1,89.9999999999999,2|8,0:0|0:0,0:0:0:0:
282,115,53707,6,0,B|327:96|327:96|410:116,1,135,2|0,0:0|0:0,0:0:0:0:
465,187,54488,1,2,0:0:0:0:
410,258,54800,2,0,B|365:277|365:277|282:257,1,135,2|8,0:0|0:0,0:0:0:0:
227,186,55582,1,8,0:0:0:0:
207,319,56050,6,0,B|124:339|124:339|79:320,1,135,6|8,0:0|0:0,0:0:0:0:
0,273,56832,2,0,L|16:138,1,135,2|0,0:0|0:0,0:0:0:0:
88,85,57613,2,0,B|166:49|182:121|262:85,1,180,2|2,0:0|0:0,0:0:0:0:
312,10,58550,6,0,P|349:64|340:129,1,135,6|8,0:0|0:0,0:0:0:0:
267,183,59332,2,0,B|248:228|248:228|268:311,1,135,2|0,0:0|0:0,0:0:0:0:
340,365,60113,1,2,0:0:0:0:
412,311,60425,2,0,B|432:228|432:228|413:183,1,135,2|8,2:0|0:0,0:0:0:0:
340,130,61207,6,0,L|250:141,1,89.9999999999999,6|8,0:0|0:0,0:0:0:0:
191,73,61832,2,0,P|125:63|71:100,2,135,2|0|8,0:0|0:0|0:0,0:0:0:0:
251,141,63082,2,0,L|240:231,1,89.9999999999999,2|8,0:0|0:0,0:0:0:0:
295,301,63707,6,0,B|340:320|340:320|423:300,1,135,2|0,0:0|0:0,0:0:0:0:
478,229,64488,1,2,0:0:0:0:
423,158,64800,2,0,B|378:139|378:139|295:159,1,135,2|8,0:0|0:0,0:0:0:0:
229,222,65582,1,8,0:0:0:0:
160,163,65894,1,8,0:0:0:0:
96,227,66207,6,0,P|86:292|123:346,1,135,6|0,0:0|0:0,0:0:0:0:
210,369,66988,1,2,0:0:0:0:
272,304,67300,2,0,P|316:301|356:320,1,89.9999999999999,2|2,0:0|0:0,0:0:0:0:
430,372,67925,2,2,B|449:327|449:327|429:244,1,135,2|8,0:0|0:0,0:0:0:0:
346,206,68707,6,0,L|362:71,1,135,6|0,0:0|0:0,0:0:0:0:
288,19,69488,1,2,0:0:0:0:
227,85,69800,2,0,P|182:87|142:68,1,89.9999999999999,2|0,0:0|0:0,0:0:0:0:
68,16,70425,2,0,B|49:61|49:61|69:144,1,135,2|8,0:0|0:0,0:0:0:0:
133,207,71207,6,0,L|122:297,1,89.9999999999999,6|8,0:0|0:0,0:0:0:0:
211,308,71832,2,0,L|222:218,1,89.9999999999999,8|8,0:0|0:0,0:0:0:0:
310,229,72457,2,0,L|299:319,1,89.9999999999999,8|8,0:0|0:0,0:0:0:0:
388,330,73082,2,0,L|399:240,1,89.9999999999999,8|8,0:0|0:0,0:0:0:0:
472,188,73707,6,0,P|474:143|455:103,1,89.9999999999999,8|8,0:0|0:0,0:0:0:0:
372,68,74332,2,0,L|282:79,1,89.9999999999999,8|8,0:0|0:0,0:0:0:0:
215,139,74957,2,0,L|125:128,1,89.9999999999999,8|8,0:0|0:0,0:0:0:0:
50,178,75582,1,8,0:0:0:0:
163,251,76050,6,0,B|143:334|143:334|162:379,2,135,6|8|2,0:0|0:0|0:0,0:0:0:0:
243,214,77300,2,0,L|334:225,1,89.9999999999999,2|2,0:0|0:0,0:0:0:0:
402,166,77925,2,0,P|405:118|384:78,1,89.9999999999999,2|2,0:0|0:0,0:0:0:0:
308,36,78550,6,0,L|174:52,2,135,6|8|2,0:0|0:0|0:0,0:0:0:0:
386,81,79800,2,0,P|405:121|403:165,1,89.9999999999999,2|2,0:0|0:0,0:0:0:0:
333,224,80425,1,2,0:0:0:0:
377,302,80738,1,0,0:0:0:0:
296,340,81050,6,0,L|162:323,2,135,6|8|2,0:0|0:0|0:0,0:0:0:0:
377,302,82300,2,0,P|380:257|361:217,1,89.9999999999999,2|2,0:0|0:0,0:0:0:0:
285,168,82925,2,0,L|196:178,1,89.9999999999999,2|2,0:0|0:0,0:0:0:0:
118,223,83550,6,0,P|108:162|147:103,2,135,6|8|2,0:0|0:0|0:0,0:0:0:0:
182,286,84800,2,0,L|317:269,1,135,2|8,0:0|0:0,0:0:0:0:
360,190,85582,2,0,B|437:173|437:173|515:209,1,157.5,2|8,0:0|0:0,0:0:0:0:
