osu file format v14

[General]
AudioFilename: audio.mp3
AudioLeadIn: 0
PreviewTime: 45504
Countdown: 0
SampleSet: Soft
StackLeniency: 0.7
Mode: 0
LetterboxInBreaks: 0
WidescreenStoryboard: 0

[Editor]
DistanceSpacing: 0.9
BeatDivisor: 4
GridSize: 32
TimelineZoom: 1

[Metadata]
Title:SAVIOR OF SONG (feat. MY FIRST STORY)
TitleUnicode:SAVIOR OF SONG (feat. MY FIRST STORY)
Artist:nano
ArtistUnicode:ナノ
Creator:A r M i N
Version:AKITOSHI'S INSANE
Source:蒼き鋼のアルペジオ -アルス・ノヴァ-
Tags:opening aoki hagane no arpeggio of blue steel ars nova Armin A_r_M_i_N schoolboy Komore Kittyadventure _dt3 Turtle Akitoshi Corinn -Laura- Gero
BeatmapID:1571308
BeatmapSetID:743684

[Difficulty]
HPDrainRate:6
CircleSize:4
OverallDifficulty:8
ApproachRate:9
SliderMultiplier:1.7
SliderTickRate:1

[Events]
//Background and Video events
0,0,"Savior of Song.png",0,0
//Break Periods
2,7926,9333
//Storyboard Layer 0 (Background)
//Storyboard Layer 1 (Fail)
//Storyboard Layer 2 (Pass)
//Storyboard Layer 3 (Foreground)
//Storyboard Sound Samples

[TimingPoints]
583,312.5,4,2,2,40,1,0
583,-200,4,2,2,40,0,0
9958,-100,4,2,1,70,0,0
20583,-200,4,2,2,40,0,0
23083,-142.857142857143,4,2,1,50,0,0
23395,-142.857142857143,4,2,2,50,0,0
32301,-142.857142857143,4,2,1,50,0,0
32458,-125,4,2,1,60,0,0
33083,-111.111111111111,4,2,1,50,0,0
40583,-100,4,2,1,70,0,0
43083,-142.857142857143,4,2,2,40,0,0
45583,-181.818181818182,4,2,2,40,0,0
46051,-90.9090909090909,4,2,1,70,0,1
46207,312.5,4,2,1,85,1,1
46207,-90.9090909090909,4,2,1,85,0,1
55972,-90.9090909090909,4,2,1,85,0,0
56050,-90.9090909090909,4,2,1,85,0,1
66128,-90.9090909090909,4,2,1,85,0,0
66207,-90.9090909090909,4,2,1,85,0,1
76050,-100,4,2,1,70,0,0

[Colours]
Combo1 : 253,165,142
Combo2 : 151,28,71
Combo3 : 65,164,213
Combo4 : 19,56,108
SliderBorder : 255,255,255
SliderTrackOverride : 0,0,0

[HitObjects]
370,186,583,6,0,L|277:177,1,85,2|0,0:0|0:0,0:0:0:0:
221,121,1051,2,0,L|128:130,1,85,2|0,0:0|0:0,0:0:0:0:
72,186,1520,1,2,0:0:0:0:
72,186,3083,6,0,L|165:177,1,85,2|0,0:0|0:0,0:0:0:0:
221,121,3551,2,0,L|314:130,1,85,2|0,0:0|0:0,0:0:0:0:
370,186,4020,1,2,0:0:0:0:
370,186,5583,6,0,P|380:223|374:275,1,85,2|0,0:0|0:0,0:0:0:0:
291,275,6051,2,0,P|281:238|287:186,1,85,2|0,0:0|0:0,0:0:0:0:
323,115,6520,1,2,0:0:0:0:
323,115,9958,5,8,0:0:0:0:
283,123,10036,1,8,0:0:0:0:
252,98,10114,1,8,0:0:0:0:
252,58,10192,1,8,0:0:0:0:
283,33,10270,1,8,0:0:0:0:
323,42,10348,1,8,0:0:0:0:
340,78,10426,6,0,P|246:73|150:68,1,170,6|2,0:0|0:0,0:0:0:0:
22,155,10895,2,0,P|12:200|19:246,1,85,8|0,0:0|0:0,0:0:0:0:
183,203,11208,1,2,0:0:0:0:
40,126,11364,1,2,0:0:0:0:
134,296,11520,1,8,0:0:0:0:
279,165,11676,6,0,P|325:161|368:157,1,85,2|0,0:0|0:0,0:0:0:0:
250,307,11989,2,0,P|204:303|161:299,1,85,2|8,0:0|0:0,0:0:0:0:
48,153,12301,2,0,P|94:149|137:145,1,85,0|2,0:0|0:0,0:0:0:0:
273,65,12614,1,2,0:0:0:0:
88,37,12770,1,8,0:0:0:0:
237,175,12926,6,0,P|296:178|385:92,1,170,6|2,0:0|0:0,0:0:0:0:
390,74,13317,1,2,0:0:0:0:
390,74,13395,2,0,L|478:69,1,85,8|0,0:0|0:0,0:0:0:0:
319,171,13708,1,2,0:0:0:0:
233,4,13864,1,2,0:0:0:0:
131,190,14020,1,8,0:0:0:0:
305,69,14176,6,0,L|393:74,1,85,2|0,0:0|0:0,0:0:0:0:
475,250,14489,1,2,0:0:0:0:
475,250,14567,1,2,0:0:0:0:
475,250,14645,2,0,P|434:261|383:258,1,85,8|0,0:0|0:0,0:0:0:0:
221,203,14958,1,2,0:0:0:0:
302,361,15114,1,2,0:0:0:0:
369,159,15270,1,8,0:0:0:0:
217,308,15426,6,0,B|159:301|159:301|107:320|107:320|34:309,1,170,6|2,0:0|0:0,0:0:0:0:
85,109,15895,2,0,P|98:158|85:209,1,85,8|0,0:0|0:0,0:0:0:0:
22,328,16208,1,2,0:0:0:0:
2,159,16364,1,2,0:0:0:0:
140,308,16520,1,8,0:0:0:0:
203,141,16676,6,0,P|248:139|306:137,1,85,2|0,0:0|0:0,0:0:0:0:
225,312,16989,2,0,P|180:310|122:308,1,85,2|8,0:0|0:0,0:0:0:0:
1,196,17301,2,0,P|46:194|104:192,1,85,0|2,0:0|0:0,0:0:0:0:
192,48,17614,1,2,0:0:0:0:
2,95,17770,1,8,0:0:0:0:
181,223,17926,6,0,B|239:233|239:233|295:208|295:208|363:224,1,170,6|2,0:0|0:0,0:0:0:0:
387,235,18317,1,2,0:0:0:0:
387,235,18395,2,0,P|398:185|393:142,1,85,8|0,0:0|0:0,0:0:0:0:
256,52,18708,1,2,0:0:0:0:
266,221,18864,1,2,0:0:0:0:
371,46,19020,1,8,0:0:0:0:
191,141,19176,6,0,P|101:131|16:123,1,170,2|2,0:0|0:0,0:0:0:0:
95,314,19645,2,0,P|137:309|179:305,1,85,8|0,0:0|0:0,0:0:0:0:
366,287,19958,1,8,0:0:0:0:
382,262,20036,1,8,0:0:0:0:
393,234,20114,1,8,0:0:0:0:
399,205,20192,1,8,0:0:0:0:
399,175,20270,1,8,0:0:0:0:
394,146,20348,1,8,0:0:0:0:
383,118,20426,1,8,0:0:0:0:
368,93,20504,1,8,0:0:0:0:
348,71,20583,6,0,L|446:64,1,85,2|0,0:0|0:0,0:0:0:0:
263,65,21051,2,0,L|360:72,1,85,2|0,0:0|0:0,0:0:0:0:
264,148,21520,6,0,P|258:89|266:55,1,85,2|0,0:0|0:0,0:0:0:0:
263,232,21989,2,0,P|269:173|261:139,1,85,2|0,0:0|0:0,0:0:0:0:
166,79,22458,6,0,L|106:82,1,42.5,2|0,0:0|0:0,0:0:0:0:
69,140,22770,2,0,L|9:137,1,42.5,2|0,0:0|0:0,0:0:0:0:
62,259,23083,6,0,B|132:271|132:271|159:268|182:255,1,118.999996368408,6|0,0:0|0:0,0:0:0:0:
263,232,23551,2,0,P|268:297|273:355,1,118.999996368408,2|0,0:0|0:0,0:0:0:0:
360,366,24020,2,0,P|362:336|364:306,1,59.4999981842042,2|0,0:0|0:0,0:0:0:0:
423,239,24333,6,0,P|437:204|411:113,1,118.999996368408,2|0,0:0|0:0,0:0:0:0:
344,81,24801,2,0,P|309:95|218:69,1,118.999996368408,2|0,0:0|0:0,0:0:0:0:
161,23,25270,1,2,0:0:0:0:
24,139,25583,6,0,P|25:200|27:264,1,118.999996368408,2|0,0:0|0:0,0:0:0:0:
79,329,26051,2,0,P|121:345|194:322,1,118.999996368408,2|0,0:0|0:0,0:0:0:0:
250,259,26520,2,0,L|331:266,1,59.4999981842042,2|0,0:0|0:0,0:0:0:0:
398,261,26833,6,0,B|412:181|412:181|391:137,1,118.999996368408,2|0,0:0|0:0,0:0:0:0:
313,111,27301,2,0,B|233:125|233:125|189:104,1,118.999996368408,2|0,0:0|0:0,0:0:0:0:
124,58,27770,1,2,0:0:0:0:
296,11,28083,6,0,P|354:18|408:76,1,118.999996368408,2|0,0:0|0:0,0:0:0:0:
396,147,28551,2,0,P|343:153|287:215,1,118.999996368408,2|0,0:0|0:0,0:0:0:0:
261,278,29020,2,0,L|194:275,1,59.4999981842042,2|0,0:0|0:0,0:0:0:0:
122,232,29333,6,0,P|116:163|112:107,1,118.999996368408,2|0,0:0|0:0,0:0:0:0:
101,24,29801,2,0,P|54:44|22:121,1,118.999996368408,2|0,0:0|0:0,0:0:0:0:
22,191,30270,1,2,0:0:0:0:
140,325,30583,6,0,P|202:320|268:315,1,118.999996368408,2|0,0:0|0:0,0:0:0:0:
286,230,31051,2,0,P|223:225|158:220,1,118.999996368408,2|0,0:0|0:0,0:0:0:0:
140,135,31520,2,0,P|171:132|204:130,1,59.4999981842042,2|0,0:0|0:0,0:0:0:0:
282,97,31833,6,0,B|319:77|319:77|417:96,1,118.999996368408,2|0,0:0|0:0,0:0:0:0:
340,210,32301,1,2,0:0:0:0:
340,210,32379,1,2,0:0:0:0:
340,210,32458,1,8,0:0:0:0:
203,149,32614,1,2,0:0:0:0:
249,291,32770,1,4,3:0:0:0:
365,197,32926,1,4,3:0:0:0:
169,237,33083,6,0,L|71:227,1,76.4999976654053,6|0,0:0|0:0,0:0:0:0:
5,133,33395,2,0,P|68:102|160:120,2,152.999995330811,2|2|2,0:0|0:0|0:0,0:0:0:0:
92,229,34176,1,0,0:0:0:0:
253,156,34333,6,0,L|255:75,1,76.4999976654053,2|0,0:0|0:0,0:0:0:0:
378,169,34645,1,2,0:0:0:0:
284,258,34801,2,0,P|233:260|207:252,1,76.4999976654053,0|2,0:0|0:0,0:0:0:0:
253,156,35114,1,0,0:0:0:0:
379,277,35270,2,0,L|372:367,1,76.4999976654053,2|0,0:0|3:0,0:0:0:0:
497,196,35583,6,0,L|490:106,1,76.4999976654053,2|0,0:0|0:0,0:0:0:0:
394,33,35895,2,0,P|339:23|243:69,2,152.999995330811,2|2|2,0:0|0:0|0:0,0:0:0:0:
343,152,36676,1,0,3:0:0:0:
155,108,36833,6,0,L|148:17,1,76.4999976654053,2|0,0:0|0:0,0:0:0:0:
246,195,37145,2,0,L|239:286,1,76.4999976654053,2|0,0:0|0:0,0:0:0:0:
121,355,37458,2,0,P|78:362|38:355,1,76.4999976654053,2|0,0:0|0:0,0:0:0:0:
13,184,37770,2,0,P|56:177|96:184,1,76.4999976654053,2|0,0:0|0:0,0:0:0:0:
240,271,38083,6,0,L|337:261,1,76.4999976654053,2|0,0:0|0:0,0:0:0:0:
444,179,38395,2,0,P|458:122|417:25,2,152.999995330811,2|2|2,0:0|0:0|0:0,0:0:0:0:
316,263,39176,1,0,0:0:0:0:
255,121,39333,6,0,L|357:112,1,76.4999976654053,2|0,0:0|0:0,0:0:0:0:
171,219,39645,1,2,0:0:0:0:
199,37,39801,2,0,P|245:19|289:24,1,76.4999976654053,0|2,3:0|0:0,0:0:0:0:
186,200,40114,1,0,0:0:0:0:
16,96,40270,2,0,L|20:10,1,76.4999976654053,2|0,0:0|0:0,0:0:0:0:
255,121,40583,5,8,0:0:0:0:
12,199,40739,1,8,0:0:0:0:
183,10,40895,1,8,0:0:0:0:
153,262,41051,1,8,0:0:0:0:
153,262,41520,5,8,0:0:0:0:
396,184,41676,1,8,0:0:0:0:
225,373,41832,1,8,0:0:0:0:
255,121,41988,1,8,0:0:0:0:
255,121,43083,5,2,0:0:0:0:
255,121,43239,2,0,L|134:128,2,118.999996368408,2|2|2,0:0|0:0|0:0,0:0:0:0:
327,68,44020,2,0,L|397:72,1,59.4999981842042,2|0,0:0|0:0,0:0:0:0:
462,119,44333,6,0,P|470:151|463:189,1,59.4999981842042,2|0,0:0|0:0,0:0:0:0:
419,252,44645,1,2,0:0:0:0:
419,252,44801,1,0,0:0:0:0:
335,219,44958,2,0,P|298:217|263:225,1,59.4999981842042,2|0,0:0|0:0,0:0:0:0:
198,264,45270,2,0,P|161:266|126:258,1,59.4999981842042,2|0,0:0|0:0,0:0:0:0:
65,189,45583,5,0,0:0:0:0:
65,189,45739,2,0,L|61:126,1,46.7500014266968,0|2,0:0|0:0,0:0:0:0:
33,120,46051,6,0,B|43:255|43:255|-1:223,1,187.000005706787,6|2,0:0|0:0,0:0:0:0:
166,82,46519,2,0,L|175:190,1,93.5000028533936,8|0,0:0|0:0,0:0:0:0:
336,102,46832,1,2,0:0:0:0:
168,45,46988,1,2,0:0:0:0:
295,217,47144,1,8,0:0:0:0:
441,133,47300,6,0,P|443:84|423:33,1,93.5000028533936,2|0,0:0|0:0,0:0:0:0:
279,185,47613,1,2,0:0:0:0:
415,311,47769,2,0,L|518:301,1,93.5000028533936,8|0,0:0|0:0,0:0:0:0:
420,157,48082,1,2,0:0:0:0:
307,305,48238,1,2,0:0:0:0:
256,96,48394,1,8,0:0:0:0:
320,330,48550,6,0,B|286:320|261:318|261:318|212:340|212:340|179:325|130:324,1,187.000005706787,6|2,0:0|0:0,0:0:0:0:
43,163,49019,2,0,P|109:143|164:142,1,93.5000028533936,8|0,0:0|0:0,0:0:0:0:
317,179,49332,1,2,0:0:0:0:
168,235,49488,1,2,0:0:0:0:
257,39,49644,1,8,0:0:0:0:
323,213,49800,6,0,P|370:209|423:205,1,93.5000028533936,2|0,0:0|0:0,0:0:0:0:
235,31,50113,2,0,P|188:27|135:23,1,93.5000028533936,2|8,0:0|0:0,0:0:0:0:
200,220,50425,1,0,3:0:0:0:
200,220,50503,1,0,3:0:0:0:
200,220,50582,1,2,0:0:0:0:
334,90,50738,1,2,0:0:0:0:
114,132,50894,2,0,P|67:136|14:140,1,93.5000028533936,8|0,0:0|0:0,0:0:0:0:
150,357,51207,6,0,P|208:365|258:349,1,93.5000028533936,6|0,0:0|0:0,0:0:0:0:
437,270,51519,1,8,0:0:0:0:
288,173,51675,1,0,3:0:0:0:
288,173,51753,1,0,3:0:0:0:
288,173,51832,2,0,L|292:68,1,93.5000028533936,2|0,0:0|0:0,0:0:0:0:
467,185,52144,1,8,0:0:0:0:
278,266,52300,6,0,P|228:269|166:273,1,93.5000028533936,0|2,0:0|0:0,0:0:0:0:
364,374,52613,1,0,0:0:0:0:
467,185,52769,2,0,P|476:138|457:72,1,93.5000028533936,8|0,0:0|0:0,0:0:0:0:
414,283,53082,2,0,P|450:314|516:330,1,93.5000028533936,2|0,0:0|0:0,0:0:0:0:
356,188,53394,2,0,P|310:203|263:253,1,93.5000028533936,8|0,0:0|3:0,0:0:0:0:
238,310,53628,1,0,3:0:0:0:
238,310,53707,6,0,P|184:304|118:297,1,93.5000028533936,2|0,0:0|0:0,0:0:0:0:
1,152,54019,1,8,0:0:0:0:
148,93,54175,2,0,P|160:154|150:203,1,93.5000028533936,0|2,0:0|0:0,0:0:0:0:
319,91,54488,2,0,P|315:44|326:0,1,93.5000028533936,0|8,0:0|0:0,0:0:0:0:
490,166,54800,6,0,L|385:159,1,93.5000028533936,0|2,0:0|0:0,0:0:0:0:
248,220,55113,1,0,0:0:0:0:
406,350,55269,2,0,B|423:304|423:304|407:255,1,93.5000028533936,8|0,0:0|0:0,0:0:0:0:
243,122,55582,1,8,0:0:0:0:
204,105,55660,1,8,0:0:0:0:
162,100,55738,1,8,0:0:0:0:
121,107,55816,1,8,0:0:0:0:
84,125,55894,1,8,0:0:0:0:
53,154,55972,1,8,0:0:0:0:
32,190,56050,6,0,B|52:329|52:329|86:287,1,187.000005706787,6|2,0:0|0:0,0:0:0:0:
243,122,56519,2,0,L|343:128,1,93.5000028533936,8|0,0:0|0:0,0:0:0:0:
145,207,56832,1,2,0:0:0:0:
216,14,56988,1,2,0:0:0:0:
294,233,57144,1,8,0:0:0:0:
143,92,57300,6,0,P|94:86|37:103,1,93.5000028533936,2|0,0:0|0:0,0:0:0:0:
162,235,57613,1,2,0:0:0:0:
336,127,57769,2,0,P|333:79|330:27,1,93.5000028533936,8|0,0:0|0:0,0:0:0:0:
222,151,58082,1,2,0:0:0:0:
382,227,58238,1,2,0:0:0:0:
191,326,58394,1,8,0:0:0:0:
336,127,58550,6,0,B|367:116|396:116|396:116|412:126|431:132|431:132|465:105|512:107,1,187.000005706787,6|2,0:0|0:0,0:0:0:0:
382,227,59019,2,0,P|336:238|276:220,1,93.5000028533936,8|0,0:0|0:0,0:0:0:0:
150,104,59332,1,2,0:0:0:0:
336,127,59488,1,2,0:0:0:0:
149,251,59644,1,8,0:0:0:0:
243,100,59800,6,0,L|239:-1,1,93.5000028533936,2|0,0:0|0:0,0:0:0:0:
41,66,60113,2,0,L|37:167,1,93.5000028533936,2|8,0:0|0:0,0:0:0:0:
121,346,60425,1,0,3:0:0:0:
121,346,60503,1,0,3:0:0:0:
121,346,60582,1,2,0:0:0:0:
245,194,60738,1,2,0:0:0:0:
35,273,60894,2,0,P|12:318|14:374,1,93.5000028533936,8|0,0:0|0:0,0:0:0:0:
215,201,61207,6,0,P|212:154|190:113,1,93.5000028533936,6|0,0:0|0:0,0:0:0:0:
62,249,61519,1,8,0:0:0:0:
236,339,61675,1,0,3:0:0:0:
236,339,61753,1,0,3:0:0:0:
236,339,61832,2,0,P|285:333|354:327,1,93.5000028533936,2|0,0:0|0:0,0:0:0:0:
489,200,62144,1,8,0:0:0:0:
334,134,62300,6,0,P|321:183|329:240,1,93.5000028533936,0|2,0:0|0:0,0:0:0:0:
452,88,62613,1,0,0:0:0:0:
247,23,62769,2,0,L|144:28,1,93.5000028533936,8|0,0:0|0:0,0:0:0:0:
22,134,63082,2,0,L|125:139,1,93.5000028533936,2|0,0:0|0:0,0:0:0:0:
245,245,63394,2,0,L|142:250,1,93.5000028533936,8|0,0:0|3:0,0:0:0:0:
71,258,63628,1,0,3:0:0:0:
71,258,63707,6,0,P|63:307|77:358,1,93.5000028533936,2|0,0:0|0:0,0:0:0:0:
267,221,64019,1,8,0:0:0:0:
115,138,64175,2,0,L|22:134,1,93.5000028533936,0|2,0:0|0:0,0:0:0:0:
290,197,64488,2,0,L|383:192,1,93.5000028533936,0|8,0:0|0:0,0:0:0:0:
498,33,64800,6,0,P|448:17|392:24,1,93.5000028533936,0|2,0:0|0:0,0:0:0:0:
241,53,65113,1,0,0:0:0:0:
383,192,65269,2,0,B|395:237|395:237|384:288,1,93.5000028533936,8|0,0:0|0:0,0:0:0:0:
193,361,65582,1,8,0:0:0:0:
152,369,65660,1,8,0:0:0:0:
110,361,65738,1,8,0:0:0:0:
75,339,65816,1,8,0:0:0:0:
50,305,65894,1,8,0:0:0:0:
40,265,65972,1,8,0:0:0:0:
45,223,66050,1,8,0:0:0:0:
66,187,66128,1,8,0:0:0:0:
98,160,66207,6,0,P|146:164|206:168,1,93.5000028533936,6|0,0:0|0:0,0:0:0:0:
415,183,66519,1,8,0:0:0:0:
324,19,66675,2,0,P|258:19|206:41,1,93.5000028533936,0|2,0:0|0:0,0:0:0:0:
98,161,66988,1,2,0:0:0:0:
299,235,67144,2,0,P|295:186|291:128,1,93.5000028533936,8|0,0:0|0:0,0:0:0:0:
202,338,67457,5,6,0:0:0:0:
409,281,67613,1,0,3:0:0:0:
409,281,67691,1,0,3:0:0:0:
409,281,67769,2,0,P|414:213|402:177,1,93.5000028533936,8|0,0:0|0:0,0:0:0:0:
324,19,68082,1,2,0:0:0:0:
299,235,68238,1,2,0:0:0:0:
491,103,68394,2,0,L|496:3,1,93.5000028533936,8|0,0:0|0:0,0:0:0:0:
295,142,68707,6,0,L|300:242,1,93.5000028533936,6|0,0:0|0:0,0:0:0:0:
489,135,69019,1,8,0:0:0:0:
324,19,69175,2,0,P|271:18|213:46,1,93.5000028533936,0|2,0:0|0:0,0:0:0:0:
88,150,69488,1,2,0:0:0:0:
295,142,69644,2,0,P|345:145|392:148,1,93.5000028533936,8|0,0:0|0:0,0:0:0:0:
184,264,69957,5,6,0:0:0:0:
116,69,70113,1,0,3:0:0:0:
116,69,70191,1,0,3:0:0:0:
116,69,70269,2,0,P|60:70|11:104,1,93.5000028533936,8|0,0:0|0:0,0:0:0:0:
156,248,70582,1,2,0:0:0:0:
227,65,70738,1,2,0:0:0:0:
47,228,70894,2,0,L|57:341,1,93.5000028533936,8|0,0:0|0:0,0:0:0:0:
273,158,71207,5,6,0:0:0:0:
116,69,71363,1,0,3:0:0:0:
184,264,71519,2,0,P|229:261|299:259,1,93.5000028533936,8|0,0:0|3:0,0:0:0:0:
388,74,71832,2,0,P|342:71|273:69,1,93.5000028533936,8|0,0:0|3:0,0:0:0:0:
405,253,72144,2,0,P|450:250|520:248,1,93.5000028533936,8|0,0:0|3:0,0:0:0:0:
279,350,72457,6,0,P|269:307|278:255,1,93.5000028533936,8|0,0:0|3:0,0:0:0:0:
388,74,72769,2,0,P|398:117|389:169,1,93.5000028533936,8|0,0:0|3:0,0:0:0:0:
179,117,73082,2,0,P|222:107|274:116,1,93.5000028533936,8|0,0:0|3:0,0:0:0:0:
121,269,73394,2,0,P|78:279|26:270,1,93.5000028533936,8|0,0:0|3:0,0:0:0:0:
79,61,73707,5,8,0:0:0:0:
189,199,73863,1,0,3:0:0:0:
280,15,74019,2,0,L|385:20,1,93.5000028533936,8|0,0:0|3:0,0:0:0:0:
504,167,74332,2,0,L|399:172,1,93.5000028533936,8|0,0:0|3:0,0:0:0:0:
265,302,74644,2,0,L|370:307,1,93.5000028533936,8|0,0:0|3:0,0:0:0:0:
128,354,74957,5,8,0:0:0:0:
206,174,75113,1,0,3:0:0:0:
358,306,75269,2,0,L|486:300,1,93.5000028533936,8|0,0:0|3:0,0:0:0:0:
502,101,75582,1,8,0:0:0:0:
477,67,75660,1,8,0:0:0:0:
444,40,75738,1,8,0:0:0:0:
406,23,75816,1,8,0:0:0:0:
364,17,75894,1,8,0:0:0:0:
323,22,75972,1,8,0:0:0:0:
285,40,76050,6,0,P|292:121|300:225,1,170,6|2,0:0|0:0,0:0:0:0:
480,299,76519,2,0,P|483:256|486:214,1,85,8|0,0:0|0:0,0:0:0:0:
386,75,76832,1,2,0:0:0:0:
302,239,76988,1,2,0:0:0:0:
473,181,77144,1,8,0:0:0:0:
287,74,77300,6,0,L|181:83,1,85,2|0,0:0|0:0,0:0:0:0:
106,190,77613,1,2,0:0:0:0:
281,254,77769,1,8,0:0:0:0:
117,163,77925,2,0,L|11:154,1,85,2|0,0:0|0:0,0:0:0:0:
190,54,78238,1,2,0:0:0:0:
184,240,78394,1,8,0:0:0:0:
308,89,78550,6,0,B|343:103|381:94|381:94|399:79|399:79|435:68|481:85,1,170,6|2,0:0|0:0,0:0:0:0:
511,100,78941,1,2,0:0:0:0:
511,100,79019,2,0,L|502:187,1,85,8|0,0:0|0:0,0:0:0:0:
381,339,79332,1,2,0:0:0:0:
296,191,79488,1,2,0:0:0:0:
497,218,79644,1,8,0:0:0:0:
332,97,79800,6,0,P|280:99|226:102,1,85,2|0,0:0|0:0,0:0:0:0:
72,191,80113,1,0,0:0:0:0:
72,191,80191,1,0,0:0:0:0:
72,191,80269,2,0,P|124:193|178:196,1,85,8|0,0:0|0:0,0:0:0:0:
302,312,80582,1,2,0:0:0:0:
138,358,80738,1,2,0:0:0:0:
260,206,80894,1,8,0:0:0:0:
410,355,81050,6,0,P|471:329|499:228,1,170,6|2,0:0|0:0,0:0:0:0:
370,112,81519,2,0,L|379:208,1,85,8|0,0:0|0:0,0:0:0:0:
447,12,81832,1,2,0:0:0:0:
270,72,81988,1,2,0:0:0:0:
473,131,82144,1,8,0:0:0:0:
273,202,82300,6,0,P|230:212|179:202,1,85,2|0,0:0|0:0,0:0:0:0:
96,43,82613,2,0,P|125:73|141:112,1,85,2|8,0:0|0:0,0:0:0:0:
47,274,82925,2,0,P|58:233|84:199,1,85,0|2,0:0|0:0,0:0:0:0:
239,306,83238,1,2,0:0:0:0:
38,375,83394,1,8,0:0:0:0:
190,206,83550,6,0,P|282:200|377:194,1,170,6|2,0:0|0:0,0:0:0:0:
396,173,83941,1,2,0:0:0:0:
396,173,84019,2,0,P|441:175|486:177,1,85,8|0,0:0|0:0,0:0:0:0:
342,290,84332,1,2,0:0:0:0:
305,115,84488,1,2,0:0:0:0:
209,304,84644,1,8,0:0:0:0:
104,181,84800,6,0,P|98:131|108:94,1,85,0|2,0:0|0:0,0:0:0:0:
240,7,85113,1,0,0:0:0:0:
281,215,85269,2,0,L|191:211,1,85,8|0,0:0|0:0,0:0:0:0:
396,137,85582,5,2,0:0:0:0:
412,171,85660,1,2,0:0:0:0:
419,208,85738,1,2,0:0:0:0:
416,246,85816,1,2,0:0:0:0:
399,280,85894,5,8,0:0:0:0:
437,277,85972,1,8,0:0:0:0:
475,274,86050,1,8,0:0:0:0:
512,269,86128,2,0,L|504:215,1,42.5,8|0,0:0|0:0,0:0:0:0:
