osu file format v14

[General]
AudioFilename: audio.mp3
AudioLeadIn: 0
PreviewTime: 58456
Countdown: 0
SampleSet: Soft
StackLeniency: 0.3
Mode: 0
LetterboxInBreaks: 0
WidescreenStoryboard: 1

[Editor]
DistanceSpacing: 1.7
BeatDivisor: 4
GridSize: 32
TimelineZoom: 1.4

[Metadata]
Title:SABLE (TV Size)
TitleUnicode:SABLE (TV Size)
Artist:nano
ArtistUnicode:ナノ
Creator:browiec
Version:ZELQ'S EXTREME
Source:M3~ソノ黒キ鋼~
Tags:M3: Sono Kuroki Hagane M3 The Dark Metal Ending ed rock english anime zelq kuki1537 stixy -_nilou_- nilou syndicate_ majk00
BeatmapID:4432591
BeatmapSetID:2111538

[Difficulty]
HPDrainRate:5.8
CircleSize:4
OverallDifficulty:9.2
ApproachRate:9.4
SliderMultiplier:1.75
SliderTickRate:1

[Events]
//Background and Video events
0,0,"bee_gee.jpg",0,0
//Break Periods
//Storyboard Layer 0 (Background)
//Storyboard Layer 1 (Fail)
//Storyboard Layer 2 (Pass)
//Storyboard Layer 3 (Foreground)
//Storyboard Layer 4 (Overlay)
//Storyboard Sound Samples

[TimingPoints]
706,300,4,2,1,40,1,0
706,-117.647058823529,4,2,1,40,0,0
10306,-100,4,2,1,65,0,0
19606,-133.333333333333,4,2,1,65,0,0
19906,-133.333333333333,4,2,1,5,0,0
21856,-133.333333333333,4,2,1,50,0,0
22006,-83.3333333333333,4,2,1,50,0,0
22306,-105.263157894737,4,2,1,60,0,0
30706,-100,4,2,1,60,0,0
38956,-90.9090909090909,4,2,1,60,0,0
41506,-90.9090909090909,4,2,1,40,0,0
41806,-166.666666666667,4,2,1,40,0,0
43306,-111.111111111111,4,2,1,40,0,0
44206,-166.666666666667,4,2,1,40,0,0
45706,-111.111111111111,4,2,1,40,0,0
46606,-166.666666666666,4,2,1,40,0,0
48106,-111.111111111111,4,2,1,40,0,0
49006,-133.333333333333,4,2,1,40,0,0
51106,-100,4,2,1,55,0,0
55756,-83.3333333333333,4,2,1,65,0,0
56956,-90.9090909090909,4,2,1,65,0,0
60406,-142.857142857143,4,2,1,50,0,0
60706,-90.9090909090909,4,2,1,75,0,0
75106,-105.263157894737,4,2,1,65,0,0
78556,-86.9565217391304,4,2,1,65,0,0
79906,-100,4,2,1,70,0,0
84706,-83.3333333333333,4,2,1,80,0,0

[Colours]
Combo1 : 215,162,83
Combo2 : 216,186,218
Combo3 : 188,128,193
Combo4 : 242,202,142

[HitObjects]
424,354,706,5,2,0:0:0:0:
296,335,856,1,2,0:0:0:0:
469,252,1006,1,2,0:0:0:0:
341,233,1156,1,2,0:0:0:0:
341,233,1456,6,0,P|346:196|353:159,1,74.3750014185906,2|0,0:0|0:0,0:0:0:0:
479,87,1756,2,0,P|458:36|358:16,1,148.750002837181,2|2,0:0|0:0,0:0:0:0:
282,80,2206,1,2,0:0:0:0:
282,80,2506,6,0,P|224:75|147:59,1,111.562502127886,2|0,0:0|0:0,0:0:0:0:
160,61,2806,2,0,L|174:155,1,74.3750014185906,2|0,0:0|0:0,0:0:0:0:
92,228,3106,5,2,0:0:0:0:
256,193,3256,1,2,0:0:0:0:
110,337,3406,1,2,0:0:0:0:
275,302,3556,1,2,0:0:0:0:
275,302,3856,6,0,L|187:290,1,74.3750014185906,2|0,0:0|0:0,0:0:0:0:
88,348,4156,2,0,P|53:284|74:215,1,148.750002837181,2|2,0:0|0:0,0:0:0:0:
163,160,4606,1,2,0:0:0:0:
163,160,4906,5,2,0:0:0:0:
24,90,5056,1,2,0:0:0:0:
206,2,5206,2,0,L|195:86,1,74.3750014185906,2|2,0:0|0:0,0:0:0:0:
281,221,5506,5,2,0:0:0:0:
441,194,5656,1,2,0:0:0:0:
287,76,5806,1,2,0:0:0:0:
447,49,5956,1,2,0:0:0:0:
447,49,6256,6,0,P|400:40|369:25,1,74.3750014185906,2|0,0:0|0:0,0:0:0:0:
274,83,6556,2,0,B|269:165|306:146|296:253,1,148.750002837181,2|2,0:0|0:0,0:0:0:0:
255,334,7006,1,2,0:0:0:0:
255,334,7306,6,0,P|297:342|344:356,1,74.3750014185906,2|0,0:0|0:0,0:0:0:0:
471,244,7606,2,0,P|434:237|398:227,1,74.3750014185906,2|0,0:0|0:0,0:0:0:0:
228,354,7906,5,2,0:0:0:0:
263,185,8056,1,2,0:0:0:0:
81,364,8206,1,2,0:0:0:0:
116,195,8356,1,2,0:0:0:0:
116,195,8656,6,0,P|77:202|30:208,1,74.3750014185906,2|0,0:0|0:0,0:0:0:0:
88,66,8956,2,0,P|144:75|208:92,1,111.562502127886,2|0,0:0|0:0,0:0:0:0:
206,79,9256,2,0,P|202:39|197:-3,2,74.3750014185906,2|2|2,0:0|0:0|0:0,0:0:0:0:
337,188,9706,2,0,P|299:188|262:184,1,74.3750014185906,2|2,0:0|0:0,0:0:0:0:
73,54,10006,5,6,1:3:0:0:
73,53,10306,6,0,P|67:97|63:140,1,87.5,6|2,1:2|1:2,0:0:0:0:
224,318,10606,1,8,0:0:0:0:
112,369,10756,2,0,P|59:360|29:248,1,175,2|2,0:0|0:0,0:0:0:0:
174,160,11206,2,0,P|169:203|164:246,1,87.5,10|2,0:0|0:0,0:0:0:0:
326,384,11506,5,2,0:0:0:0:
477,294,11656,1,2,0:0:0:0:
305,203,11806,1,10,0:0:0:0:
379,287,11956,2,0,L|406:140,1,131.25,2|0,0:0|0:0,0:0:0:0:
412,152,12256,2,0,P|459:144|509:126,1,87.5,10|2,0:0|0:0,0:0:0:0:
242,90,12556,1,10,0:0:0:0:
330,0,12706,6,0,P|336:43|339:86,1,87.5,2|2,1:2|1:2,0:0:0:0:
189,226,13006,1,8,0:0:0:0:
74,185,13156,2,0,P|54:135|69:42,1,131.25,2|0,0:0|0:0,0:0:0:0:
68,52,13456,2,0,L|155:37,1,87.5,2|10,0:0|0:0,0:0:0:0:
265,121,13756,1,2,0:0:0:0:
104,269,13906,5,2,0:0:0:0:
327,215,14056,1,2,0:0:0:0:
230,384,14206,2,0,P|232:339|236:285,1,87.5,10|2,0:0|0:0,0:0:0:0:
156,143,14506,1,2,0:0:0:0:
17,280,14656,2,0,P|60:274|103:268,1,87.5,10|2,0:0|0:0,0:0:0:0:
265,121,14956,1,8,0:0:0:0:
356,356,15106,5,2,1:2:0:0:
189,226,15256,1,2,1:2:0:0:
455,133,15406,1,12,0:0:0:0:
347,256,15556,2,0,P|355:173|367:67,1,175,2|2,0:0|0:0,0:0:0:0:
492,233,16006,2,0,P|488:280|482:335,1,87.5,10|2,0:0|0:0,0:0:0:0:
270,374,16306,6,0,P|227:361|182:352,1,87.5,2|2,0:0|0:0,0:0:0:0:
374,277,16606,1,8,0:0:0:0:
273,201,16756,2,0,P|170:212|136:301,1,175,2|10,0:0|0:0,0:0:0:0:
30,375,17206,2,0,P|23:333|18:265,1,87.5,2|10,0:0|0:0,0:0:0:0:
157,61,17506,5,2,1:2:0:0:
252,285,17656,1,2,1:2:0:0:
9,167,17806,2,0,P|51:157|94:149,1,87.5,10|2,0:0|0:0,0:0:0:0:
280,72,18106,1,2,0:0:0:0:
136,266,18256,1,2,0:0:0:0:
57,8,18406,1,10,0:0:0:0:
209,194,18556,1,2,0:0:0:0:
387,103,18706,6,0,P|385:60|373:-5,1,87.5,2|2,0:0|0:0,0:0:0:0:
121,165,19006,2,0,P|122:207|135:273,1,87.5,8|2,0:0|1:2,0:0:0:0:
312,365,19306,1,2,1:2:0:0:
350,345,19381,1,0,1:0:0:0:
374,309,19456,1,0,1:0:0:0:
380,266,19531,1,0,1:0:0:0:
364,226,19606,2,0,B|315:219|315:219|278:230|278:230|228:223,1,131.25000500679,12|0,0:0|0:0,0:0:0:0:
230,205,21856,5,0,1:0:0:0:
230,205,21931,1,0,1:0:0:0:
230,205,22006,2,0,B|214:150|214:150|244:84,1,104.999996795654,8|0,0:0|0:0,0:0:0:0:
476,134,22306,6,0,B|384:125|400:166|295:157,1,166.249995560646,6|8,1:2|0:0,0:0:0:0:
441,313,22756,1,2,0:0:0:0:
441,313,22906,2,0,P|446:273|450:214,2,83.1249977803231,2|0|8,0:0|0:0|0:0,0:0:0:0:
297,358,23356,5,2,0:0:0:0:
207,293,23506,2,0,B|147:306|147:306|114:333|114:333|53:346,1,166.249995560646,2|8,0:0|0:0,0:0:0:0:
136,207,23956,1,2,0:0:0:0:
7,161,24106,1,2,0:0:0:0:
79,31,24256,2,0,P|83:72|88:138,1,83.1249977803231,10|0,0:0|0:0,0:0:0:0:
53,346,24556,6,0,P|48:304|44:239,1,83.1249977803231,10|0,0:0|1:0,0:0:0:0:
156,188,24856,2,0,P|199:199|263:210,1,83.1249977803231,2|8,1:2|0:0,0:0:0:0:
354,312,25156,2,0,P|366:229|372:146,1,166.249995560646,0|2,0:0|0:0,0:0:0:0:
184,46,25606,1,8,0:0:0:0:
237,206,25756,1,2,0:0:0:0:
395,47,25906,6,0,P|357:57|313:64,1,83.1249977803231,2|0,0:0|0:0,0:0:0:0:
479,246,26206,2,0,P|438:234|399:220,1,83.1249977803231,10|0,0:0|0:0,0:0:0:0:
293,139,26506,1,2,0:0:0:0:
205,294,26656,2,0,P|214:338|222:382,1,83.1249977803231,10|2,0:0|0:0,0:0:0:0:
335,282,26956,1,10,0:0:0:0:
75,374,27106,6,0,P|47:321|62:202,1,166.249995560646,0|10,1:0|0:0,0:0:0:0:
152,174,27556,1,2,0:0:0:0:
89,27,27706,2,0,P|84:69|76:110,1,83.1249977803231,2|0,0:0|0:0,0:0:0:0:
248,167,28006,2,0,P|253:120|264:71,1,83.1249977803231,8|2,0:0|0:0,0:0:0:0:
405,17,28306,2,0,P|469:65|471:145,1,166.249995560646,2|8,0:0|0:0,0:0:0:0:
335,222,28756,1,2,0:0:0:0:
480,297,28906,1,2,0:0:0:0:
349,377,29056,2,0,P|307:373|266:367,2,83.1249977803231,10|0|10,0:0|0:0|0:0,0:0:0:0:
245,211,29506,5,0,1:0:0:0:
458,123,29656,1,2,1:2:0:0:
278,69,29806,1,8,0:0:0:0:
370,300,29956,2,0,P|435:297|467:202,1,166.249995560646,0|2,0:0|0:0,0:0:0:0:
273,298,30406,2,0,P|266:339|264:380,1,83.1249977803231,8|2,0:0|0:0,0:0:0:0:
335,222,30706,6,0,P|341:180|344:132,1,87.5,2|2,0:0|1:2,0:0:0:0:
130,18,31006,1,10,0:0:0:0:
36,268,31156,1,8,0:0:0:0:
36,268,31231,1,8,0:0:0:0:
36,268,31306,1,10,1:2:0:0:
225,125,31456,1,8,0:0:0:0:
0,65,31606,1,8,0:0:0:0:
245,217,31756,1,10,0:0:0:0:
112,384,31906,6,0,P|116:340|119:296,1,87.5,0|0,1:0|1:0,0:0:0:0:
54,118,32206,1,12,0:0:0:0:
255,223,32356,1,2,0:0:0:0:
167,33,32506,2,0,P|228:16|317:24,1,131.25,2|0,0:0|0:0,0:0:0:0:
304,25,32806,2,0,L|313:136,1,87.5,8|2,0:0|0:0,0:0:0:0:
424,365,33106,6,0,B|432:305|432:305|400:264|400:264|408:202,1,175,2|8,0:0|0:0,0:0:0:0:
319,362,33556,1,2,0:0:0:0:
496,234,33706,1,2,0:0:0:0:
312,205,33856,2,0,P|267:214|225:219,1,87.5,10|0,0:0|0:0,0:0:0:0:
24,302,34156,5,10,0:0:0:0:
128,369,34306,2,0,P|134:325|137:282,1,87.5,0|2,1:0|1:2,0:0:0:0:
39,79,34606,1,8,0:0:0:0:
187,135,34756,2,0,B|95:138|121:190|13:198,1,175,0|2,0:0|0:0,0:0:0:0:
235,306,35206,2,0,P|232:262|225:219,1,87.5,8|2,0:0|0:0,0:0:0:0:
387,112,35506,5,2,0:0:0:0:
243,29,35656,1,2,0:0:0:0:
336,229,35806,2,0,P|383:224|471:184,1,131.25,10|0,0:0|0:0,0:0:0:0:
479,186,36106,2,0,L|468:286,1,87.5,2|10,0:0|0:0,0:0:0:0:
299,145,36406,1,2,0:0:0:0:
373,314,36556,1,10,0:0:0:0:
468,61,36706,5,0,1:0:0:0:
336,229,36856,1,0,1:0:0:0:
233,39,37006,2,0,P|148:10|81:8,1,131.25,8|0,0:0|0:0,0:0:0:0:
89,9,37306,2,0,B|70:51|70:51|82:90,1,87.5,2|0,0:0|0:0,0:0:0:0:
11,243,37606,2,0,P|54:242|97:233,1,87.5,8|2,0:0|0:0,0:0:0:0:
207,148,37906,6,0,P|219:230|196:340,1,175,2|8,0:0|0:0,0:0:0:0:
100,384,38356,1,2,0:0:0:0:
253,250,38506,1,6,0:3:0:0:
33,156,38656,1,2,1:2:0:0:
33,156,38731,1,0,1:0:0:0:
34,156,38806,1,8,0:0:0:0:
227,362,38956,6,0,P|273:355|324:343,1,96.250002937317,6|0,1:2|0:0,0:0:0:0:
426,76,39256,1,2,1:2:0:0:
164,208,39406,1,10,0:0:0:0:
472,330,39556,1,2,1:2:0:0:
401,161,39706,5,6,1:3:0:0:
363,139,39781,1,0,1:0:0:0:
319,134,39856,1,2,1:2:0:0:
277,146,39931,1,0,1:0:0:0:
241,171,40006,2,0,L|252:248,1,48.1250014686585,8|0,0:0|0:0,0:0:0:0:
357,354,40156,6,0,B|347:296|347:296|380:234|380:234|369:171,1,192.500005874634,6|2,1:2|1:2,0:0:0:0:
172,5,40606,2,0,B|159:51|159:51|168:98,1,96.250002937317,10|2,0:0|0:0,0:0:0:0:
67,256,40906,1,2,1:2:0:0:
301,43,41056,1,10,0:0:0:0:
301,43,41131,1,8,0:0:0:0:
301,43,41206,1,8,0:0:0:0:
0,153,41356,1,8,0:0:0:0:
0,153,41431,1,8,0:0:0:0:
0,153,41506,2,0,P|45:157|120:169,1,96.250002937317,4|0,1:2|1:0,0:0:0:0:
239,377,41806,6,0,B|277:274|197:262|231:166,2,209.999993591309,10|10|10,0:0|0:0|0:0,0:0:0:0:
239,377,43306,5,2,0:0:0:0:
145,323,43456,2,0,P|102:318|60:314,1,78.7499975967408,8|0,0:0|0:0,0:0:0:0:
194,235,43756,1,10,0:0:0:0:
329,342,43906,5,0,1:0:0:0:
447,279,44056,1,0,1:0:0:0:
400,171,44206,2,0,L|420:381,2,209.999993591309,10|10|10,0:0|0:0|0:0,0:0:0:0:
292,227,45706,5,2,0:0:0:0:
292,227,45856,2,0,P|279:148|311:69,1,157.499995193482,10|10,0:0|0:0,0:0:0:0:
426,34,46306,2,0,B|434:74|434:74|425:111,1,78.7499975967408,0|0,1:0|1:0,0:0:0:0:
242,138,46606,6,0,B|171:128|171:128|120:80|120:80|45:70,2,209.999993591309,10|10|10,0:0|0:0|0:0,0:0:0:0:
74,242,48106,5,2,0:0:0:0:
74,242,48256,2,0,P|69:202|76:162,1,78.7499975967408,10|0,0:0|0:0,0:0:0:0:
261,219,48556,2,0,P|266:180|259:141,1,78.7499975967408,10|0,0:0|1:0,0:0:0:0:
172,298,48856,5,0,1:0:0:0:
263,373,49006,2,0,L|404:353,2,131.25000500679,10|2|10,0:0|0:0|0:0,0:0:0:0:
84,350,49756,6,0,B|52:298|52:298|78:147,1,196.875007510186,2|10,0:0|0:0,0:0:0:0:
167,94,50506,5,0,0:0:0:0:
44,153,50656,1,8,0:0:0:0:
148,103,50806,1,2,0:0:0:0:
0,42,50956,1,10,0:0:0:0:
134,1,51106,6,0,P|127:44|126:87,1,87.5,0|0,1:0|1:0,0:0:0:0:
315,205,51406,2,0,P|323:122|253:76,1,175,10|0,0:0|0:0,0:0:0:0:
116,205,51856,1,2,0:0:0:0:
205,277,52006,2,0,P|248:285|290:294,1,87.5,10|0,0:0|0:0,0:0:0:0:
492,384,52306,6,0,P|477:330|461:239,1,131.25
462,243,52606,2,0,P|414:252|371:269,1,87.5,10|2,0:0|0:0,0:0:0:0:
218,162,52906,2,0,P|208:204|206:248,1,87.5,2|10,0:0|0:0,0:0:0:0:
288,380,53206,1,0,0:0:0:0:
361,190,53356,1,10,0:0:0:0:
162,368,53506,5,0,1:0:0:0:
392,307,53656,1,0,1:0:0:0:
218,162,53806,2,0,B|128:153|148:207|44:199,1,175,10|0,0:0|0:0,0:0:0:0:
50,199,54256,1,2,0:0:0:0:
162,368,54406,2,0,P|167:327|169:266,1,87.5,10|0,0:0|0:0,0:0:0:0:
44,191,54706,6,0,P|33:119|91:53,1,131.25
72,63,55006,2,0,P|123:56|172:46,1,87.5,10|2,0:0|0:0,0:0:0:0:
330,177,55306,1,2,0:0:0:0:
128,209,55456,1,10,0:0:0:0:
243,9,55606,1,0,0:0:0:0:
434,122,55756,6,0,P|441:168|447:231,1,104.999996795654,6|0,1:2|0:0,0:0:0:0:
385,351,56056,1,0,3:0:0:0:
331,135,56206,1,2,1:2:0:0:
220,377,56356,1,8,0:0:0:0:
213,97,56506,1,8,0:0:0:0:
48,348,56656,1,8,0:0:0:0:
113,35,56806,1,10,0:0:0:0:
355,238,56956,6,0,P|265:270|171:254,1,192.500005874634,4|2,1:2|1:2,0:0:0:0:
50,116,57406,1,10,0:0:0:0:
133,347,57556,1,10,0:0:0:0:
366,79,57706,1,10,0:0:0:0:
302,375,57856,1,10,0:0:0:0:
123,175,58006,1,0,1:0:0:0:
468,31,58156,5,14,0:0:0:0:
44,353,58456,5,8,0:0:0:0:
468,31,60406,6,0,B|488:72|488:72|466:129,1,91.8749971961976,2|0,0:0|0:0,0:0:0:0:
494,220,60706,6,0,P|444:205|370:192,1,96.250002937317,6|0,1:2|0:0,0:0:0:0:
306,3,61006,2,0,L|315:98,1,96.250002937317,10|0,0:0|0:0,0:0:0:0:
213,288,61306,2,0,P|214:240|222:192,1,96.250002937317,2|0,1:2|0:0,0:0:0:0:
136,23,61606,1,10,0:0:0:0:
64,270,61756,1,2,0:0:0:0:
240,99,61906,5,0,1:0:0:0:
1,156,62056,2,0,P|52:167|132:180,1,96.250002937317,2|8,0:0|0:0,0:0:0:0:
308,254,62356,1,2,0:0:0:0:
116,384,62506,1,2,1:2:0:0:
186,174,62656,1,2,0:0:0:0:
334,339,62806,2,0,P|380:351|464:353,1,96.250002937317,10|2,0:0|0:0,0:0:0:0:
157,267,63106,5,0,1:0:0:0:
161,271,63256,1,0,0:0:0:0:
307,160,63406,2,0,P|401:150|484:195,1,192.500005874634,10|0,0:0|1:0,0:0:0:0:
234,102,63856,2,0,P|230:64|244:-16,1,96.250002937317,2|8,0:0|0:0,0:0:0:0:
402,179,64156,1,2,0:0:0:0:
220,353,64306,5,2,1:2:0:0:
307,161,64456,2,0,P|316:216|330:332,1,144.375004405975,2|0,0:0|0:0,0:0:0:0:
332,321,64756,2,0,L|443:335,1,96.250002937317,2|0,0:0|1:0,0:0:0:0:
234,102,65056,1,2,0:0:0:0:
83,360,65206,2,0,P|73:312|76:246,1,96.250002937317,10|0,0:0|0:0,0:0:0:0:
1,135,65506,6,0,P|45:145|110:154,1,96.250002937317,6|0,1:2|0:0,0:0:0:0:
310,299,65806,2,0,P|226:271|199:168,1,192.500005874634,10|2,0:0|1:2,0:0:0:0:
315,41,66256,1,0,1:0:0:0:
179,262,66406,1,10,0:0:0:0:
58,50,66556,6,0,P|110:41|170:27,1,96.250002937317,6|0,1:2|0:0,0:0:0:0:
381,195,66856,2,0,P|444:178|477:55,1,192.500005874634,6|6,1:2|1:2,0:0:0:0:
224,180,67306,1,2,0:0:0:0:
468,305,67456,1,2,1:2:0:0:
375,106,67606,1,10,0:0:0:0:
317,373,67756,1,2,0:0:0:0:
105,298,67906,6,0,P|152:293|200:285,1,96.250002937317,4|0,1:2|0:0,0:0:0:0:
424,379,68206,2,0,P|345:344|341:236,1,192.500005874634,10|0,0:0|1:0,0:0:0:0:
496,150,68656,2,0,P|448:145|400:137,1,96.250002937317,2|8,0:0|0:0,0:0:0:0:
282,22,68956,1,0,0:0:0:0:
110,123,69106,6,0,P|109:75|129:7,1,96.250002937317,2|0,1:2|0:0,0:0:0:0:
309,153,69406,1,10,0:0:0:0:
72,303,69556,1,2,0:0:0:0:
213,83,69706,1,0,1:0:0:0:
309,342,69856,1,8,0:0:0:0:
309,342,69931,1,8,0:0:0:0:
309,342,70006,1,10,0:0:0:0:
26,193,70156,5,8,0:0:0:0:
26,193,70231,1,8,0:0:0:0:
26,193,70306,2,0,B|99:205|169:249,1,144.375004405975,6|0,1:2|0:0,0:0:0:0:
169,251,70606,2,0,P|201:216|193:151,1,96.250002937317,12|0,0:0|0:0,0:0:0:0:
424,322,70906,2,0,P|409:276|349:251,1,96.250002937317,2|0,1:2|0:0,0:0:0:0:
185,363,71206,1,10,0:0:0:0:
308,175,71356,6,0,P|319:103|310:32,1,144.375004405975,2|0,0:0|0:0,0:0:0:0:
302,24,71656,2,0,L|179:11,1,96.250002937317,2|8,0:0|0:0,0:0:0:0:
34,293,71956,1,2,0:0:0:0:
232,120,72106,1,2,1:2:0:0:
20,47,72256,1,2,0:0:0:0:
138,244,72406,2,0,P|193:234|243:227,1,96.250002937317,10|2,0:0|0:0,0:0:0:0:
398,136,72706,5,0,1:0:0:0:
398,136,72856,1,0,0:0:0:0:
401,384,73006,2,0,P|359:334|382:193,1,192.500005874634,10|0,0:0|1:0,0:0:0:0:
216,95,73456,2,0,P|271:87|336:71,1,96.250002937317,2|8,0:0|0:0,0:0:0:0:
486,201,73756,1,2,0:0:0:0:
423,17,73906,6,0,P|416:72|411:141,1,96.250002937317,2|0,1:2|1:0,0:0:0:0:
251,335,74206,1,8,0:0:0:0:
120,139,74356,1,10,0:0:0:0:
120,139,74431,1,8,0:0:0:0:
120,139,74506,1,8,0:0:0:0:
317,257,74656,1,0,1:0:0:0:
143,384,74806,2,0,P|137:339|127:282,1,96.250002937317,6|8,0:3|0:3,0:0:0:0:
28,118,75106,5,6,1:2:0:0:
28,118,75256,2,0,B|115:122|103:81|204:91,1,166.249995560646,0|2,1:0|1:2,3:0:0:0:
314,20,75706,2,0,P|370:79|352:171,1,166.249995560646,10|0,0:0|0:0,0:0:0:0:
286,226,76156,1,2,1:2:0:0:
456,364,76306,6,0,P|462:296|464:188,1,166.249995560646,6|0,1:2|0:0,0:0:0:0:
407,118,76756,1,2,1:2:0:0:
286,226,76906,2,0,B|226:236|226:236|193:267|193:267|122:278,1,166.249995560646,10|2,0:0|0:0,0:0:0:0:
33,365,77356,6,0,P|19:315|36:260,1,83.1249977803231,2|0,1:2|0:0,0:0:0:0:
132,200,77656,2,0,P|189:257|186:337,1,166.249995560646,2|2,1:2|1:2,0:0:0:0:
329,384,78106,2,0,P|341:345|338:285,1,83.1249977803231,10|0,0:0|0:0,0:0:0:0:
280,216,78406,1,2,0:0:0:0:
483,206,78556,6,0,P|416:197|362:182,1,100.62500191927,2|0,1:2|0:0,0:0:0:0:
139,339,78856,2,0,P|188:344|237:356,1,100.62500191927,2|8,1:2|0:0,0:0:0:0:
445,288,79156,1,2,1:2:0:0:
170,187,79306,1,10,0:0:0:0:
393,21,79456,1,2,1:2:0:0:
393,21,79531,1,0,1:0:0:0:
393,21,79606,2,0,P|419:93|356:166,1,150.937502878904,8|0,0:0|0:0,0:0:0:0:
381,241,79906,6,0,P|337:236|294:227,1,87.5,0|0,1:0|1:0,0:0:0:0:
184,317,80206,2,0,P|154:258|163:195,1,131.25,10|0,0:0|0:0,0:0:0:0:
170,187,80506,2,0,L|73:203,1,87.5,2|0,0:0|0:0,0:0:0:0:
216,94,80806,1,10,0:0:0:0:
118,2,80956,6,0,P|108:44|105:88,1,87.5,2|0,0:0|0:0,0:0:0:0:
294,227,81256,2,0,P|303:184|306:140,1,87.5,2|8,0:0|0:0,0:0:0:0:
455,67,81556,2,0,P|373:36|287:20,1,175,0|8,0:0|0:0,0:0:0:0:
189,218,82006,1,2,0:0:0:0:
395,148,82156,1,8,0:0:0:0:
216,68,82306,5,2,1:2:0:0:
216,68,82456,1,2,1:2:0:0:
106,171,82606,2,0,P|95:228|93:275,1,87.5,10|0,0:0|0:0,0:0:0:0:
248,384,82906,2,0,P|259:327|261:280,1,87.5,2|0,0:0|0:0,0:0:0:0:
202,194,83206,1,10,0:0:0:0:
33,359,83356,6,0,P|69:357|120:344,1,87.5,2|0,0:0|0:0,0:0:0:0:
372,291,83656,2,0,P|336:289|285:276,1,87.5,2|8,1:2|0:0,0:0:0:0:
152,183,83956,1,0,1:0:0:0:
286,31,84106,1,8,0:0:0:0:
318,52,84181,1,8,0:0:0:0:
339,85,84256,1,10,0:0:0:0:
345,124,84331,1,8,0:0:0:0:
336,162,84406,2,0,L|276:149,3,43.75,0|0|0|0,1:0|1:0|1:0|1:0,0:0:0:0:
419,211,84706,5,12,0:0:0:0:
111,100,84856,1,0,1:0:0:0:
437,27,85006,1,2,1:2:0:0:
77,287,85156,5,12,0:0:0:0:
435,208,85306,1,2,1:2:0:0:
91,93,85456,1,0,1:0:0:0:
377,310,85606,5,14,0:0:0:0:
197,47,85756,1,2,1:2:0:0:
176,381,85906,1,0,1:0:0:0:
401,128,86056,2,0,P|348:136|297:145,1,104.999996795654,14|0,0:0|1:0,0:0:0:0:
158,287,86356,1,0,1:0:0:0:
112,12,86506,5,12,0:0:0:0:
279,307,86656,1,0,1:0:0:0:
329,45,86806,1,12,0:0:0:0:
56,255,86956,1,0,1:0:0:0:
361,363,87106,5,12,0:0:0:0:
378,332,87181,1,0,1:0:0:0:
385,298,87256,1,0,1:0:0:0:
378,263,87331,1,0,1:0:0:0:
358,234,87406,2,0,L|283:224,1,52.4999983978272,2|0,1:2|1:0,0:0:0:0:
176,180,87556,5,8,0:0:0:0:
158,149,87631,1,0,1:0:0:0:
151,115,87706,1,2,1:2:0:0:
158,80,87781,1,0,1:0:0:0:
178,51,87856,2,0,L|251:41,1,52.4999983978272,0|0,1:0|1:0,0:0:0:0:
392,140,88006,6,0,P|338:133|277:121,1,104.999996795654,14|2,0:0|1:2,0:0:0:0:
