osu file format v14

[General]
AudioFilename: audio.mp3
AudioLeadIn: 0
PreviewTime: 58456
Countdown: 0
SampleSet: Soft
StackLeniency: 0.3
Mode: 0
LetterboxInBreaks: 0
WidescreenStoryboard: 1

[Editor]
Bookmarks: 16456
DistanceSpacing: 1.7
BeatDivisor: 4
GridSize: 4
TimelineZoom: 1.3

[Metadata]
Title:SABLE (TV Size)
TitleUnicode:SABLE (TV Size)
Artist:nano
ArtistUnicode:ナノ
Creator:browiec
Version:STIXY x BROWIEC'S NORMAL
Source:M3~ソノ黒キ鋼~
Tags:M3: Sono Kuroki Hagane M3 The Dark Metal Ending ed rock english anime zelq kuki1537 stixy -_nilou_- nilou syndicate_ majk00
BeatmapID:4432590
BeatmapSetID:2111538

[Difficulty]
HPDrainRate:3
CircleSize:3.2
OverallDifficulty:4.5
ApproachRate:5.4
SliderMultiplier:0.999999999999999
SliderTickRate:1

[Events]
//Background and Video events
0,0,"twoj stary i harnas.jpg",0,0
//Break Periods
2,19906,20867
2,41806,49967
//Storyboard Layer 0 (Background)
//Storyboard Layer 1 (Fail)
//Storyboard Layer 2 (Pass)
//Storyboard Layer 3 (Foreground)
//Storyboard Layer 4 (Overlay)
//Storyboard Sound Samples

[TimingPoints]
706,300,4,2,1,40,1,0
706,-100,4,2,1,40,0,0
10306,-100,4,2,1,65,0,0
21856,-100,4,2,1,50,0,0
22306,-100,4,2,1,60,0,0
31906,-100,4,2,1,60,0,0
41506,-100,4,2,1,40,0,0
51106,-100,4,2,1,55,0,0
55756,-100,4,2,1,65,0,0
60406,-100,4,2,1,50,0,0
60706,-100,4,2,1,75,0,0
75106,-100,4,2,1,65,0,0
79906,-100,4,2,1,70,0,0
84706,-100,4,2,1,80,0,0

[Colours]
Combo1 : 215,162,83
Combo2 : 216,186,218
Combo3 : 188,128,193
Combo4 : 242,202,142

[HitObjects]
44,73,706,6,0,L|44:13,2,50,2|2|2,0:0|0:0|0:0,0:0:0:0:
86,100,1156,2,0,L|85:199,1,99.9999999999999,2|2,0:0|0:0,0:0:0:0:
59,296,1756,2,0,P|107:283|169:304,1,99.9999999999999,2|2,0:0|0:0,0:0:0:0:
203,306,2206,1,2,0:0:0:0:
266,228,2506,2,0,P|253:180|264:132,1,99.9999999999999,2|2,0:0|0:0,0:0:0:0:
329,56,3106,6,0,L|329:-3,2,50,2|2|2,0:0|0:0|0:0,0:0:0:0:
369,84,3556,1,2,0:0:0:0:
456,34,3856,1,2,0:0:0:0:
506,120,4156,2,0,L|505:223,1,99.9999999999999,2|2,0:0|0:0,0:0:0:0:
482,264,4606,1,2,0:0:0:0:
433,351,4906,2,0,P|385:364|337:353,1,99.9999999999999,2|2,0:0|0:0,0:0:0:0:
240,322,5506,6,0,L|240:261,2,50,2|2|2,0:0|0:0|0:0,0:0:0:0:
198,349,5956,2,0,L|82:349,1,99.9999999999999,2|2,0:0|0:0,0:0:0:0:
34,271,6556,2,0,L|34:164,1,99.9999999999999,2|2,0:0|0:0,0:0:0:0:
36,121,7006,1,2,0:0:0:0:
133,159,7306,2,0,P|180:171|228:160,1,99.9999999999999,2|2,0:0|0:0,0:0:0:0:
284,77,7906,6,0,L|284:21,2,50,2|2|2,0:0|0:0|0:0,0:0:0:0:
326,103,8356,1,2,0:0:0:0:
408,46,8656,1,2,0:0:0:0:
470,123,8956,2,0,P|481:171|468:218,1,99.9999999999999,2|2,0:0|0:0,0:0:0:0:
444,263,9406,2,0,L|337:263,1,99.9999999999999,2|2,0:0|0:0,0:0:0:0:
244,270,10006,1,6,1:3:0:0:
189,353,10306,6,0,L|139:353,1,50,6|2,1:2|1:2,0:0:0:0:
98,333,10606,1,8,0:0:0:0:
98,333,10756,2,0,P|86:285|99:234,1,99.9999999999999,2|2,0:0|0:0,0:0:0:0:
115,189,11206,1,10,0:0:0:0:
51,112,11506,2,0,L|-20:111,2,50,2|2|10,0:0|0:0|0:0,0:0:0:0:
84,75,11956,2,0,L|193:75,1,99.9999999999999,2|10,0:0|0:0,0:0:0:0:
217,38,12406,1,2,0:0:0:0:
310,2,12706,6,0,L|360:2,1,50,2|2,1:2|1:2,0:0:0:0:
405,32,13006,1,8,0:0:0:0:
405,32,13156,2,0,P|417:80|404:131,1,99.9999999999999,2|2,0:0|0:0,0:0:0:0:
426,173,13606,1,10,0:0:0:0:
462,265,13906,2,0,L|514:265,2,50,2|2|10,0:0|0:0|0:0,0:0:0:0:
423,296,14356,2,0,L|365:296,2,50,2|2|10,0:0|0:0|0:0,0:0:0:0:
447,339,14806,1,2,0:0:0:0:
355,378,15106,6,0,L|299:378,1,50,2|2,1:2|1:2,0:0:0:0:
262,352,15406,1,12,0:0:0:0:
262,352,15556,2,0,P|253:299|270:245,1,99.9999999999999,2|2,0:0|0:0,0:0:0:0:
244,210,16006,1,10,0:0:0:0:
322,148,16306,2,0,L|321:85,2,50,2|2|8,0:0|0:0|0:0,0:0:0:0:
362,178,16756,2,0,B|411:195|411:195|470:175,1,99.9999999999999,2|10,0:0|0:0,0:0:0:0:
501,157,17206,1,2,0:0:0:0:
462,64,17506,6,0,L|512:64,2,50,2|2|10,1:2|1:2|0:0,0:0:0:0:
421,34,17956,1,2,0:0:0:0:
421,34,18106,2,0,L|364:34,1,50,2|2,0:0|0:0,0:0:0:0:
325,14,18406,1,10,0:0:0:0:
245,75,18706,2,0,P|233:123|242:172,1,99.9999999999999,2|8,0:0|0:0,0:0:0:0:
314,240,19306,2,0,L|314:298,1,50,2|0,1:2|1:0,0:0:0:0:
315,339,19606,1,12,0:0:0:0:
315,339,22006,5,8,0:0:0:0:
233,280,22306,6,0,B|156:259|165:313|85:290,1,150,6|2,1:2|0:0,0:0:0:0:
43,265,22906,1,2,0:0:0:0:
96,127,23356,1,2,0:0:0:0:
96,127,23506,2,0,L|211:127,1,99.9999999999999,2|8,0:0|0:0,0:0:0:0:
279,70,24106,1,2,0:0:0:0:
279,70,24256,2,0,L|344:70,1,50,10|0,0:0|0:0,0:0:0:0:
376,55,24556,5,10,0:0:0:0:
469,104,24856,1,2,1:2:0:0:
469,104,25006,2,0,B|469:176|469:176|437:220|437:220|437:296,1,200,8|8,0:0|0:0,0:0:0:0:
371,368,25906,1,2,0:0:0:0:
291,310,26206,2,0,L|171:310,1,99.9999999999999,10|2,0:0|0:0,0:0:0:0:
142,297,26656,1,10,0:0:0:0:
79,218,26956,6,0,B|51:146|51:146|89:63,1,150,10|8,0:0|0:0,0:0:0:0:
106,38,27556,1,2,0:0:0:0:
106,38,27706,1,2,0:0:0:0:
258,60,28156,1,2,0:0:0:0:
258,60,28306,2,0,L|258:173,1,99.9999999999999,2|8,0:0|0:0,0:0:0:0:
218,191,28756,2,0,L|157:191,2,50,2|2|10,0:0|0:0|0:0,0:0:0:0:
282,267,29356,5,10,0:0:0:0:
385,277,29656,1,2,1:2:0:0:
385,277,29806,2,0,B|390:225|353:185|353:185|389:150|385:95,1,200,8|8,0:0|0:0,0:0:0:0:
329,11,30706,1,2,0:0:0:0:
229,15,31006,1,10,0:0:0:0:
193,108,31306,2,0,L|193:168,1,50,10|8,1:2|0:0,0:0:0:0:
203,211,31606,1,8,0:0:0:0:
203,211,31756,6,0,P|257:235|346:209,1,150,10|12,0:0|0:0,0:0:0:0:
375,176,32356,1,2,0:0:0:0:
375,176,32506,1,2,0:0:0:0:
454,237,32806,2,0,L|454:297,1,50,8|2,0:0|0:0,0:0:0:0:
430,331,33106,2,0,L|317:331,1,99.9999999999999,2|8,0:0|0:0,0:0:0:0:
239,369,33706,1,2,0:0:0:0:
239,369,33856,2,0,L|179:369,1,50,10|0,0:0|0:0,0:0:0:0:
139,370,34156,5,10,0:0:0:0:
67,308,34456,1,2,1:2:0:0:
67,308,34606,2,0,L|67:195,1,99.9999999999999,8|0,0:0|1:0,0:0:0:0:
140,140,35206,1,8,0:0:0:0:
221,198,35506,1,2,0:0:0:0:
308,149,35806,2,0,L|308:36,1,99.9999999999999,10|2,0:0|0:0,0:0:0:0:
307,0,36256,1,10,0:0:0:0:
216,41,36556,6,0,P|148:70|78:48,1,150,10|8,0:0|0:0,0:0:0:0:
40,23,37156,1,2,0:0:0:0:
40,23,37306,1,2,0:0:0:0:
2,115,37606,2,0,L|2:175,1,50,8|2,0:0|0:0,0:0:0:0:
30,206,37906,2,0,L|143:206,1,99.9999999999999,2|8,0:0|0:0,0:0:0:0:
183,209,38356,1,2,0:0:0:0:
183,209,38506,1,6,0:3:0:0:
244,131,38806,1,8,0:0:0:0:
244,131,38956,6,0,L|357:131,1,99.9999999999999,6|2,1:2|1:2,0:0:0:0:
376,93,39406,2,0,L|436:93,1,50,10|2,0:0|1:2,0:0:0:0:
468,67,39706,1,6,1:3:0:0:
510,162,40006,1,8,0:0:0:0:
510,162,40156,2,0,L|510:275,1,99.9999999999999,6|2,1:2|1:2,0:0:0:0:
468,289,40606,2,0,L|468:349,1,50,10|2,0:0|0:0,0:0:0:0:
437,379,40906,1,2,1:2:0:0:
437,379,41056,1,10,0:0:0:0:
337,379,41356,5,8,0:0:0:0:
337,379,51106,6,0,L|337:319,1,50,0|0,1:0|1:0,0:0:0:0:
329,279,51406,2,0,B|288:230|225:237|225:237|198:275|143:279,2,200,10|10|10,0:0|0:0|0:0,0:0:0:0:
426,247,52906,1,2,0:0:0:0:
426,247,53056,2,0,L|426:147,1,99.9999999999999,10|10,0:0|0:0,0:0:0:0:
427,97,53506,1,0,1:0:0:0:
337,52,53806,6,0,P|418:0|507:38,2,200,10|10|10,0:0|0:0|0:0,0:0:0:0:
325,155,55306,1,2,0:0:0:0:
325,155,55456,2,0,L|325:215,1,50,10|0,0:0|0:0,0:0:0:0:
290,240,55756,6,0,L|190:240,1,99.9999999999999,6|0,1:2|3:0,0:0:0:0:
140,245,56206,1,2,1:2:0:0:
96,335,56506,1,8,0:0:0:0:
196,366,56806,1,10,0:0:0:0:
196,366,56956,2,0,L|295:366,1,99.9999999999999,4|2,1:2|1:2,0:0:0:0:
345,363,57406,1,10,0:0:0:0:
408,286,57706,1,10,0:0:0:0:
408,286,57856,2,0,L|468:286,1,50,10|0,0:0|1:0,0:0:0:0:
507,285,58156,2,0,L|507:185,1,99.9999999999999,14|8,0:0|0:0,0:0:0:0:
507,185,60406,5,2,0:0:0:0:
423,129,60706,6,0,L|423:29,1,99.9999999999999,6|10,1:2|0:0,0:0:0:0:
323,20,61306,2,0,L|323:80,1,50,2|0,1:2|0:0,0:0:0:0:
284,100,61606,1,10,0:0:0:0:
284,100,61756,2,0,L|284:200,1,99.9999999999999,2|2,0:0|0:0,0:0:0:0:
189,220,62356,1,2,0:0:0:0:
189,220,62506,2,0,L|189:170,2,50,2|2|10,1:2|0:0|0:0,0:0:0:0:
158,259,62956,1,2,0:0:0:0:
72,219,63256,5,0,0:0:0:0:
72,219,63406,2,0,L|72:119,1,99.9999999999999,10|0,0:0|1:0,0:0:0:0:
81,69,63856,2,0,P|128:57|176:68,1,99.9999999999999,2|2,0:0|0:0,0:0:0:0:
219,105,64306,1,2,1:2:0:0:
219,105,64456,1,2,0:0:0:0:
280,26,64756,2,0,L|380:26,1,99.9999999999999,2|2,0:0|0:0,0:0:0:0:
416,59,65206,1,10,0:0:0:0:
503,10,65506,6,0,P|515:57|504:105,1,99.9999999999999,6|10,1:2|0:0,0:0:0:0:
416,155,66106,2,0,L|416:215,1,50,2|0,1:2|1:0,0:0:0:0:
392,250,66406,1,10,0:0:0:0:
392,250,66556,2,0,P|345:262|297:251,1,99.9999999999999,6|6,1:2|1:2,0:0:0:0:
222,191,67156,1,6,1:2:0:0:
222,191,67306,2,0,L|162:191,2,50,2|2|10,0:0|1:2|0:0,0:0:0:0:
259,158,67756,1,2,0:0:0:0:
259,158,67906,5,4,1:2:0:0:
186,91,68206,2,0,L|86:91,1,99.9999999999999,10|0,0:0|1:0,0:0:0:0:
44,119,68656,2,0,P|32:166|43:214,1,99.9999999999999,2|0,0:0|0:0,0:0:0:0:
85,242,69106,2,0,L|185:242,1,99.9999999999999,2|10,1:2|0:0,0:0:0:0:
234,239,69556,1,2,0:0:0:0:
327,287,69856,1,8,0:0:0:0:
327,287,70006,2,0,L|327:347,1,50,10|8,0:0|0:0,0:0:0:0:
359,375,70306,6,0,L|459:375,1,99.9999999999999,6|12,1:2|0:0,0:0:0:0:
509,288,70906,2,0,L|509:228,1,50,2|0,1:2|0:0,0:0:0:0:
477,206,71206,1,10,0:0:0:0:
477,206,71356,2,0,L|477:106,1,99.9999999999999,2|2,0:0|0:0,0:0:0:0:
398,52,71956,1,2,0:0:0:0:
398,52,72106,2,0,L|398:2,2,50,2|2|10,1:2|0:0|0:0,0:0:0:0:
356,79,72556,1,2,0:0:0:0:
347,182,72856,5,0,0:0:0:0:
347,182,73006,2,0,L|347:282,1,99.9999999999999,10|0,0:0|1:0,0:0:0:0:
301,300,73456,2,0,L|201:300,1,99.9999999999999,2|2,0:0|0:0,0:0:0:0:
163,332,73906,2,0,L|63:332,1,99.9999999999999,2|8,1:2|0:0,0:0:0:0:
29,302,74356,1,10,0:0:0:0:
29,302,74506,2,0,L|29:242,1,50,8|0,0:0|1:0,0:0:0:0:
29,202,74806,1,6,0:3:0:0:
96,128,75106,5,6,1:2:0:0:
96,128,75256,2,0,P|143:116|191:127,1,99.9999999999999,0|2,1:0|1:2,3:0:0:0:
231,159,75706,2,0,P|278:171|326:160,1,99.9999999999999,10|0,0:0|0:0,0:0:0:0:
414,208,76306,2,0,P|426:161|415:113,1,99.9999999999999,6|0,1:2|0:0,0:0:0:0:
385,78,76756,1,2,1:2:0:0:
385,78,76906,1,10,0:0:0:0:
327,159,77206,5,2,0:0:0:0:
327,159,77356,2,0,L|227:159,2,99.9999999999999,2|2|2,1:2|1:2|1:2,0:0:0:0:
371,182,78106,1,10,0:0:0:0:
442,259,78406,1,2,0:0:0:0:
442,259,78556,2,0,L|442:319,1,50,2|0,1:2|0:0,0:0:0:0:
415,351,78856,2,0,P|366:362|318:350,1,99.9999999999999,2|2,1:2|1:2,0:0:0:0:
281,316,79306,2,0,L|221:316,1,50,10|2,0:0|1:2,0:0:0:0:
185,294,79606,1,8,0:0:0:0:
146,201,79906,5,0,1:0:0:0:
204,119,80206,2,0,L|304:119,2,99.9999999999999,10|2|10,0:0|0:0|0:0,0:0:0:0:
161,92,80956,1,2,0:0:0:0:
65,123,81256,2,0,B|44:217|44:217|72:267,1,150,2|2,0:0|0:0,0:0:0:0:
106,298,81856,2,0,L|106:358,2,50,8|2|8,0:0|0:0|0:0,0:0:0:0:
150,276,82306,5,2,1:2:0:0:
215,200,82606,1,10,0:0:0:0:
308,238,82906,1,2,0:0:0:0:
300,338,83206,1,10,0:0:0:0:
300,338,83356,2,0,L|400:338,2,99.9999999999999,2|2|0,0:0|1:2|1:0,0:0:0:0:
258,365,84106,2,0,L|198:365,1,50,8|10,0:0|0:0,0:0:0:0:
169,333,84406,2,0,L|109:333,1,50,0|0,1:0|1:0,0:0:0:0:
76,305,84706,5,12,0:0:0:0:
14,225,85006,2,0,L|14:165,1,50,2|12,1:2|0:0,0:0:0:0:
45,135,85306,2,0,P|93:122|141:134,1,99.9999999999999,2|14,1:2|0:0,0:0:0:0:
175,171,85756,2,0,L|235:171,1,50,2|0,1:2|1:0,0:0:0:0:
272,187,86056,1,14,0:0:0:0:
361,138,86356,1,0,1:0:0:0:
361,138,86506,2,0,P|372:89|360:41,1,99.9999999999999,12|12,0:0|0:0,0:0:0:0:
263,18,87106,6,0,L|163:18,1,99.9999999999999,12|2,0:0|1:2,0:0:0:0:
125,49,87556,1,8,0:0:0:0:
125,49,87706,2,0,L|125:109,1,50,2|0,1:2|1:0,0:0:0:0:
108,148,88006,1,14,0:0:0:0:
108,148,88156,1,2,1:2:0:0:
