osu file format v14

[General]
AudioFilename: audio.mp3
AudioLeadIn: 0
PreviewTime: 58456
Countdown: 0
SampleSet: Soft
StackLeniency: 0.4
Mode: 0
LetterboxInBreaks: 0
WidescreenStoryboard: 1

[Editor]
DistanceSpacing: 1.7
BeatDivisor: 4
GridSize: 4
TimelineZoom: 2.2

[Metadata]
Title:SABLE (TV Size)
TitleUnicode:SABLE (TV Size)
Artist:nano
ArtistUnicode:ナノ
Creator:browiec
Version:NILOU'S INSANE
Source:M3~ソノ黒キ鋼~
Tags:M3: Sono Kuroki Hagane M3 The Dark Metal Ending ed rock english anime zelq kuki1537 stixy -_nilou_- nilou syndicate_ majk00
BeatmapID:4432589
BeatmapSetID:2111538

[Difficulty]
HPDrainRate:5
CircleSize:3.8
OverallDifficulty:8
ApproachRate:9
SliderMultiplier:1.7
SliderTickRate:1

[Events]
//Background and Video events
0,0,"twoj stary i harnas.jpg",0,0
//Break Periods
2,42006,50506
//Storyboard Layer 0 (Background)
//Storyboard Layer 1 (Fail)
//Storyboard Layer 2 (Pass)
//Storyboard Layer 3 (Foreground)
//Storyboard Layer 4 (Overlay)
//Storyboard Sound Samples

[TimingPoints]
706,300,4,2,1,40,1,0
706,-142.857142857143,4,2,1,40,0,0
10006,-117.647058823529,4,2,1,40,0,0
10306,-100,4,2,1,65,0,0
21856,-100,4,2,1,50,0,0
22306,-125,4,2,1,60,0,0
32206,-111.111111111111,4,2,1,60,0,0
38956,-100,4,2,1,60,0,0
41506,-125,4,2,1,40,0,0
51106,-111.111111111111,4,2,1,55,0,0
55756,-100,4,2,1,65,0,0
60406,-125,4,2,1,50,0,0
60706,-90.9090909090909,4,2,1,75,0,0
75106,-100,4,2,1,65,0,0
79906,-111.111111111111,4,2,1,70,0,0
84706,-90.9090909090909,4,2,1,80,0,0

[Colours]
Combo1 : 215,162,83
Combo2 : 216,186,218
Combo3 : 188,128,193
Combo4 : 242,202,142

[HitObjects]
2,263,706,6,0,L|13:190,2,59.4999981842042,2|2|2,0:0|0:0|0:0,0:0:0:0:
56,320,1156,2,0,B|121:306|102:361|180:344,1,118.999996368408,2|2,0:0|0:0,0:0:0:0:
238,309,1606,1,0,0:0:0:0:
238,309,1756,6,0,L|249:236,1,59.4999981842042,2|0,0:0|0:0,0:0:0:0:
216,173,2056,1,2,0:0:0:0:
216,173,2206,2,0,P|263:138|320:150,2,118.999996368408,2|2|2,0:0|0:0|0:0,0:0:0:0:
511,148,3106,6,0,L|453:139,2,59.4999981842042,2|2|2,0:0|0:0|0:0,0:0:0:0:
512,69,3556,2,0,L|373:47,1,118.999996368408,2|2,0:0|0:0,0:0:0:0:
328,7,4006,1,0,0:0:0:0:
328,7,4156,6,0,P|315:33|316:63,1,59.4999981842042,2|0,0:0|0:0,0:0:0:0:
352,139,4456,1,2,0:0:0:0:
352,139,4606,2,0,L|293:148,1,59.4999981842042,2|0,0:0|0:0,0:0:0:0:
242,88,4906,1,2,0:0:0:0:
242,88,5056,1,2,0:0:0:0:
216,166,5206,1,2,0:0:0:0:
148,126,5356,1,2,0:0:0:0:
120,252,5506,6,0,L|111:194,2,59.4999981842042,2|2|2,0:0|0:0|0:0,0:0:0:0:
43,151,5956,2,0,P|89:116|147:125,1,118.999996368408,2|2,0:0|0:0,0:0:0:0:
216,166,6406,1,0,0:0:0:0:
120,252,6556,6,0,L|111:194,1,59.4999981842042,2|0,0:0|0:0,0:0:0:0:
207,266,6856,1,2,0:0:0:0:
207,266,7006,2,0,L|185:393,2,118.999996368408,2|2|2,0:0|0:0|0:0,0:0:0:0:
484,230,7906,6,0,L|474:171,2,59.4999981842042,2|2|2,0:0|0:0|0:0,0:0:0:0:
480,310,8356,2,0,B|414:296|433:351|355:334,1,118.999996368408,2|2,0:0|0:0,0:0:0:0:
321,276,8806,1,0,0:0:0:0:
373,165,8956,6,0,L|382:223,1,59.4999981842042,2|0,0:0|0:0,0:0:0:0:
321,276,9256,1,2,0:0:0:0:
237,151,9406,2,0,L|246:92,1,59.4999981842042,2|2,0:0|0:0,0:0:0:0:
403,48,9706,1,2,0:0:0:0:
330,90,9856,1,2,0:0:0:0:
243,11,10006,1,6,1:3:0:0:
243,11,10306,5,6,1:2:0:0:
245,92,10456,2,0,L|232:176,1,85,2|8,1:2|0:0,0:0:0:0:
97,223,10756,2,0,B|187:203|161:280|269:256,1,170,2|2,0:0|0:0,0:0:0:0:
453,180,11206,2,0,P|414:162|372:164,1,85,10|2,0:0|0:0,0:0:0:0:
320,316,11506,5,2,0:0:0:0:
232,176,11656,1,2,0:0:0:0:
409,292,11806,1,10,0:0:0:0:
240,360,11956,6,0,L|156:347,1,85,2|0,0:0|0:0,0:0:0:0:
4,181,12256,1,10,0:0:0:0:
170,233,12406,1,2,0:0:0:0:
4,323,12556,1,10,0:0:0:0:
125,81,12706,6,0,L|112:165,1,85,2|2,1:2|1:2,0:0:0:0:
298,19,13006,1,8,0:0:0:0:
346,160,13156,2,0,P|423:187|491:142,1,170,2|2,0:0|0:0,0:0:0:0:
298,19,13606,2,0,L|214:32,1,85,10|2,0:0|0:0,0:0:0:0:
380,85,13906,5,2,0:0:0:0:
216,178,14056,1,2,0:0:0:0:
298,19,14206,1,10,0:0:0:0:
397,239,14356,6,0,L|384:323,1,85,2|2,0:0|0:0,0:0:0:0:
346,160,14656,1,10,0:0:0:0:
301,309,14806,1,2,0:0:0:0:
216,178,14956,1,8,0:0:0:0:
126,352,15106,5,2,1:2:0:0:
209,162,15256,1,2,1:2:0:0:
250,384,15406,1,12,0:0:0:0:
100,184,15556,2,0,L|126:352,1,170,2|2,0:0|0:0,0:0:0:0:
17,210,16006,2,0,P|15:167|33:129,1,85,10|2,0:0|0:0,0:0:0:0:
183,78,16306,5,2,0:0:0:0:
100,184,16456,1,2,0:0:0:0:
73,12,16606,1,8,0:0:0:0:
209,162,16756,2,0,B|323:147|323:147|293:161|283:199,1,170,2|10,0:0|0:0,0:0:0:0:
113,268,17206,2,0,L|100:184,1,85,2|10,0:0|0:0,0:0:0:0:
264,265,17506,5,2,1:2:0:0:
128,348,17656,1,2,1:2:0:0:
209,161,17806,2,0,P|249:151|288:166,1,85,10|2,0:0|0:0,0:0:0:0:
390,288,18106,2,0,P|429:302|469:292,1,85,2|2,0:0|0:0,0:0:0:0:
375,128,18406,2,0,L|362:212,1,85,10|2,0:0|0:0,0:0:0:0:
482,376,18706,6,0,L|469:292,1,85,2|2,0:0|0:0,0:0:0:0:
288,166,19006,1,8,0:0:0:0:
334,348,19156,1,2,1:2:0:0:
426,212,19306,1,2,1:2:0:0:
426,212,19381,1,0,1:0:0:0:
426,212,19456,2,0,L|355:201,1,42.5,0|0,1:0|1:0,0:0:0:0:
288,166,19606,1,12,0:0:0:0:
42,138,21856,5,0,1:0:0:0:
42,138,21931,1,0,1:0:0:0:
42,138,22006,2,0,L|52:38,1,85,8|0,1:2|0:0,0:0:0:0:
99,193,22306,6,0,P|162:209|218:173,1,136,6|8,1:2|0:0,0:0:0:0:
254,102,22756,1,2,0:0:0:0:
311,161,22906,2,0,L|289:316,1,136,2|8,0:0|0:0,0:0:0:0:
238,358,23356,1,2,0:0:0:0:
372,310,23506,6,0,L|391:175,1,136,2|8,0:0|0:0,0:0:0:0:
444,113,23956,1,2,0:0:0:0:
493,205,24106,1,2,0:0:0:0:
363,97,24256,2,0,P|329:91|297:99,1,68,10|0,0:0|0:0,0:0:0:0:
174,213,24556,6,0,P|207:218|239:210,1,68,10|0,0:0|1:0,0:0:0:0:
296,99,24856,1,2,1:2:0:0:
180,0,25006,2,0,L|160:134,1,136,8|0,0:0|1:0,0:0:0:0:
98,238,25456,1,2,0:0:0:0:
16,160,25606,2,0,P|49:151|82:157,1,68,8|2,0:0|0:0,0:0:0:0:
174,213,25906,6,0,L|241:222,1,68,2|0,0:0|0:0,0:0:0:0:
67,313,26206,2,0,L|0:322,1,68,10|0,0:0|0:0,0:0:0:0:
98,238,26506,1,2,0:0:0:0:
145,344,26656,2,0,P|177:352|210:346,1,68,10|2,0:0|0:0,0:0:0:0:
273,297,26956,1,10,0:0:0:0:
250,155,27106,6,0,L|240:222,1,68,0|0,1:0|1:0,0:0:0:0:
383,231,27406,2,0,P|351:223|318:230,1,68,8|2,0:0|0:0,0:0:0:0:
410,307,27706,2,0,P|455:270|446:185,1,136,2|8,0:0|0:0,0:0:0:0:
488,124,28156,1,2,0:0:0:0:
377,125,28306,6,0,B|303:108|324:171|235:152,1,136,2|8,0:0|0:0,0:0:0:0:
177,127,28756,1,2,0:0:0:0:
220,61,28906,1,2,0:0:0:0:
111,3,29056,2,0,L|121:70,1,68,10|0,0:0|0:0,0:0:0:0:
259,221,29356,6,0,L|249:154,1,68,10|0,0:0|1:0,0:0:0:0:
177,127,29656,1,2,1:2:0:0:
118,206,29806,2,0,L|140:355,1,136,8|0,0:0|1:0,0:0:0:0:
274,302,30256,1,2,0:0:0:0:
259,221,30406,2,0,L|249:154,1,68,8|2,0:0|0:0,0:0:0:0:
301,94,30706,5,2,0:0:0:0:
364,182,30856,1,2,1:2:0:0:
436,64,31006,2,0,P|468:56|501:64,1,68,10|8,0:0|0:0,0:0:0:0:
512,238,31306,1,10,1:2:0:0:
364,182,31456,1,8,0:0:0:0:
501,64,31606,1,8,0:0:0:0:
450,182,31756,1,10,0:0:0:0:
319,10,31906,6,0,L|252:20,1,68,0|0,1:0|1:0,0:0:0:0:
107,90,32206,2,0,P|178:71|232:120,1,152.999995330811,12|2,0:0|0:0,0:0:0:0:
265,192,32656,1,0,0:0:0:0:
132,276,32806,2,0,L|56:264,1,76.4999976654053,8|2,0:0|0:0,0:0:0:0:
169,202,33106,6,0,P|206:247|175:348,1,152.999995330811,2|8,0:0|0:0,0:0:0:0:
117,364,33556,1,2,0:0:0:0:
90,181,33706,1,2,0:0:0:0:
0,255,33856,2,0,L|75:266,1,76.4999976654053,10|0,0:0|0:0,0:0:0:0:
223,128,34156,6,0,L|147:116,1,76.4999976654053,10|0,0:0|1:0,0:0:0:0:
83,73,34456,1,2,1:2:0:0:
201,5,34606,2,0,B|251:40|251:40|213:157,1,152.999995330811,8|0,0:0|1:0,0:0:0:0:
219,207,35056,1,2,0:0:0:0:
311,115,35206,2,0,P|347:105|384:113,1,76.4999976654053,8|2,0:0|0:0,0:0:0:0:
361,239,35506,6,0,L|285:250,1,76.4999976654053,2|2,0:0|0:0,0:0:0:0:
437,175,35806,2,0,L|512:186,1,76.4999976654053,10|0,0:0|0:0,0:0:0:0:
412,301,36106,1,2,0:0:0:0:
359,158,36256,2,0,L|370:82,1,76.4999976654053,10|2,0:0|0:0,0:0:0:0:
437,175,36556,1,10,0:0:0:0:
302,40,36706,6,0,P|229:24|168:67,1,152.999995330811,0|8,1:0|0:0,0:0:0:0:
79,200,37156,1,2,0:0:0:0:
23,142,37306,2,0,P|96:121|153:167,1,152.999995330811,2|8,0:0|0:0,0:0:0:0:
235,303,37756,1,2,0:0:0:0:
290,246,37906,6,0,P|217:225|160:271,1,152.999995330811,2|8,0:0|0:0,0:0:0:0:
169,348,38356,1,2,0:0:0:0:
79,200,38506,1,6,0:3:0:0:
19,307,38656,2,0,L|95:318,1,76.4999976654053,2|8,1:2|0:0,0:0:0:0:
251,164,38956,6,0,B|201:199|201:199|239:316,1,170,6|2,1:2|1:2,0:0:0:0:
380,212,39406,2,0,L|392:124,1,85,10|2,0:0|1:2,0:0:0:0:
301,228,39706,1,6,1:3:0:0:
436,307,39856,1,2,1:2:0:0:
392,127,40006,1,8,0:0:0:0:
276,306,40156,6,0,B|186:285|211:361|104:338,1,170,6|2,1:2|1:2,0:0:0:0:
155,177,40606,2,0,L|143:262,1,85,10|2,0:0|0:0,0:0:0:0:
36,159,40906,1,2,1:2:0:0:
213,117,41056,2,0,L|277:125,2,42.5,10|8|8,0:0|0:0|0:0,0:0:0:0:
98,60,41356,5,8,0:0:0:0:
98,60,41431,1,8,0:0:0:0:
98,60,41506,2,0,B|171:77|150:15|239:34,1,136,4|10,1:2|0:0,0:0:0:0:
10,347,51106,5,0,1:0:0:0:
10,347,51256,1,0,1:0:0:0:
155,350,51406,2,0,L|317:371,1,152.999995330811,10|0,0:0|0:0,0:0:0:0:
306,369,52006,6,0,L|155:350,1,152.999995330811,10|0,0:0|0:0,0:0:0:0:
154,350,52606,2,0,L|165:261,1,76.4999976654053,10|2,0:0|0:0,0:0:0:0:
135,135,52906,1,2,0:0:0:0:
222,221,53056,2,0,P|259:228|294:215,1,76.4999976654053,10|0,0:0|0:0,0:0:0:0:
343,148,53356,1,10,0:0:0:0:
222,66,53506,6,0,L|213:142,1,76.4999976654053,0|0,1:0|1:0,0:0:0:0:
337,39,53806,2,0,P|388:22|460:84,1,152.999995330811,10|0,0:0|0:0,0:0:0:0:
459,79,54406,6,0,P|409:25|337:38,1,152.999995330811,10|0,0:0|0:0,0:0:0:0:
337,38,55006,2,0,L|327:113,1,76.4999976654053,10|2,0:0|0:0,0:0:0:0:
370,249,55306,1,2,0:0:0:0:
273,168,55456,2,0,P|235:160|200:173,1,76.4999976654053,10|0,0:0|0:0,0:0:0:0:
156,309,55756,6,0,B|177:216|99:243|123:130,1,170,6|0,1:2|3:0,0:0:0:0:
16,62,56206,2,0,L|103:73,1,85,2|8,1:2|0:0,0:0:0:0:
273,168,56506,1,8,0:0:0:0:
114,236,56656,1,8,0:0:0:0:
184,44,56806,1,10,0:0:0:0:
282,246,56956,6,0,P|368:266|424:190,1,170,4|2,1:2|1:2,0:0:0:0:
281,88,57406,1,10,0:0:0:0:
204,258,57556,1,10,0:0:0:0:
379,146,57706,1,10,0:0:0:0:
182,66,57856,2,0,L|193:153,1,85,10|0,0:0|1:0,0:0:0:0:
356,310,58156,6,0,L|366:225,1,85,14|0,0:0|0:0,0:0:0:0:
394,44,58456,1,8,0:0:0:0:
22,31,60406,6,0,L|36:159,1,102,2|0,0:0|0:0,0:0:0:0:
78,195,60706,6,0,P|123:207|167:193,1,93.5000028533936,6|0,1:2|0:0,0:0:0:0:
353,41,61006,2,0,P|308:29|264:43,1,93.5000028533936,10|0,0:0|0:0,0:0:0:0:
301,202,61306,2,0,L|311:109,1,93.5000028533936,2|0,1:2|0:0,0:0:0:0:
157,117,61606,1,10,0:0:0:0:
260,269,61756,6,0,P|304:280|348:266,1,93.5000028533936,2|0,0:0|1:0,0:0:0:0:
114,188,62056,2,0,P|49:251|71:342,1,187.000005706787,2|2,0:0|0:0,0:0:0:0:
260,269,62506,1,2,1:2:0:0:
157,117,62656,1,2,0:0:0:0:
209,330,62806,1,10,0:0:0:0:
337,128,62956,6,0,B|436:105|408:189|527:164,1,187.000005706787,2|0,0:0|0:0,0:0:0:0:
270,0,63406,2,0,L|259:92,1,93.5000028533936,10|0,0:0|0:0,0:0:0:0:
339,284,63706,1,0,1:0:0:0:
211,159,63856,2,0,P|123:143|65:212,1,187.000005706787,2|2,0:0|0:0,0:0:0:0:
260,269,64306,5,2,1:2:0:0:
98,368,64456,2,0,L|108:275,1,93.5000028533936,2|8,0:0|0:0,0:0:0:0:
259,92,64756,2,0,B|314:72|314:72|373:128|302:218,1,187.000005706787,2|2,0:0|0:0,0:0:0:0:
146,107,65206,2,0,L|135:14,1,93.5000028533936,10|0,0:0|0:0,0:0:0:0:
2,170,65506,6,0,P|46:181|90:167,1,93.5000028533936,6|0,1:2|0:0,0:0:0:0:
224,12,65806,2,0,P|179:1|135:14,1,93.5000028533936,10|0,0:0|0:0,0:0:0:0:
248,184,66106,2,0,L|258:91,1,93.5000028533936,2|0,1:2|1:0,0:0:0:0:
134,14,66406,1,10,0:0:0:0:
103,230,66556,6,0,B|202:207|174:291|293:266,1,187.000005706787,6|6,1:2|1:2,0:0:0:0:
404,280,67006,1,8,0:0:0:0:
291,129,67156,1,6,1:2:0:0:
472,238,67306,5,2,0:0:0:0:
293,346,67456,1,2,1:2:0:0:
363,162,67606,1,10,0:0:0:0:
476,379,67756,6,0,P|366:357|262:342,1,187.000005706787,2|0,0:0|0:0,0:0:0:0:
99,237,68206,2,0,P|153:179|272:226,1,187.000005706787,10|0,0:0|1:0,0:0:0:0:
292,345,68656,2,0,B|269:245|353:273|328:154,1,187.000005706787,2|0,0:0|0:0,0:0:0:0:
227,0,69106,6,0,L|216:92,1,93.5000028533936,2|0,1:2|0:0,0:0:0:0:
186,255,69406,1,10,0:0:0:0:
96,144,69556,1,2,0:0:0:0:
6,352,69706,2,0,L|98:362,1,93.5000028533936,0|8,1:0|0:0,0:0:0:0:
129,367,69931,1,8,0:0:0:0:
129,367,70006,2,0,L|135:317,1,46.7500014266968,10|8,0:0|0:0,0:0:0:0:
96,144,70156,2,0,L|90:190,1,46.7500014266968,8|8,0:0|0:0,0:0:0:0:
186,255,70306,6,0,P|230:265|272:247,1,93.5000028533936,6|0,1:2|0:0,0:0:0:0:
133,74,70606,2,0,P|88:63|46:81,1,93.5000028533936,12|0,0:0|0:0,0:0:0:0:
223,185,70906,2,0,L|212:92,1,93.5000028533936,2|0,1:2|0:0,0:0:0:0:
106,266,71206,1,10,0:0:0:0:
298,122,71356,6,0,P|384:99|447:162,1,187.000005706787,2|2,0:0|0:0,0:0:0:0:
262,339,71806,2,0,L|272:246,1,93.5000028533936,8|2,0:0|0:0,0:0:0:0:
251,51,72106,1,2,1:2:0:0:
352,221,72256,1,2,0:0:0:0:
408,24,72406,1,10,0:0:0:0:
223,185,72556,6,0,B|123:162|151:246|32:221,1,187.000005706787,2|0,0:0|0:0,0:0:0:0:
22,32,73006,2,0,P|108:25|130:129,1,187.000005706787,10|0,0:0|1:0,0:0:0:0:
249,267,73456,2,0,L|270:71,1,187.000005706787,2|2,0:0|0:0,0:0:0:0:
149,194,73906,5,2,1:2:0:0:
331,281,74056,1,0,1:0:0:0:
147,361,74206,1,8,0:0:0:0:
365,206,74356,2,0,L|416:197,2,46.7500014266968,10|8|8,0:0|0:0|0:0,0:0:0:0:
249,267,74656,1,0,1:0:0:0:
340,130,74806,2,0,L|463:108,1,93.5000028533936,6|8,0:3|0:3,0:0:0:0:
264,8,75106,6,0,P|221:32|235:161,1,170,6|0,1:2|0:0,0:0:0:0:
249,267,75556,1,2,1:2:0:0:
249,267,75706,2,0,L|76:241,1,170,10|0,0:0|0:0,0:0:0:0:
0,83,76156,1,2,1:2:0:0:
0,83,76306,6,0,L|173:57,1,170,6|0,1:2|0:0,0:0:0:0:
327,134,76756,1,2,1:2:0:0:
264,8,76906,2,0,L|249:118,1,85,10|0,0:0|0:0,0:0:0:0:
343,230,77206,1,2,0:0:0:0:
401,91,77356,6,0,P|452:74|497:92,1,85,2|0,1:2|0:0,0:0:0:0:
422,220,77656,2,0,P|371:237|326:219,1,85,2|0,1:2|0:0,0:0:0:0:
252,92,77956,1,2,1:2:0:0:
224,261,78106,2,0,L|239:371,1,85,10|0,0:0|0:0,0:0:0:0:
314,151,78406,1,2,0:0:0:0:
112,100,78556,6,0,P|53:131|45:243,1,170,2|2,1:2|1:2,0:0:0:0:
224,261,79006,2,0,L|235:176,1,85,8|2,0:0|1:2,0:0:0:0:
73,226,79306,1,10,0:0:0:0:
73,226,79381,1,0,0:0:0:0:
73,226,79456,2,0,L|84:294,1,42.5,2|0,1:2|1:0,0:0:0:0:
184,339,79606,2,0,L|323:366,1,127.5,8|0,0:0|0:0,0:0:0:0:
342,367,79906,6,0,L|330:282,1,76.4999976654053,0|0,1:0|1:0,0:0:0:0:
235,176,80206,2,0,L|224:251,1,76.4999976654053,10|0,0:0|0:0,0:0:0:0:
397,239,80506,2,0,L|386:163,1,76.4999976654053,2|0,0:0|0:0,0:0:0:0:
303,66,80806,1,10,0:0:0:0:
235,176,80956,6,0,P|270:188|307:180,1,76.4999976654053,2|0,0:0|0:0,0:0:0:0:
159,70,81256,2,0,P|115:116|133:220,1,152.999995330811,2|0,0:0|0:0,0:0:0:0:
200,323,81706,1,2,0:0:0:0:
311,165,81856,2,0,L|235:176,1,76.4999976654053,8|2,0:0|0:0,0:0:0:0:
118,200,82156,1,8,0:0:0:0:
277,352,82306,6,0,P|314:359|349:347,1,76.4999976654053,2|2,1:2|1:2,0:0:0:0:
453,185,82606,2,0,P|415:177|380:189,1,76.4999976654053,10|0,0:0|0:0,0:0:0:0:
432,334,82906,2,0,L|422:259,1,76.4999976654053,2|0,0:0|0:0,0:0:0:0:
322,126,83206,1,10,0:0:0:0:
278,247,83356,6,0,P|242:259|205:251,1,76.4999976654053,2|0,0:0|0:0,0:0:0:0:
73,147,83656,1,2,1:2:0:0:
232,44,83806,1,8,0:0:0:0:
139,205,83956,1,0,1:0:0:0:
90,64,84106,1,8,0:0:0:0:
90,64,84181,1,8,0:0:0:0:
90,64,84256,2,0,L|32:56,1,38.2499988327027,10|8,0:0|0:0,0:0:0:0:
155,123,84406,2,0,L|213:115,3,38.2499988327027,0|0|0|0,1:0|1:0|1:0|1:0,0:0:0:0:
232,44,84706,6,0,P|290:22|339:40,1,93.5000028533936,12|0,0:0|1:0,0:0:0:0:
437,217,85006,1,2,1:2:0:0:
250,140,85156,1,12,0:0:0:0:
448,224,85306,5,2,1:2:0:0:
336,57,85456,1,0,1:0:0:0:
324,259,85606,1,14,0:0:0:0:
492,133,85756,6,0,L|385:116,1,93.5000028533936,2|0,1:2|1:0,0:0:0:0:
144,251,86056,2,0,L|241:235,2,93.5000028533936,14|0|0,0:0|1:0|1:0,0:0:0:0:
126,139,86506,5,12,0:0:0:0:
227,323,86656,1,0,1:0:0:0:
227,143,86806,5,12,0:0:0:0:
126,327,86956,1,0,1:0:0:0:
307,189,87106,6,0,P|350:173|395:184,1,93.5000028533936,12|0,0:0|1:0,0:0:0:0:
452,370,87406,2,0,L|469:263,1,93.5000028533936,2|8,1:2|0:0,0:0:0:0:
414,103,87706,1,2,1:2:0:0:
414,103,87781,1,0,1:0:0:0:
414,103,87856,2,0,L|488:93,2,46.7500014266968,0|0|14,1:0|1:0|0:0,0:0:0:0:
307,189,88156,1,2,1:2:0:0:
