osu file format v14

[General]
AudioFilename: audio.mp3
AudioLeadIn: 0
PreviewTime: 58456
Countdown: 0
SampleSet: Soft
StackLeniency: 0.4
Mode: 0
LetterboxInBreaks: 0
WidescreenStoryboard: 1

[Editor]
DistanceSpacing: 1.7
BeatDivisor: 4
GridSize: 4
TimelineZoom: 2.2

[Metadata]
Title:SABLE (TV Size)
TitleUnicode:SABLE (TV Size)
Artist:nano
ArtistUnicode:ナノ
Creator:browiec
Version:HARD
Source:M3~ソノ黒キ鋼~
Tags:M3: Sono Kuroki Hagane M3 The Dark Metal Ending ed rock english anime zelq kuki1537 stixy -_nilou_- nilou syndicate_ majk00
BeatmapID:4432588
BeatmapSetID:2111538

[Difficulty]
HPDrainRate:4
CircleSize:3.5
OverallDifficulty:6.5
ApproachRate:8
SliderMultiplier:1.4
SliderTickRate:1

[Events]
//Background and Video events
0,0,"twoj stary i harnas.jpg",0,0
//Break Periods
2,20106,21106
2,41806,50356
//Storyboard Layer 0 (Background)
//Storyboard Layer 1 (Fail)
//Storyboard Layer 2 (Pass)
//Storyboard Layer 3 (Foreground)
//Storyboard Layer 4 (Overlay)
//Storyboard Sound Samples

[TimingPoints]
706,300,4,2,1,40,1,0
706,-125,4,2,1,40,0,0
10006,-111.111111111111,4,2,1,40,0,0
10306,-100,4,2,1,65,0,0
19906,-100,4,2,1,5,0,0
19981,-100,4,2,1,65,0,0
21856,-100,4,2,1,50,0,0
22306,-117.647058823529,4,2,1,60,0,0
38956,-100,4,2,1,60,0,0
41506,-125,4,2,1,40,0,0
51106,-111.111111111111,4,2,1,55,0,0
55756,-100,4,2,1,65,0,0
60406,-125,4,2,1,50,0,0
60706,-100,4,2,1,75,0,0
75106,-100,4,2,1,65,0,0
79906,-117.647058823529,4,2,1,70,0,0
84706,-100,4,2,1,80,0,0

[Colours]
Combo1 : 215,162,83
Combo2 : 216,186,218
Combo3 : 188,128,193
Combo4 : 242,202,142

[HitObjects]
132,106,706,6,0,L|190:98,2,56,2|2|2,0:0|0:0|0:0,0:0:0:0:
64,55,1156,2,0,P|49:105|67:162,1,112,2|2,0:0|0:0,0:0:0:0:
209,248,1756,2,0,L|328:235,1,112,2|2,0:0|0:0,0:0:0:0:
380,177,2206,2,0,L|387:118,1,56,2|0,0:0|0:0,0:0:0:0:
470,134,2506,2,0,L|463:189,1,56,2|0,0:0|0:0,0:0:0:0:
413,257,2806,1,2,0:0:0:0:
260,180,3106,6,0,L|252:121,2,56,2|2|2,0:0|0:0|0:0,0:0:0:0:
209,248,3556,2,0,P|259:263|316:245,1,112,2|2,0:0|0:0,0:0:0:0:
481,222,4156,2,0,L|493:341,1,112,2|2,0:0|0:0,0:0:0:0:
420,377,4606,2,0,L|361:369,1,56,2|0,0:0|0:0,0:0:0:0:
303,319,4906,1,2,0:0:0:0:
303,319,5056,1,2,0:0:0:0:
355,253,5206,2,0,L|362:194,1,56,2|2,0:0|0:0,0:0:0:0:
347,114,5506,6,0,L|405:106,2,56,2|2|2,0:0|0:0|0:0,0:0:0:0:
279,63,5956,2,0,P|264:113|282:170,1,112,2|2,0:0|0:0,0:0:0:0:
262,335,6556,2,0,L|142:322,1,112,2|2,0:0|0:0,0:0:0:0:
91,264,7006,2,0,L|83:205,1,56,2|0,0:0|0:0,0:0:0:0:
8,221,7306,2,0,L|14:276,1,56,2|0,0:0|0:0,0:0:0:0:
58,344,7606,1,2,0:0:0:0:
223,313,7906,6,0,L|281:305,2,56,2|2|2,0:0|0:0|0:0,0:0:0:0:
145,278,8356,2,0,P|127:225|142:172,1,112,2|2,0:0|0:0,0:0:0:0:
303,120,8956,2,0,L|414:131,1,112,2|2,0:0|0:0,0:0:0:0:
495,155,9406,2,0,L|488:210,1,56,2|2,0:0|0:0,0:0:0:0:
414,252,9706,2,0,L|420:307,1,56,2|2,0:0|0:0,0:0:0:0:
355,377,10006,1,6,1:3:0:0:
172,304,10306,6,0,L|180:235,1,70,6|2,1:2|1:2,0:0:0:0:
173,141,10606,1,8,0:0:0:0:
173,141,10756,2,0,B|81:150|81:150|38:122,1,140,2|2,0:0|0:0,0:0:0:0:
109,55,11206,2,0,L|177:46,1,70,10|2,0:0|0:0,0:0:0:0:
269,11,11506,6,0,P|274:45|270:80,1,70,2|2,0:0|0:0,0:0:0:0:
353,141,11806,1,10,0:0:0:0:
353,141,11956,2,0,L|361:209,1,70,2|0,0:0|0:0,0:0:0:0:
425,284,12256,1,10,0:0:0:0:
492,213,12406,2,0,L|500:144,1,70,2|10,0:0|0:0,0:0:0:0:
428,76,12706,6,0,L|436:7,2,70,2|2|8,1:2|1:2|0:0,0:0:0:0:
353,141,13156,2,0,P|294:119|219:141,1,140,2|2,0:0|0:0,0:0:0:0:
146,203,13606,2,0,L|154:271,1,70,10|2,0:0|0:0,0:0:0:0:
234,332,13906,6,0,L|302:340,2,70,2|2|10,0:0|0:0|0:0,0:0:0:0:
147,377,14356,1,2,0:0:0:0:
66,321,14506,2,0,L|57:252,1,70,2|10,0:0|0:0,0:0:0:0:
21,159,14806,1,2,0:0:0:0:
158,22,15106,6,0,P|192:17|227:21,1,70,2|2,1:2|1:2,0:0:0:0:
301,94,15406,1,12,0:0:0:0:
301,94,15556,2,0,B|291:185|291:185|319:228,1,140,2|2,0:0|0:0,0:0:0:0:
390,160,16006,2,0,L|398:91,1,70,10|2,0:0|0:0,0:0:0:0:
484,173,16306,6,0,L|492:241,1,70,2|2,0:0|0:0,0:0:0:0:
423,312,16606,1,8,0:0:0:0:
330,343,16756,2,0,L|261:334,1,70,2|0,0:0|0:0,0:0:0:0:
277,241,17056,1,10,0:0:0:0:
185,276,17206,2,0,P|180:242|184:207,1,70,2|10,0:0|0:0,0:0:0:0:
124,128,17506,6,0,L|55:119,2,70,2|2|10,1:2|1:2|0:0,0:0:0:0:
209,78,17956,1,2,0:0:0:0:
209,78,18106,2,0,L|217:9,2,70,2|2|10,0:0|0:0|0:0,0:0:0:0:
269,162,18556,1,2,0:0:0:0:
269,162,18706,6,0,L|337:170,2,70,2|2|8,0:0|0:0|0:0,0:0:0:0:
184,206,19156,1,2,1:2:0:0:
253,290,19306,1,2,1:2:0:0:
253,290,19381,1,0,1:0:0:0:
253,290,19456,1,0,1:0:0:0:
169,341,19606,2,0,L|24:323,1,140,12|0,0:0|0:0,0:0:0:0:
30,323,21856,5,0,1:0:0:0:
30,323,21931,1,0,1:0:0:0:
30,323,22006,2,0,B|70:311|70:311|98:327|134:327,1,105,8|0,0:0|0:0,0:0:0:0:
172,304,22306,6,0,B|163:223|163:223|187:185,1,119.000002269745,6|8,1:2|0:0,0:0:0:0:
254,134,22756,1,2,0:0:0:0:
254,134,22906,2,0,P|309:153|365:137,1,119.000002269745,2|8,0:0|0:0,0:0:0:0:
427,72,23356,1,2,0:0:0:0:
366,6,23506,2,0,L|247:18,1,119.000002269745,2|8,0:0|0:0,0:0:0:0:
180,77,23956,1,2,0:0:0:0:
254,134,24106,1,2,0:0:0:0:
254,134,24256,2,0,L|313:140,1,59.5000011348725,10|0,0:0|0:0,0:0:0:0:
399,114,24556,6,0,P|403:147|397:180,1,59.5000011348725,10|0,0:0|1:0,0:0:0:0:
332,232,24856,1,2,1:2:0:0:
332,232,25006,2,0,L|344:350,2,119.000002269745,8|0|8,0:0|1:0|0:0,0:0:0:0:
332,53,25906,6,0,L|272:46,1,59.5000011348725,2|0,0:0|0:0,0:0:0:0:
201,100,26206,2,0,L|141:93,1,59.5000011348725,10|0,0:0|0:0,0:0:0:0:
78,157,26506,1,2,0:0:0:0:
78,157,26656,2,0,L|84:216,1,59.5000011348725,10|2,0:0|0:0,0:0:0:0:
132,297,26956,1,10,0:0:0:0:
132,297,27106,6,0,P|187:277|243:293,1,119.000002269745,0|8,1:0|0:0,0:0:0:0:
311,359,27556,1,2,0:0:0:0:
311,359,27706,2,0,B|354:354|354:354|383:367|383:367|427:362,1,119.000002269745,2|8,0:0|0:0,0:0:0:0:
486,296,28156,1,2,0:0:0:0:
424,231,28306,6,0,B|415:150|415:150|439:112,1,119.000002269745,2|8,0:0|0:0,0:0:0:0:
409,32,28756,1,2,0:0:0:0:
325,55,28906,1,2,0:0:0:0:
325,55,29056,2,0,L|331:114,1,59.5000011348725,10|0,0:0|0:0,0:0:0:0:
268,178,29356,6,0,P|235:182|202:176,1,59.5000011348725,10|0,0:0|1:0,0:0:0:0:
153,115,29656,1,2,1:2:0:0:
153,115,29806,2,0,L|34:102,2,119.000002269745,8|0|8,0:0|1:0|0:0,0:0:0:0:
231,275,30706,6,0,P|286:294|342:278,1,119.000002269745,2|10,0:0|0:0,0:0:0:0:
399,211,31156,1,8,0:0:0:0:
399,211,31231,1,8,0:0:0:0:
399,211,31306,1,10,1:2:0:0:
340,143,31456,1,8,0:0:0:0:
392,70,31606,2,0,L|451:63,1,59.5000011348725,8|10,0:0|0:0,0:0:0:0:
329,7,31906,6,0,L|270:0,1,59.5000011348725,0|0,1:0|1:0,0:0:0:0:
190,52,32206,1,12,0:0:0:0:
231,143,32356,1,2,0:0:0:0:
231,143,32506,2,0,B|251:174|251:174|242:255,1,119.000002269745,2|8,0:0|0:0,0:0:0:0:
170,318,32956,1,2,0:0:0:0:
89,267,33106,6,0,P|72:210|91:155,1,119.000002269745,2|8,0:0|0:0,0:0:0:0:
153,83,33556,1,2,0:0:0:0:
231,143,33706,1,2,0:0:0:0:
231,143,33856,2,0,L|290:136,1,59.5000011348725,10|0,0:0|0:0,0:0:0:0:
349,61,34156,6,0,L|408:68,1,59.5000011348725,10|0,0:0|1:0,0:0:0:0:
477,141,34456,1,2,1:2:0:0:
477,141,34606,2,0,B|482:184|482:184|469:213|469:213|474:257,2,119.000002269745,8|0|8,0:0|1:0|0:0,0:0:0:0:
309,232,35506,6,0,L|250:239,1,59.5000011348725,2|2,0:0|0:0,0:0:0:0:
168,190,35806,2,0,L|109:197,1,59.5000011348725,10|0,0:0|0:0,0:0:0:0:
39,139,36106,1,2,0:0:0:0:
39,139,36256,2,0,P|35:106|41:73,1,59.5000011348725,10|2,0:0|0:0,0:0:0:0:
115,24,36556,1,10,0:0:0:0:
197,71,36706,6,0,B|278:62|278:62|309:82,1,119.000002269745,0|8,1:0|0:0,0:0:0:0:
371,161,37156,1,2,0:0:0:0:
371,161,37306,2,0,L|358:280,1,119.000002269745,2|8,0:0|0:0,0:0:0:0:
289,346,37756,1,2,0:0:0:0:
220,280,37906,6,0,L|207:161,1,119.000002269745,2|8,0:0|0:0,0:0:0:0:
117,127,38356,1,2,0:0:0:0:
119,226,38506,1,6,0:3:0:0:
119,226,38656,2,0,L|126:285,1,59.5000011348725,2|8,1:2|0:0,0:0:0:0:
198,350,38956,6,0,P|252:329|331:350,1,140,6|2,1:2|1:2,0:0:0:0:
402,283,39406,2,0,L|471:274,1,70,10|2,0:0|1:2,0:0:0:0:
510,183,39706,1,6,1:3:0:0:
447,107,39856,2,0,L|378:116,1,70,2|8,1:2|0:0,0:0:0:0:
310,187,40156,6,0,B|234:172|246:211|170:199,1,140,6|2,1:2|1:2,0:0:0:0:
81,236,40606,2,0,P|76:201|81:166,1,70,10|2,0:0|0:0,0:0:0:0:
157,104,40906,1,2,1:2:0:0:
104,34,41056,1,10,0:0:0:0:
104,34,41131,1,8,0:0:0:0:
104,34,41206,1,8,0:0:0:0:
200,16,41356,2,0,L|234:11,2,35,8|8|4,0:0|0:0|1:2,0:0:0:0:
129,44,51106,5,0,1:0:0:0:
129,44,51256,1,0,1:0:0:0:
205,100,51406,2,0,B|213:183|213:183|187:242|187:242|222:283|222:339,2,251.999992309571,10|10|10,0:0|0:0|0:0,0:0:0:0:
268,30,52756,1,2,0:0:0:0:
349,87,52906,1,2,0:0:0:0:
349,87,53056,2,0,L|411:80,1,62.9999980773926,10|0,0:0|0:0,0:0:0:0:
478,146,53356,1,10,0:0:0:0:
409,210,53506,6,0,L|347:203,1,62.9999980773926,0|0,1:0|1:0,0:0:0:0:
252,213,53806,2,0,P|225:265|360:295,2,251.999992309571,10|10|10,0:0|0:0|0:0,0:0:0:0:
346,202,55156,1,2,0:0:0:0:
293,130,55306,1,2,0:0:0:0:
293,130,55456,2,0,L|286:68,1,62.9999980773926,10|0,0:0|0:0,0:0:0:0:
199,7,55756,6,0,B|107:-2|107:-2|64:26,1,140,6|0,1:2|3:0,0:0:0:0:
34,116,56206,2,0,L|42:184,1,70,2|8,1:2|0:0,0:0:0:0:
124,248,56506,1,8,0:0:0:0:
124,248,56656,1,8,0:0:0:0:
205,194,56806,1,10,0:0:0:0:
278,259,56956,6,0,P|298:203|277:128,1,140,4|2,1:2|1:2,0:0:0:0:
337,50,57406,2,0,L|405:42,1,70,10|10,0:0|0:0,0:0:0:0:
506,47,57706,1,10,0:0:0:0:
506,47,57856,2,0,L|498:115,1,70,10|0,0:0|1:0,0:0:0:0:
425,183,58156,6,0,B|431:206|431:206|425:223|425:223|430:234|430:234|440:326,1,140,14|8,0:0|0:0,0:0:0:0:
439,319,60406,5,2,0:0:0:0:
322,161,60706,6,0,L|254:169,1,70,6|0,1:2|0:0,0:0:0:0:
176,242,61006,2,0,L|108:234,1,70,10|0,0:0|0:0,0:0:0:0:
10,190,61306,2,0,P|4:155|9:120,1,70,2|0,1:2|0:0,0:0:0:0:
92,56,61606,1,10,0:0:0:0:
167,129,61756,6,0,B|217:123|217:123|251:138|251:138|302:132,2,140,2|2|2,0:0|0:0|0:0,0:0:0:0:
109,217,62506,1,2,1:2:0:0:
109,217,62656,1,2,0:0:0:0:
182,292,62806,1,10,0:0:0:0:
275,243,62956,2,0,B|367:234|367:234|410:262,1,140,2|0,0:0|0:0,0:0:0:0:
485,330,63406,6,0,P|505:274|484:199,1,140,10|0,0:0|1:0,0:0:0:0:
399,135,63856,2,0,L|256:118,1,140,2|2,0:0|0:0,0:0:0:0:
163,87,64306,1,2,1:2:0:0:
163,87,64456,2,0,P|158:121|164:155,1,70,2|8,0:0|0:0,0:0:0:0:
249,218,64756,2,0,P|253:252|247:286,1,70,2|0,0:0|1:0,0:0:0:0:
167,354,65056,1,2,0:0:0:0:
85,287,65206,1,10,0:0:0:0:
259,118,65506,6,0,L|327:110,1,70,6|0,1:2|0:0,0:0:0:0:
433,99,65806,2,0,L|425:167,1,70,10|0,0:0|0:0,0:0:0:0:
341,231,66106,2,0,L|349:299,1,70,2|0,1:2|1:0,0:0:0:0:
273,374,66406,1,10,0:0:0:0:
194,303,66556,6,0,L|202:233,1,70,6|0,1:2|0:0,0:0:0:0:
117,171,66856,2,0,L|108:101,1,70,6|8,1:2|0:0,0:0:0:0:
173,18,67156,1,6,1:2:0:0:
256,82,67306,2,0,L|325:73,1,70,2|2,0:0|1:2,0:0:0:0:
409,137,67606,1,10,0:0:0:0:
341,216,67756,2,0,L|198:233,1,140,2|0,0:0|0:0,0:0:0:0:
120,165,68206,6,0,P|98:230|118:296,1,140,10|0,0:0|1:0,0:0:0:0:
216,336,68656,2,0,L|285:327,1,70,2|8,0:0|0:0,0:0:0:0:
388,366,68956,1,0,0:0:0:0:
388,366,69106,2,0,P|393:332|387:298,1,70,2|0,1:2|0:0,0:0:0:0:
311,230,69406,1,10,0:0:0:0:
311,230,69556,1,2,0:0:0:0:
435,60,69856,2,0,L|474:55,2,35,8|8|10,0:0|0:0|0:0,0:0:0:0:
350,119,70156,5,8,0:0:0:0:
350,119,70231,1,8,0:0:0:0:
350,119,70306,2,0,L|281:110,1,70,6|0,1:2|0:0,0:0:0:0:
208,32,70606,2,0,P|185:58|172:90,1,70,12|0,0:0|0:0,0:0:0:0:
100,168,70906,2,0,P|123:194|136:226,1,70,2|0,1:2|0:0,0:0:0:0:
108,327,71206,1,10,0:0:0:0:
208,295,71356,6,0,B|300:304|300:304|343:276,2,140,2|2|2,0:0|0:0|0:0,0:0:0:0:
136,226,72106,1,2,1:2:0:0:
136,226,72256,1,2,0:0:0:0:
211,152,72406,1,10,0:0:0:0:
154,63,72556,2,0,P|98:43|23:64,1,140,2|0,0:0|0:0,0:0:0:0:
14,169,73006,6,0,L|31:312,1,140,10|0,0:0|1:0,0:0:0:0:
119,365,73456,2,0,L|136:222,1,140,2|2,0:0|0:0,0:0:0:0:
211,152,73906,2,0,L|280:143,1,70,2|0,1:2|1:0,0:0:0:0:
350,64,74206,1,8,0:0:0:0:
432,145,74356,1,10,0:0:0:0:
432,145,74431,1,8,0:0:0:0:
432,145,74506,2,0,L|423:214,1,70,8|0,0:0|1:0,0:0:0:0:
351,291,74806,1,6,0:3:0:0:
211,152,75106,6,0,B|161:146|161:146|127:161|127:161|76:155,1,140,6|0,1:2|0:0,0:0:0:0:
59,56,75556,1,2,1:2:0:0:
59,56,75706,2,0,B|111:62|111:62|145:47|145:47|195:53,1,140,10|0,0:0|0:0,0:0:0:0:
287,88,76156,5,2,1:2:0:0:
287,88,76306,2,0,P|308:153|288:219,1,140,6|0,1:2|0:0,0:0:0:0:
212,283,76756,1,2,1:2:0:0:
212,283,76906,2,0,P|190:217|210:151,1,140,10|2,0:0|0:0,0:0:0:0:
288,219,77356,6,0,L|358:211,1,70,2|0,1:2|0:0,0:0:0:0:
420,135,77656,2,0,L|490:127,1,70,2|0,1:2|0:0,0:0:0:0:
477,34,77956,1,2,1:2:0:0:
477,34,78106,2,0,L|407:42,1,70,10|0,0:0|0:0,0:0:0:0:
331,103,78406,1,2,0:0:0:0:
230,70,78556,6,0,P|223:104|228:138,1,70,2|0,1:2|0:0,0:0:0:0:
307,209,78856,2,0,P|313:243|308:277,1,70,2|8,1:2|0:0,0:0:0:0:
247,363,79156,1,2,1:2:0:0:
166,295,79306,1,10,0:0:0:0:
88,363,79456,1,2,1:2:0:0:
88,363,79531,1,0,1:0:0:0:
88,363,79606,1,8,0:0:0:0:
27,195,79906,5,0,1:0:0:0:
27,195,80056,1,0,1:0:0:0:
86,128,80206,2,0,P|141:108|197:124,2,119.000002269745,10|2|10,0:0|0:0|0:0,0:0:0:0:
143,196,80956,2,0,L|149:255,1,59.5000011348725,2|0,0:0|0:0,0:0:0:0:
216,313,81256,2,0,B|297:322|297:322|335:298,1,119.000002269745,2|0,0:0|0:0,0:0:0:0:
435,158,81856,2,0,L|494:164,2,59.5000011348725,8|2|8,0:0|0:0|0:0,0:0:0:0:
372,102,82306,5,2,1:2:0:0:
372,102,82456,1,2,1:2:0:0:
301,156,82606,2,0,P|280:100|297:44,2,119.000002269745,10|2|10,0:0|0:0|0:0,0:0:0:0:
357,226,83356,2,0,L|351:285,1,59.5000011348725,2|0,0:0|0:0,0:0:0:0:
266,314,83656,2,0,L|260:255,1,59.5000011348725,2|8,1:2|0:0,0:0:0:0:
195,192,83956,1,0,1:0:0:0:
126,245,84106,1,8,0:0:0:0:
126,245,84181,1,8,0:0:0:0:
126,245,84256,1,10,0:0:0:0:
48,189,84406,2,0,L|51:159,3,29.7500005674362,0|0|0|0,1:0|1:0|1:0|1:0,0:0:0:0:
61,110,84706,6,0,L|129:102,1,70,12|0,0:0|1:0,0:0:0:0:
202,24,85006,2,0,L|270:32,1,70,2|12,1:2|0:0,0:0:0:0:
308,130,85306,2,0,L|238:138,1,70,2|0,1:2|1:0,0:0:0:0:
169,217,85606,1,14,0:0:0:0:
249,284,85756,6,0,P|283:289|317:283,1,70,2|0,1:2|1:0,0:0:0:0:
385,202,86056,2,0,P|419:197|453:203,1,70,14|0,0:0|1:0,0:0:0:0:
499,298,86356,1,0,1:0:0:0:
407,345,86506,1,12,0:0:0:0:
407,345,86656,1,0,1:0:0:0:
317,282,86806,2,0,P|283:288|249:284,1,70,12|0,0:0|1:0,0:0:0:0:
169,217,87106,5,12,0:0:0:0:
238,138,87256,1,0,1:0:0:0:
238,138,87331,1,0,1:0:0:0:
238,138,87406,2,0,L|246:68,1,70,2|8,1:2|0:0,0:0:0:0:
146,33,87706,2,0,L|142:-2,2,35,2|0|0,1:2|1:0|1:0,0:0:0:0:
93,123,88006,1,14,0:0:0:0:
2,69,88156,5,2,1:2:0:0:
