osu file format v14

[General]
AudioFilename: audio.mp3
AudioLeadIn: 0
PreviewTime: 58456
Countdown: 0
SampleSet: Soft
StackLeniency: 0.4
Mode: 0
LetterboxInBreaks: 0
WidescreenStoryboard: 1

[Editor]
DistanceSpacing: 1.7
BeatDivisor: 4
GridSize: 4
TimelineZoom: 2.2

[Metadata]
Title:SABLE (TV Size)
TitleUnicode:SABLE (TV Size)
Artist:nano
ArtistUnicode:ナノ
Creator:browiec
Version:EXPERT
Source:M3~ソノ黒キ鋼~
Tags:M3: Sono Kuroki Hagane M3 The Dark Metal Ending ed rock english anime zelq kuki1537 stixy -_nilou_- nilou syndicate_ majk00
BeatmapID:4432587
BeatmapSetID:2111538

[Difficulty]
HPDrainRate:5.4
CircleSize:3.6
OverallDifficulty:8.8
ApproachRate:9.2
SliderMultiplier:1.75
SliderTickRate:1

[Events]
//Background and Video events
0,0,"twoj stary i harnas.jpg",0,0
//Break Periods
2,20106,21286
//Storyboard Layer 0 (Background)
//Storyboard Layer 1 (Fail)
//Storyboard Layer 2 (Pass)
//Storyboard Layer 3 (Foreground)
//Storyboard Layer 4 (Overlay)
//Storyboard Sound Samples

[TimingPoints]
706,300,4,2,1,40,1,0
706,-142.857142857143,4,2,1,40,0,0
10006,-117.647058823529,4,2,1,40,0,0
10306,-100,4,2,1,65,0,0
19906,-100,4,2,1,5,0,0
19981,-100,4,2,1,65,0,0
21856,-100,4,2,1,50,0,0
22306,-125,4,2,1,60,0,0
32206,-111.111111111111,4,2,1,60,0,0
38956,-100,4,2,1,60,0,0
41506,-125,4,2,1,40,0,0
51106,-111.111111111111,4,2,1,55,0,0
55756,-100,4,2,1,65,0,0
60406,-125,4,2,1,50,0,0
60706,-90.9090909090909,4,2,1,75,0,0
75106,-100,4,2,1,65,0,0
79906,-111.111111111111,4,2,1,70,0,0
84706,-90.9090909090909,4,2,1,80,0,0

[Colours]
Combo1 : 215,162,83
Combo2 : 216,186,218
Combo3 : 188,128,193
Combo4 : 242,202,142

[HitObjects]
174,217,706,6,0,L|106:209,2,61.2499981307984,2|2|2,0:0|0:0|0:0,0:0:0:0:
262,189,1156,2,0,P|266:220|262:251,1,61.2499981307984,2|0,0:0|0:0,0:0:0:0:
193,128,1456,2,0,P|189:97|193:67,1,61.2499981307984,2|0,0:0|0:0,0:0:0:0:
265,15,1756,6,0,L|325:8,1,61.2499981307984,2|0,0:0|0:0,0:0:0:0:
418,9,2056,1,2,0:0:0:0:
418,9,2206,2,0,B|412:51|412:51|420:77|420:77|415:131,2,122.499996261597,2|2|2,0:0|0:0|0:0,0:0:0:0:
262,249,3106,6,0,P|293:245|324:249,2,61.2499981307984,2|2|2,0:0|0:0|0:0,0:0:0:0:
191,301,3556,2,0,L|198:368,1,61.2499981307984,2|0,0:0|0:0,0:0:0:0:
107,372,3856,2,0,L|100:311,1,61.2499981307984,2|0,0:0|0:0,0:0:0:0:
55,214,4156,6,0,B|138:222|138:222|185:199,1,122.499996261597,2|2,0:0|0:0,0:0:0:0:
121,131,4606,2,0,L|60:124,1,61.2499981307984,2|0,0:0|0:0,0:0:0:0:
207,96,4906,1,2,0:0:0:0:
207,96,5056,1,2,0:0:0:0:
130,39,5206,2,0,L|69:32,1,61.2499981307984,2|2,0:0|0:0,0:0:0:0:
267,25,5506,6,0,P|285:49|297:77,2,61.2499981307984,2|2|2,0:0|0:0|0:0,0:0:0:0:
207,96,5956,2,0,L|214:163,1,61.2499981307984,2|0,0:0|0:0,0:0:0:0:
296,188,6256,2,0,L|289:255,1,61.2499981307984,2|0,0:0|0:0,0:0:0:0:
261,337,6556,6,0,P|292:341|323:337,1,61.2499981307984,2|0,0:0|0:0,0:0:0:0:
381,268,6856,1,2,0:0:0:0:
381,268,7006,2,0,L|502:255,2,122.499996261597,2|2|2,0:0|0:0|0:0,0:0:0:0:
213,158,7906,6,0,L|146:151,2,61.2499981307984,2|2|2,0:0|0:0|0:0,0:0:0:0:
300,130,8356,2,0,P|304:161|300:192,1,61.2499981307984,2|0,0:0|0:0,0:0:0:0:
270,43,8656,2,0,P|300:40|330:43,1,61.2499981307984,2|0,0:0|0:0,0:0:0:0:
431,62,8956,6,0,P|397:112|398:172,1,122.499996261597,2|2,0:0|0:0,0:0:0:0:
479,213,9406,2,0,L|486:280,1,61.2499981307984,2|2,0:0|0:0,0:0:0:0:
439,353,9706,1,2,0:0:0:0:
390,277,9856,1,2,0:0:0:0:
278,367,10006,6,0,B|209:374|209:374|171:355,1,111.562502127886,6|0,1:3|0:0,0:0:0:0:
147,339,10306,5,6,1:2:0:0:
277,225,10456,1,2,1:2:0:0:
94,267,10606,1,8,0:0:0:0:
261,132,10756,2,0,B|378:117|378:117|336:154,1,175,2|2,0:0|0:0,0:0:0:0:
175,173,11206,2,0,P|168:129|176:85,1,87.5,10|2,0:0|0:0,0:0:0:0:
277,225,11506,5,2,0:0:0:0:
94,267,11656,1,2,0:0:0:0:
257,318,11806,1,10,0:0:0:0:
175,173,11956,2,0,L|184:260,1,87.5,2|0,0:0|0:0,0:0:0:0:
343,375,12256,1,10,0:0:0:0:
343,375,12406,2,0,L|352:287,1,87.5,2|10,0:0|0:0,0:0:0:0:
477,154,12706,6,0,P|433:160|389:152,1,87.5,2|2,1:2|1:2,0:0:0:0:
339,77,13006,1,8,0:0:0:0:
242,216,13156,2,0,B|230:104|230:104|255:41,1,175,2|2,0:0|0:0,0:0:0:0:
89,0,13606,2,0,L|98:87,1,87.5,10|2,0:0|0:0,0:0:0:0:
156,261,13906,5,2,0:0:0:0:
21,145,14056,1,2,0:0:0:0:
242,216,14206,2,0,P|249:258|243:301,1,87.5,10|2,0:0|0:0,0:0:0:0:
14,250,14506,1,2,0:0:0:0:
188,142,14656,1,10,0:0:0:0:
1,264,14806,2,0,P|-6:306|0:349,1,87.5,2|8,0:0|0:0,0:0:0:0:
243,301,15106,6,0,L|155:291,1,87.5,2|2,1:2|1:2,0:0:0:0:
277,164,15406,1,12,0:0:0:0:
309,366,15556,2,0,B|372:359|372:359|414:378|414:378|478:372,1,175,2|2,0:0|0:0,0:0:0:0:
442,195,16006,2,0,L|432:282,1,87.5,10|2,0:0|0:0,0:0:0:0:
277,164,16306,5,2,0:0:0:0:
425,104,16456,1,2,0:0:0:0:
305,252,16606,1,8,0:0:0:0:
223,89,16756,2,0,L|135:79,1,87.5,2|0,0:0|0:0,0:0:0:0:
345,20,17056,1,10,0:0:0:0:
345,20,17206,2,0,L|432:10,1,87.5,2|10,0:0|0:0,0:0:0:0:
277,250,17506,6,0,P|284:207|277:164,1,87.5,2|2,1:2|1:2,0:0:0:0:
104,71,17806,2,0,P|96:114|103:157,1,87.5,10|2,0:0|0:0,0:0:0:0:
195,296,18106,1,2,0:0:0:0:
276,163,18256,1,2,0:0:0:0:
99,263,18406,2,0,L|109:351,1,87.5,10|2,0:0|0:0,0:0:0:0:
277,250,18706,5,2,0:0:0:0:
103,157,18856,1,2,0:0:0:0:
307,75,19006,2,0,L|395:65,1,87.5,8|2,0:0|1:2,0:0:0:0:
499,240,19306,1,2,1:2:0:0:
477,237,19381,1,0,1:0:0:0:
455,235,19456,1,0,1:0:0:0:
433,232,19531,1,0,1:0:0:0:
412,230,19606,6,0,B|356:224|356:224|339:230|339:230|316:211|316:211|300:218|300:218|246:212,1,175,12|0,0:0|0:0,0:0:0:0:
246,212,21856,5,0,1:0:0:0:
246,212,21931,1,0,1:0:0:0:
246,212,22006,2,0,B|206:228|206:228|165:205|110:216,1,131.25,8|0,0:0|0:0,0:0:0:0:
58,145,22306,6,0,B|74:185|74:185|64:281,1,140,6|8,1:2|0:0,0:0:0:0:
111,368,22756,1,2,0:0:0:0:
111,368,22906,2,0,P|154:331|253:339,1,140,2|8,0:0|0:0,0:0:0:0:
316,372,23356,1,2,0:0:0:0:
279,246,23506,6,0,B|271:174|271:174|292:145|293:111,1,140,2|8,0:0|0:0,0:0:0:0:
357,48,23956,1,2,0:0:0:0:
203,109,24106,1,2,0:0:0:0:
203,109,24256,2,0,L|128:101,1,70,10|0,0:0|0:0,0:0:0:0:
273,173,24556,6,0,L|348:165,1,70,10|0,0:0|1:0,0:0:0:0:
391,83,24856,1,2,1:2:0:0:
391,83,25006,2,0,P|427:126|419:225,2,140,8|0|8,0:0|1:0|0:0,0:0:0:0:
321,17,25756,1,2,0:0:0:0:
321,17,25906,6,0,P|279:21|245:16,1,70,2|0,0:0|0:0,0:0:0:0:
160,16,26206,2,0,L|168:91,1,70,10|0,0:0|0:0,0:0:0:0:
244,225,26506,1,2,0:0:0:0:
316,126,26656,2,0,L|241:134,1,70,10|2,0:0|0:0,0:0:0:0:
167,177,26956,1,10,0:0:0:0:
265,315,27106,6,0,B|315:309|315:309|352:320|352:320|401:315,1,140,0|8,1:0|0:0,0:0:0:0:
489,356,27556,1,2,0:0:0:0:
489,356,27706,2,0,P|491:287|450:232,1,140,2|8,0:0|0:0,0:0:0:0:
393,163,28156,1,2,0:0:0:0:
288,288,28306,6,0,L|138:272,1,140,2|8,0:0|0:0,0:0:0:0:
27,221,28756,1,2,0:0:0:0:
144,181,28906,1,2,0:0:0:0:
13,235,29056,2,0,L|21:310,1,70,10|0,0:0|0:0,0:0:0:0:
144,181,29356,6,0,L|152:106,1,70,10|0,0:0|1:0,0:0:0:0:
70,28,29656,1,2,1:2:0:0:
70,28,29806,2,0,B|165:17|165:17|206:34,2,140,8|0|8,0:0|1:0|0:0,0:0:0:0:
10,97,30556,1,2,0:0:0:0:
10,97,30706,2,0,P|5:138|10:172,1,70,2|2,0:0|1:2,0:0:0:0:
107,289,31006,1,10,0:0:0:0:
241,149,31156,5,8,0:0:0:0:
241,149,31231,1,8,0:0:0:0:
241,149,31306,1,10,1:2:0:0:
97,197,31456,1,8,0:0:0:0:
297,219,31606,1,8,0:0:0:0:
147,112,31756,1,10,0:0:0:0:
190,328,31906,6,0,L|265:320,1,70,0|0,1:0|1:0,0:0:0:0:
421,267,32206,1,12,0:0:0:0:
297,219,32356,1,2,0:0:0:0:
297,219,32506,2,0,B|240:212|240:212|198:225|198:225|142:220,1,157.499995193482,2|8,0:0|0:0,0:0:0:0:
301,130,32956,1,2,0:0:0:0:
338,41,33106,6,0,P|387:100|384:177,1,157.499995193482,2|8,0:0|0:0,0:0:0:0:
219,252,33556,1,2,0:0:0:0:
301,130,33706,1,2,0:0:0:0:
421,267,33856,2,0,L|504:259,1,78.7499975967408,10|0,0:0|0:0,0:0:0:0:
276,360,34156,6,0,L|193:352,1,78.7499975967408,10|0,0:0|1:0,0:0:0:0:
138,230,34456,1,2,1:2:0:0:
138,230,34606,2,0,B|107:263|107:263|219:252,2,157.499995193482,8|0|8,0:0|1:0|0:0,0:0:0:0:
200,161,35356,1,2,0:0:0:0:
303,215,35506,6,0,P|309:255|302:295,1,78.7499975967408,2|2,0:0|0:0,0:0:0:0:
186,148,35806,2,0,P|179:109|185:70,1,78.7499975967408,10|0,0:0|0:0,0:0:0:0:
381,116,36106,1,2,0:0:0:0:
303,215,36256,1,10,0:0:0:0:
330,45,36406,1,2,0:0:0:0:
438,185,36556,1,10,0:0:0:0:
236,153,36706,6,0,B|150:133|168:183|82:166,1,157.499995193482,0|8,1:0|0:0,0:0:0:0:
320,198,37156,1,2,0:0:0:0:
320,198,37306,2,0,P|324:121|275:62,1,157.499995193482,2|8,0:0|0:0,0:0:0:0:
236,153,37756,1,2,0:0:0:0:
358,281,37906,6,0,B|464:268|464:268|510:287,1,157.499995193482,2|8,0:0|0:0,0:0:0:0:
320,198,38356,1,2,0:0:0:0:
296,350,38506,1,6,0:3:0:0:
236,153,38656,1,2,1:2:0:0:
236,153,38731,1,0,1:0:0:0:
236,153,38806,1,8,0:0:0:0:
170,333,38956,6,0,B|107:326|107:326|65:345|65:345|1:339,1,175,6|2,1:2|1:2,0:0:0:0:
126,135,39406,1,10,0:0:0:0:
234,267,39556,1,2,1:2:0:0:
21,213,39706,1,6,1:3:0:0:
225,124,39856,1,2,1:2:0:0:
170,333,40006,1,8,0:0:0:0:
311,155,40156,6,0,B|426:168|426:168|480:144,1,175,6|2,1:2|1:2,0:0:0:0:
295,64,40606,1,10,0:0:0:0:
383,260,40756,1,2,0:0:0:0:
225,124,40906,1,2,1:2:0:0:
324,331,41056,1,10,0:0:0:0:
324,331,41131,1,8,0:0:0:0:
324,331,41206,1,8,0:0:0:0:
431,136,41356,2,0,L|426:183,1,43.75,8|8,0:0|0:0,0:0:0:0:
258,254,41506,6,0,L|183:246,1,70,4|0,1:2|1:0,0:0:0:0:
91,180,41806,2,0,B|98:255|98:255|75:302|75:302|83:377|83:377|124:309,2,280,10|10|10,0:0|0:0|0:0,0:0:0:0:
164,125,43156,1,2,0:0:0:0:
93,63,43306,5,2,0:0:0:0:
93,63,43456,2,0,L|18:55,1,70,8|0,0:0|0:0,0:0:0:0:
181,34,43756,1,10,0:0:0:0:
248,173,43906,5,0,1:0:0:0:
248,173,44056,1,0,1:0:0:0:
316,112,44206,2,0,B|402:63|482:118|482:118|437:154|384:137,2,280,10|10|10,0:0|0:0|0:0,0:0:0:0:
248,173,45556,1,2,0:0:0:0:
168,69,45706,5,2,0:0:0:0:
168,69,45856,2,0,P|163:110|168:144,1,70,10|0,0:0|0:0,0:0:0:0:
248,173,46156,1,10,0:0:0:0:
147,278,46306,5,0,1:0:0:0:
147,278,46456,1,0,1:0:0:0:
222,329,46606,2,0,B|284:306|336:334|336:334|368:303|368:303|420:333|483:316,2,280,10|10|10,0:0|0:0|0:0,0:0:0:0:
442,158,48106,5,2,0:0:0:0:
442,158,48256,2,0,L|434:233,1,70,10|0,0:0|0:0,0:0:0:0:
364,101,48556,1,10,0:0:0:0:
310,233,48706,5,0,1:0:0:0:
310,233,48856,1,0,1:0:0:0:
236,171,49006,2,0,P|195:166|161:171,1,70,10|0,0:0|0:0,0:0:0:0:
165,318,49306,2,0,P|186:290|200:258,1,70,2|0,0:0|0:0,0:0:0:0:
63,224,49606,1,10,0:0:0:0:
63,224,49756,6,0,L|79:376,1,140,2|2,0:0|0:0,0:0:0:0:
165,318,50206,1,10,0:0:0:0:
165,318,50356,2,0,L|157:243,1,70,2|0,0:0|0:0,0:0:0:0:
278,121,50656,1,8,0:0:0:0:
246,231,50806,1,2,0:0:0:0:
181,99,50956,1,10,0:0:0:0:
337,198,51106,5,0,1:0:0:0:
337,198,51256,1,0,1:0:0:0:
167,88,51406,2,0,P|90:84|30:133,1,157.499995193482,10|0,0:0|0:0,0:0:0:0:
125,181,51856,1,2,0:0:0:0:
125,181,52006,2,0,B|132:238|132:238|119:280|119:280|124:336,1,157.499995193482,10|0,0:0|0:0,0:0:0:0:
207,376,52456,1,2,0:0:0:0:
303,292,52606,5,10,0:0:0:0:
226,243,52756,1,2,0:0:0:0:
299,383,52906,1,2,0:0:0:0:
394,299,53056,2,0,L|477:291,1,78.7499975967408,10|0,0:0|0:0,0:0:0:0:
424,203,53356,1,10,0:0:0:0:
303,292,53506,5,0,1:0:0:0:
303,292,53656,1,0,1:0:0:0:
232,134,53806,2,0,B|126:147|126:147|80:128,1,157.499995193482,10|0,0:0|0:0,0:0:0:0:
270,44,54256,1,2,0:0:0:0:
270,44,54406,2,0,P|319:103|315:180,1,157.499995193482,10|0,0:0|0:0,0:0:0:0:
246,238,54856,1,2,0:0:0:0:
141,149,55006,5,10,0:0:0:0:
152,238,55156,1,2,0:0:0:0:
232,134,55306,1,2,0:0:0:0:
56,110,55456,2,0,P|50:150|57:190,1,78.7499975967408,10|0,0:0|0:0,0:0:0:0:
170,333,55756,6,0,B|107:326|107:326|65:345|65:345|1:339,1,175,6|0,1:2|3:0,0:0:0:0:
234,264,56206,1,2,1:2:0:0:
56,187,56356,1,8,0:0:0:0:
249,274,56506,1,8,0:0:0:0:
13,322,56656,1,8,0:0:0:0:
258,367,56806,1,10,0:0:0:0:
44,176,56956,6,0,B|140:206|121:144|218:164,1,175,4|2,1:2|1:2,0:0:0:0:
459,260,57406,1,10,0:0:0:0:
338,41,57556,1,10,0:0:0:0:
249,274,57706,1,10,0:0:0:0:
476,160,57856,2,0,P|483:117|476:74,1,87.5,10|0,0:0|1:0,0:0:0:0:
219,7,58156,6,0,B|234:124|234:124|197:82,1,175,14|8,0:0|0:0,0:0:0:0:
196,75,60406,6,0,B|228:87|228:87|260:69|304:78,1,105,2|0,0:0|0:0,0:0:0:0:
377,32,60706,6,0,P|386:80|375:128,1,96.250002937317,6|0,1:2|0:0,0:0:0:0:
219,232,61006,2,0,P|256:199|303:184,1,96.250002937317,10|0,0:0|0:0,0:0:0:0:
472,269,61306,2,0,P|425:252|388:219,1,96.250002937317,2|0,1:2|0:0,0:0:0:0:
296,76,61606,1,10,0:0:0:0:
308,286,61756,6,0,L|318:384,1,96.250002937317,2|0,0:0|1:0,0:0:0:0:
477,171,62056,2,0,L|487:73,1,96.250002937317,2|8,0:0|0:0,0:0:0:0:
300,185,62356,1,2,0:0:0:0:
472,269,62506,1,2,1:2:0:0:
387,74,62656,1,2,0:0:0:0:
262,273,62806,1,10,0:0:0:0:
477,171,62956,1,2,0:0:0:0:
246,61,63106,6,0,P|199:51|152:60,1,96.250002937317,0|0,1:0|0:0,0:0:0:0:
74,266,63406,2,0,B|143:258|143:258|190:279|190:279|261:272,1,192.500005874634,10|0,0:0|1:0,0:0:0:0:
367,171,63856,2,0,B|354:290|354:290|375:316|414:328,1,192.500005874634,2|2,0:0|0:0,0:0:0:0:
457,199,64306,5,2,1:2:0:0:
261,272,64456,2,0,L|271:370,1,96.250002937317,2|8,0:0|0:0,0:0:0:0:
108,220,64756,2,0,P|98:173|107:126,1,96.250002937317,2|0,0:0|1:0,0:0:0:0:
257,170,65056,1,2,0:0:0:0:
22,70,65206,2,0,P|81:31|151:36,1,144.375004405975,10|0,0:0|0:0,0:0:0:0:
241,73,65506,6,0,L|339:63,1,96.250002937317,6|0,1:2|0:0,0:0:0:0:
108,220,65806,2,0,L|10:210,1,96.250002937317,10|0,0:0|0:0,0:0:0:0:
257,170,66106,1,2,1:2:0:0:
97,316,66256,1,0,1:0:0:0:
348,251,66406,1,10,0:0:0:0:
98,124,66556,6,0,L|108:222,1,96.250002937317,6|0,1:2|0:0,0:0:0:0:
252,384,66856,2,0,L|262:286,1,96.250002937317,6|8,1:2|0:0,0:0:0:0:
286,78,67156,1,6,1:2:0:0:
107,219,67306,1,2,0:0:0:0:
180,10,67456,1,2,1:2:0:0:
297,203,67606,1,10,0:0:0:0:
380,1,67756,1,2,0:0:0:0:
151,125,67906,6,0,L|53:115,1,96.250002937317,4|0,1:2|0:0,0:0:0:0:
260,294,68206,2,0,B|364:315|340:249|447:277,1,192.500005874634,10|0,0:0|1:0,0:0:0:0:
345,45,68656,2,0,P|280:111|296:202,1,192.500005874634,2|0,0:0|0:0,0:0:0:0:
468,151,69106,6,0,L|370:141,1,96.250002937317,2|0,1:2|0:0,0:0:0:0:
229,11,69406,1,10,0:0:0:0:
229,11,69556,2,0,L|131:21,1,96.250002937317,2|0,0:0|1:0,0:0:0:0:
277,141,69856,1,8,0:0:0:0:
277,141,69931,1,8,0:0:0:0:
277,141,70006,2,0,L|282:92,1,48.1250014686585,10|8,0:0|0:0,0:0:0:0:
361,3,70156,2,0,L|365:50,1,48.1250014686585,8|8,0:0|0:0,0:0:0:0:
324,228,70306,6,0,P|253:233|194:194,1,144.375004405975,6|0,1:2|0:0,0:0:0:0:
122,134,70606,6,0,L|24:144,1,96.250002937317,12|0,0:0|0:0,0:0:0:0:
153,0,70906,2,0,P|184:35|200:81,1,96.250002937317,2|0,1:2|0:0,0:0:0:0:
324,228,71206,1,10,0:0:0:0:
417,50,71356,6,0,L|512:40,1,96.250002937317,2|0,0:0|1:0,0:0:0:0:
311,241,71656,2,0,L|215:231,1,96.250002937317,2|8,0:0|0:0,0:0:0:0:
325,76,71956,1,2,0:0:0:0:
418,275,72106,1,2,1:2:0:0:
238,129,72256,1,2,0:0:0:0:
468,163,72406,1,10,0:0:0:0:
215,231,72556,1,2,0:0:0:0:
416,374,72706,6,0,L|511:364,1,96.250002937317,0|0,1:0|0:0,0:0:0:0:
311,198,73006,2,0,B|324:321|324:321|298:383,1,192.500005874634,10|0,0:0|1:0,0:0:0:0:
113,320,73456,2,0,L|123:225,1,96.250002937317,2|8,0:0|0:0,0:0:0:0:
18,81,73756,1,2,0:0:0:0:
18,81,73906,6,0,P|53:113|98:128,1,96.250002937317,2|0,1:2|1:0,0:0:0:0:
297,105,74206,1,8,0:0:0:0:
106,30,74356,1,10,0:0:0:0:
106,30,74431,1,8,0:0:0:0:
106,30,74506,1,8,0:0:0:0:
123,224,74656,1,0,1:0:0:0:
307,94,74806,2,0,L|402:84,1,96.250002937317,6|8,0:3|0:3,0:0:0:0:
363,285,75106,5,6,1:2:0:0:
363,285,75256,2,0,B|300:278|300:278|258:297|258:297|194:291,1,175,0|2,1:0|1:2,3:0:0:0:
112,349,75706,1,10,0:0:0:0:
112,349,75856,2,0,P|97:279|157:195,1,175,0|2,0:0|1:2,0:0:0:0:
353,185,76306,5,6,1:2:0:0:
213,45,76456,2,0,L|223:132,1,87.5,0|0,1:0|0:0,0:0:0:0:
343,271,76756,1,2,1:2:0:0:
343,271,76906,2,0,L|353:184,1,87.5,10|0,0:0|0:0,0:0:0:0:
192,290,77206,1,2,0:0:0:0:
375,361,77356,6,0,P|418:368|461:361,1,87.5,2|0,1:2|0:0,0:0:0:0:
234,202,77656,2,0,P|190:194|147:201,1,87.5,2|0,1:2|0:0,0:0:0:0:
192,290,77956,1,2,1:2:0:0:
316,151,78106,2,0,L|403:141,1,87.5,10|0,0:0|0:0,0:0:0:0:
321,249,78406,1,2,0:0:0:0:
241,20,78556,6,0,L|231:107,1,87.5,2|0,1:2|0:0,0:0:0:0:
192,290,78856,1,2,1:2:0:0:
88,93,79006,5,8,0:0:0:0:
304,237,79156,1,2,1:2:0:0:
41,317,79306,5,10,0:0:0:0:
231,106,79456,1,2,1:2:0:0:
231,106,79531,1,0,1:0:0:0:
231,106,79606,2,0,B|268:90|268:90|307:112|360:102,1,131.25,8|0,0:0|0:0,0:0:0:0:
444,63,79906,6,0,P|450:103|443:143,1,78.7499975967408,0|0,1:0|1:0,0:0:0:0:
436,238,80206,2,0,P|398:223|367:197,1,78.7499975967408,10|0,0:0|0:0,0:0:0:0:
201,203,80506,2,0,L|284:195,1,78.7499975967408,2|0,0:0|0:0,0:0:0:0:
327,116,80806,1,10,0:0:0:0:
142,124,80956,6,0,P|116:155|102:193,1,78.7499975967408,2|0,0:0|0:0,0:0:0:0:
152,291,81256,2,0,B|46:278|46:278|0:297,1,157.499995193482,2|0,0:0|0:0,0:0:0:0:
232,348,81706,5,2,0:0:0:0:
201,203,81856,1,8,0:0:0:0:
245,356,82006,1,2,0:0:0:0:
214,193,82156,1,8,0:0:0:0:
331,316,82306,6,0,L|414:308,1,78.7499975967408,2|2,1:2|1:2,0:0:0:0:
511,225,82606,2,0,L|428:217,1,78.7499975967408,10|0,0:0|0:0,0:0:0:0:
331,134,82906,2,0,L|414:126,1,78.7499975967408,2|0,0:0|0:0,0:0:0:0:
286,214,83206,1,10,0:0:0:0:
230,49,83356,6,0,L|313:41,1,78.7499975967408,2|0,0:0|0:0,0:0:0:0:
178,127,83656,2,0,L|95:119,1,78.7499975967408,2|8,1:2|0:0,0:0:0:0:
286,214,83956,1,0,1:0:0:0:
139,218,84106,1,8,0:0:0:0:
119,216,84181,1,8,0:0:0:0:
99,214,84256,1,10,0:0:0:0:
80,212,84331,1,8,0:0:0:0:
60,210,84406,2,0,L|64:252,3,39.3749987983704,0|0|0|0,1:0|1:0|1:0|1:0,0:0:0:0:
95,339,84706,5,12,0:0:0:0:
178,127,84856,1,0,1:0:0:0:
282,342,85006,1,2,1:2:0:0:
264,69,85156,5,12,0:0:0:0:
186,298,85306,1,2,1:2:0:0:
87,75,85456,1,0,1:0:0:0:
331,251,85606,5,14,0:0:0:0:
95,339,85756,2,0,L|-3:329,1,96.250002937317,2|0,1:2|1:0,0:0:0:0:
178,127,86056,5,14,0:0:0:0:
282,342,86206,1,0,1:0:0:0:
390,132,86356,1,0,1:0:0:0:
126,217,86506,5,12,0:0:0:0:
380,344,86656,1,0,1:0:0:0:
178,127,86806,2,0,L|80:117,1,96.250002937317,12|0,0:0|1:0,0:0:0:0:
331,251,87106,5,12,0:0:0:0:
331,251,87181,1,0,1:0:0:0:
331,251,87256,2,0,L|380:246,1,48.1250014686585,0|0,1:0|1:0,0:0:0:0:
274,119,87406,2,0,L|269:168,3,48.1250014686585,2|0|8|0,1:2|1:0|0:0|1:0,0:0:0:0:
222,295,87706,5,2,1:2:0:0:
222,295,87781,1,0,1:0:0:0:
222,295,87856,2,0,L|217:246,1,48.1250014686585,0|0,1:0|1:0,0:0:0:0:
145,27,88006,5,14,0:0:0:0:
331,251,88156,1,2,1:2:0:0:
