osu file format v14

[General]
AudioFilename: audio.mp3
AudioLeadIn: 0
PreviewTime: 58456
Countdown: 0
SampleSet: Soft
StackLeniency: 0.4
Mode: 0
LetterboxInBreaks: 0
WidescreenStoryboard: 1

[Editor]
DistanceSpacing: 1.7
BeatDivisor: 4
GridSize: 4
TimelineZoom: 2.2

[Metadata]
Title:SABLE (TV Size)
TitleUnicode:SABLE (TV Size)
Artist:nano
ArtistUnicode:ナノ
Creator:browiec
Version:BROKEN REALITY
Source:M3~ソノ黒キ鋼~
Tags:M3: Sono Kuroki Hagane M3 The Dark Metal Ending ed rock english anime zelq kuki1537 stixy -_nilou_- nilou syndicate_ majk00
BeatmapID:4432586
BeatmapSetID:2111538

[Difficulty]
HPDrainRate:5.8
CircleSize:4
OverallDifficulty:9.2
ApproachRate:9.4
SliderMultiplier:1.8
SliderTickRate:1

[Events]
//Background and Video events
0,0,"twoj stary i harnas.jpg",0,0
//Break Periods
2,20106,21316
//Storyboard Layer 0 (Background)
//Storyboard Layer 1 (Fail)
//Storyboard Layer 2 (Pass)
//Storyboard Layer 3 (Foreground)
//Storyboard Layer 4 (Overlay)
//Storyboard Sound Samples

[TimingPoints]
706,300,4,2,1,40,1,0
706,-142.857142857143,4,2,1,40,0,0
10006,-117.647058823529,4,2,1,40,0,0
10306,-100,4,2,1,65,0,0
19906,-100,4,2,1,5,0,0
19981,-100,4,2,1,65,0,0
21856,-100,4,2,1,50,0,0
22306,-125,4,2,1,60,0,0
32206,-111.111111111111,4,2,1,60,0,0
38956,-100,4,2,1,60,0,0
41506,-125,4,2,1,40,0,0
51106,-111.111111111111,4,2,1,55,0,0
55756,-100,4,2,1,65,0,0
60406,-125,4,2,1,50,0,0
60706,-90.9090909090909,4,2,1,75,0,0
75106,-100,4,2,1,65,0,0
79906,-111.111111111111,4,2,1,70,0,0
84706,-90.9090909090909,4,2,1,80,0,0

[Colours]
Combo1 : 215,162,83
Combo2 : 216,186,218
Combo3 : 188,128,193
Combo4 : 242,202,142

[HitObjects]
172,219,706,6,0,L|105:212,1,62.9999980773926,2|2,0:0|0:0,0:0:0:0:
25,183,1006,1,2,0:0:0:0:
25,183,1156,2,0,P|21:214|25:245,1,62.9999980773926,2|0,0:0|0:0,0:0:0:0:
92,127,1456,2,0,P|96:95|92:64,1,62.9999980773926,2|0,0:0|0:0,0:0:0:0:
164,14,1756,6,0,L|231:6,1,62.9999980773926,2|0,0:0|0:0,0:0:0:0:
301,62,2056,1,2,0:0:0:0:
301,62,2206,2,0,B|348:56|348:56|377:65|377:65|437:59,2,125.999996154785,2|2|2,0:0|0:0|0:0,0:0:0:0:
92,127,3106,6,0,P|88:158|92:189,1,62.9999980773926,2|2,0:0|0:0,0:0:0:0:
75,279,3406,1,2,0:0:0:0:
75,279,3556,2,0,L|7:271,1,62.9999980773926,2|0,0:0|0:0,0:0:0:0:
140,341,3856,2,0,L|207:333,1,62.9999980773926,2|0,0:0|0:0,0:0:0:0:
281,384,4156,6,0,B|295:304|295:304|280:257,1,125.999996154785,2|2,0:0|0:0,0:0:0:0:
242,180,4606,2,0,L|174:187,1,62.9999980773926,2|0,0:0|0:0,0:0:0:0:
308,102,4906,1,2,0:0:0:0:
227,49,5056,1,2,0:0:0:0:
319,113,5206,2,0,L|381:106,1,62.9999980773926,2|2,0:0|0:0,0:0:0:0:
465,134,5506,6,0,P|468:165|464:196,1,62.9999980773926,2|2,0:0|0:0,0:0:0:0:
400,261,5806,1,2,0:0:0:0:
400,261,5956,2,0,L|407:328,1,62.9999980773926,2|0,0:0|0:0,0:0:0:0:
314,272,6256,2,0,L|321:339,1,62.9999980773926,2|0,0:0|0:0,0:0:0:0:
236,233,6556,6,0,L|242:170,1,62.9999980773926,2|0,0:0|0:0,0:0:0:0:
307,108,6856,1,2,0:0:0:0:
307,108,7006,2,0,P|343:130|427:127,2,125.999996154785,2|2|2,0:0|0:0|0:0,0:0:0:0:
96,26,7906,6,0,L|33:19,1,62.9999980773926,2|2,0:0|0:0,0:0:0:0:
144,105,8206,1,2,0:0:0:0:
144,105,8356,2,0,P|175:101|206:105,1,62.9999980773926,2|0,0:0|0:0,0:0:0:0:
288,76,8656,2,0,P|291:107|287:138,1,62.9999980773926,2|0,0:0|0:0,0:0:0:0:
234,212,8956,6,0,B|239:259|239:259|230:288|230:288|236:348,1,125.999996154785,2|2,0:0|0:0,0:0:0:0:
105,170,9406,1,2,0:0:0:0:
235,127,9556,1,2,0:0:0:0:
154,239,9706,1,2,0:0:0:0:
154,101,9856,1,2,0:0:0:0:
234,212,10006,2,0,B|313:203|313:203|345:217,1,114.750002188683,6|0,1:3|0:0,0:0:0:0:
365,232,10306,5,6,1:2:0:0:
235,127,10456,1,2,1:2:0:0:
348,326,10606,1,8,0:0:0:0:
466,134,10756,2,0,B|451:257|451:257|489:213,1,180,2|2,0:0|0:0,0:0:0:0:
235,127,11206,2,0,P|276:134|323:127,1,90,10|2,0:0|0:0,0:0:0:0:
106,46,11506,5,2,0:0:0:0:
222,231,11656,1,2,0:0:0:0:
43,136,11806,1,10,0:0:0:0:
241,34,11956,2,0,L|336:23,1,90,2|0,0:0|0:0,0:0:0:0:
133,177,12256,1,10,0:0:0:0:
345,249,12406,1,2,0:0:0:0:
116,171,12556,1,10,0:0:0:0:
405,83,12706,6,0,P|412:124|405:171,1,90,2|2,1:2|1:2,0:0:0:0:
263,299,13006,1,8,0:0:0:0:
174,70,13156,2,0,B|107:62|107:62|65:83|65:83|0:76,1,180,2|2,0:0|0:0,0:0:0:0:
238,198,13606,2,0,L|333:187,1,90,10|2,0:0|0:0,0:0:0:0:
472,83,13906,5,2,0:0:0:0:
327,187,14056,1,2,0:0:0:0:
509,265,14206,1,10,0:0:0:0:
385,103,14356,1,2,0:0:0:0:
334,344,14506,5,2,0:0:0:0:
377,118,14656,1,10,0:0:0:0:
233,334,14806,2,0,B|188:345|188:345|144:332,1,90,2|8,0:0|0:0,0:0:0:0:
34,110,15106,5,2,1:2:0:0:
229,236,15256,1,2,1:2:0:0:
9,304,15406,1,12,0:0:0:0:
187,90,15556,2,0,P|130:139|142:245,1,180,2|2,0:0|0:0,0:0:0:0:
335,341,16006,2,0,L|324:245,1,90,10|2,0:0|0:0,0:0:0:0:
399,136,16306,5,2,0:0:0:0:
229,236,16456,1,2,0:0:0:0:
443,284,16606,1,8,0:0:0:0:
276,99,16756,2,0,L|180:88,1,90,2|0,0:0|0:0,0:0:0:0:
414,20,17056,1,10,0:0:0:0:
325,251,17206,1,2,0:0:0:0:
421,7,17356,1,10,0:0:0:0:
216,183,17506,5,2,1:2:0:0:
446,266,17656,1,2,1:2:0:0:
298,68,17806,2,0,L|308:163,1,90,10|2,0:0|0:0,0:0:0:0:
279,352,18106,1,2,0:0:0:0:
400,187,18256,1,2,0:0:0:0:
267,366,18406,2,0,P|226:373|179:366,1,90,10|2,0:0|0:0,0:0:0:0:
104,125,18706,5,2,0:0:0:0:
305,230,18856,1,2,0:0:0:0:
69,284,19006,2,0,L|164:273,1,90,8|2,0:0|1:2,0:0:0:0:
376,69,19306,1,2,1:2:0:0:
346,65,19381,1,0,1:0:0:0:
317,62,19456,1,0,1:0:0:0:
287,58,19531,1,0,1:0:0:0:
259,56,19606,2,0,B|135:40|135:40|160:52|178:74,1,180,12|0,0:0|0:0,0:0:0:0:
168,54,21856,5,0,1:0:0:0:
168,54,21931,1,0,1:0:0:0:
168,54,22006,2,0,B|208:70|208:70|249:47|304:58,1,135,8|0,0:0|0:0,0:0:0:0:
380,14,22306,6,0,B|396:103|396:103|379:158,1,144,6|8,1:2|0:0,0:0:0:0:
301,198,22756,1,2,0:0:0:0:
301,198,22906,2,0,P|258:169|157:177,1,144,2|8,0:0|0:0,0:0:0:0:
96,226,23356,1,2,0:0:0:0:
150,356,23506,6,0,L|293:340,1,144,2|8,0:0|0:0,0:0:0:0:
372,243,23956,1,2,0:0:0:0:
427,373,24106,1,2,0:0:0:0:
382,229,24256,2,0,L|374:304,1,72,10|0,0:0|0:0,0:0:0:0:
280,90,24556,6,0,L|355:82,1,72,10|0,0:0|1:0,0:0:0:0:
197,138,24856,1,2,1:2:0:0:
197,138,25006,2,0,P|187:67|223:7,2,144,8|0|8,0:0|1:0|0:0,0:0:0:0:
283,196,25756,1,2,0:0:0:0:
283,196,25906,2,0,L|358:188,1,72,2|0,0:0|0:0,0:0:0:0:
438,82,26206,6,0,P|444:126|438:159,1,72,10|0,0:0|0:0,0:0:0:0:
375,278,26506,1,2,0:0:0:0:
327,103,26656,1,10,0:0:0:0:
360,267,26806,1,2,0:0:0:0:
231,127,26956,1,10,0:0:0:0:
277,347,27106,6,0,P|216:310|146:320,1,144,0|8,1:0|0:0,0:0:0:0:
69,278,27556,1,2,0:0:0:0:
69,278,27706,2,0,B|63:226|63:226|75:188|75:188|70:137,1,144,2|8,0:0|0:0,0:0:0:0:
112,58,28156,1,2,0:0:0:0:
207,155,28306,6,0,B|283:136|274:177|349:165,1,144,2|8,0:0|0:0,0:0:0:0:
427,305,28756,1,2,0:0:0:0:
303,258,28906,1,2,0:0:0:0:
439,141,29056,2,0,L|431:216,1,72,10|0,0:0|0:0,0:0:0:0:
294,348,29356,6,0,P|299:312|294:276,1,72,10|0,0:0|1:0,0:0:0:0:
133,277,29656,1,2,1:2:0:0:
133,277,29806,2,0,B|109:306|109:306|161:338|212:312,2,144,8|0|8,0:0|1:0|0:0,0:0:0:0:
152,192,30556,1,2,0:0:0:0:
210,312,30706,5,2,0:0:0:0:
232,155,30856,1,2,1:2:0:0:
121,280,31006,1,10,0:0:0:0:
100,42,31156,5,8,0:0:0:0:
100,42,31231,1,8,0:0:0:0:
100,42,31306,1,10,1:2:0:0:
278,236,31456,1,8,0:0:0:0:
18,160,31606,1,8,0:0:0:0:
287,89,31756,1,10,0:0:0:0:
121,280,31906,6,0,L|113:205,1,72,0|0,1:0|1:0,0:0:0:0:
224,361,32206,1,12,0:0:0:0:
288,218,32356,1,2,0:0:0:0:
211,375,32506,2,0,P|146:333|64:344,1,161.999995056153,2|8,0:0|0:0,0:0:0:0:
185,199,32956,1,2,0:0:0:0:
309,330,33106,6,0,B|367:323|367:323|408:340|408:340|467:334,1,161.999995056153,2|8,0:0|0:0,0:0:0:0:
278,236,33556,1,2,0:0:0:0:
446,172,33706,1,2,0:0:0:0:
257,65,33856,2,0,L|265:148,1,80.9999975280763,10|0,0:0|0:0,0:0:0:0:
437,297,34156,6,0,P|405:271|367:257,1,80.9999975280763,10|0,0:0|1:0,0:0:0:0:
196,370,34456,1,2,1:2:0:0:
196,370,34606,2,0,L|357:353,2,161.999995056153,8|0|8,0:0|1:0|0:0,0:0:0:0:
43,217,35356,1,2,0:0:0:0:
198,275,35506,5,2,0:0:0:0:
198,275,35656,1,2,0:0:0:0:
105,380,35806,2,0,L|113:297,1,80.9999975280763,10|0,0:0|0:0,0:0:0:0:
257,115,36106,1,2,0:0:0:0:
198,275,36256,1,10,0:0:0:0:
173,50,36406,1,2,0:0:0:0:
270,219,36556,1,10,0:0:0:0:
360,17,36706,6,0,L|352:97,1,80.9999975280763,0|0,1:0|1:0,0:0:0:0:
355,190,37006,1,8,0:0:0:0:
257,115,37156,1,2,0:0:0:0:
300,320,37306,2,0,P|365:278|447:289,1,161.999995056153,2|8,0:0|0:0,0:0:0:0:
351,97,37756,1,2,0:0:0:0:
217,281,37906,6,0,B|174:283|134:253|134:253|100:281|60:284,1,161.999995056153,2|8,0:0|0:0,0:0:0:0:
61,66,38356,1,2,0:0:0:0:
207,190,38506,1,6,0:3:0:0:
3,148,38656,1,2,1:2:0:0:
3,148,38731,1,0,1:0:0:0:
3,148,38806,1,8,0:0:0:0:
231,8,38956,6,0,L|220:103,1,90,6|0,1:2|0:0,0:0:0:0:
248,352,39256,1,2,1:2:0:0:
378,126,39406,1,10,0:0:0:0:
134,244,39556,1,2,1:2:0:0:
440,333,39706,1,6,1:3:0:0:
148,229,39856,1,2,1:2:0:0:
458,171,40006,1,8,0:0:0:0:
235,367,40156,6,0,B|190:378|190:378|146:365,1,90,6|0,1:2|0:0,0:0:0:0:
154,63,40456,1,2,1:2:0:0:
318,298,40606,1,10,0:0:0:0:
30,209,40756,1,2,0:0:0:0:
318,121,40906,1,2,1:2:0:0:
148,365,41056,1,10,0:0:0:0:
148,365,41131,1,8,0:0:0:0:
148,365,41206,1,8,0:0:0:0:
154,63,41356,2,0,L|159:110,1,45,8|8,0:0|0:0,0:0:0:0:
318,298,41506,6,0,L|393:290,1,72,4|0,1:2|1:0,0:0:0:0:
497,192,41806,2,0,B|443:180|390:197|390:197|371:150|318:121|318:121|296:144|260:168,2,288,10|10|10,0:0|0:0|0:0,0:0:0:0:
436,97,43156,1,2,0:0:0:0:
314,247,43306,1,2,0:0:0:0:
314,247,43456,2,0,P|310:283|315:319,1,72,8|0,0:0|0:0,0:0:0:0:
261,166,43756,1,10,0:0:0:0:
184,252,43906,5,0,1:0:0:0:
184,252,44056,1,0,1:0:0:0:
62,138,44206,2,0,B|69:213|69:213|92:241|92:241|87:277|99:317|99:317|71:267|25:248,2,288,10|10|10,0:0|0:0|0:0,0:0:0:0:
208,178,45556,1,2,0:0:0:0:
94,48,45706,1,2,0:0:0:0:
94,48,45856,2,0,P|58:43|22:49,1,72,10|0,0:0|0:0,0:0:0:0:
62,138,46156,1,10,0:0:0:0:
180,5,46306,5,0,1:0:0:0:
180,5,46456,1,0,1:0:0:0:
208,178,46606,2,0,B|299:157|373:225|373:225|404:178|473:169,2,288,10|10|10,0:0|0:0|0:0,0:0:0:0:
397,25,48106,1,2,0:0:0:0:
397,25,48256,2,0,L|472:17,1,72,10|0,0:0|0:0,0:0:0:0:
368,114,48556,1,10,0:0:0:0:
252,71,48706,5,0,1:0:0:0:
252,71,48856,1,0,1:0:0:0:
323,208,49006,2,0,P|327:243|322:279,1,72,10|0,0:0|0:0,0:0:0:0:
176,277,49306,2,0,P|204:255|237:241,1,72,2|0,0:0|0:0,0:0:0:0:
360,376,49606,1,10,0:0:0:0:
360,376,49756,6,0,L|208:360,1,144,2|2,0:0|0:0,0:0:0:0:
104,284,50206,1,10,0:0:0:0:
104,284,50356,2,0,L|179:276,1,72,2|0,0:0|0:0,0:0:0:0:
328,280,50656,1,8,0:0:0:0:
216,360,50806,1,2,0:0:0:0:
338,269,50956,1,10,0:0:0:0:
122,189,51106,5,0,1:0:0:0:
226,370,51256,1,0,1:0:0:0:
316,181,51406,2,0,B|374:174|374:174|415:191|415:191|474:185,1,161.999995056153,10|0,0:0|0:0,0:0:0:0:
512,97,51856,1,2,0:0:0:0:
512,97,52006,2,0,P|447:55|365:66,1,161.999995056153,10|0,0:0|0:0,0:0:0:0:
316,181,52456,1,2,0:0:0:0:
203,19,52606,5,10,0:0:0:0:
352,78,52756,1,2,0:0:0:0:
158,121,52906,1,2,0:0:0:0:
326,192,53056,2,0,L|409:183,1,80.9999975280763,10|0,0:0|0:0,0:0:0:0:
278,278,53356,1,10,0:0:0:0:
165,110,53506,5,0,1:0:0:0:
125,320,53656,1,0,1:0:0:0:
57,127,53806,2,0,B|67:242|67:242|27:197,1,161.999995056153,10|0,0:0|0:0,0:0:0:0:
19,40,54256,1,2,0:0:0:0:
19,40,54406,2,0,B|107:17|94:70|177:53,1,161.999995056153,10|0,0:0|0:0,0:0:0:0:
350,126,54856,1,2,0:0:0:0:
257,0,55006,5,10,0:0:0:0:
203,188,55156,1,2,0:0:0:0:
350,25,55306,1,2,0:0:0:0:
323,218,55456,2,0,L|314:301,1,80.9999975280763,10|0,0:0|0:0,0:0:0:0:
112,158,55756,6,0,P|162:102|268:118,1,180,6|0,1:2|3:0,0:0:0:0:
399,302,56206,1,2,1:2:0:0:
203,188,56356,1,8,0:0:0:0:
459,144,56506,1,8,0:0:0:0:
256,347,56656,1,8,0:0:0:0:
170,43,56806,1,10,0:0:0:0:
492,266,56956,6,0,B|425:258|425:258|383:279|383:279|318:272,1,180,4|2,1:2|1:2,0:0:0:0:
34,149,57406,1,10,0:0:0:0:
309,99,57556,1,10,0:0:0:0:
15,138,57706,1,10,0:0:0:0:
317,271,57856,1,10,0:0:0:0:
164,15,58006,1,0,1:0:0:0:
23,322,58156,6,0,B|86:353|146:315|146:315|101:285,1,180,14|8,0:0|0:0,0:0:0:0:
136,104,60406,6,0,B|168:116|168:116|200:98|244:107,1,108,2|0,0:0|0:0,0:0:0:0:
322,155,60706,6,0,L|421:144,1,99.0000030212403,6|0,1:2|0:0,0:0:0:0:
199,317,61006,2,0,L|99:306,1,99.0000030212403,10|0,0:0|0:0,0:0:0:0:
239,9,61306,2,0,P|229:57|239:106,1,99.0000030212403,2|0,1:2|0:0,0:0:0:0:
347,306,61606,1,10,0:0:0:0:
421,46,61756,6,0,L|322:56,1,99.0000030212403,2|0,0:0|1:0,0:0:0:0:
113,200,62056,2,0,L|211:210,1,99.0000030212403,2|8,0:0|0:0,0:0:0:0:
432,273,62356,1,2,0:0:0:0:
222,116,62506,1,2,1:2:0:0:
281,379,62656,1,2,0:0:0:0:
450,181,62806,1,10,0:0:0:0:
144,286,62956,1,2,0:0:0:0:
432,369,63106,6,0,P|441:321|432:273,1,99.0000030212403,0|0,1:0|0:0,0:0:0:0:
240,100,63406,2,0,B|223:230|223:230|269:183,1,198.000006042481,10|0,0:0|1:0,0:0:0:0:
163,41,63856,2,0,L|64:30,1,99.0000030212403,2|8,0:0|0:0,0:0:0:0:
269,183,64156,1,2,0:0:0:0:
45,122,64306,5,2,1:2:0:0:
280,194,64456,2,0,L|378:183,1,99.0000030212403,2|8,0:0|0:0,0:0:0:0:
163,41,64756,2,0,P|153:89|162:137,1,99.0000030212403,2|0,0:0|1:0,0:0:0:0:
325,290,65056,1,2,0:0:0:0:
14,231,65206,2,0,B|114:216|114:216|161:237,1,148.50000453186,10|0,0:0|0:0,0:0:0:0:
233,285,65506,6,0,L|222:383,1,99.0000030212403,6|0,1:2|0:0,0:0:0:0:
32,134,65806,2,0,L|21:35,1,99.0000030212403,10|0,0:0|0:0,0:0:0:0:
272,180,66106,1,2,1:2:0:0:
0,242,66256,1,0,1:0:0:0:
167,13,66406,1,10,0:0:0:0:
233,285,66556,6,0,P|290:318|371:308,1,148.50000453186,6|0,1:2|0:0,0:0:0:0:
414,229,66856,2,0,L|512:218,1,99.0000030212403,6|8,1:2|0:0,0:0:0:0:
165,147,67156,1,6,1:2:0:0:
369,308,67306,1,2,0:0:0:0:
68,344,67456,1,2,1:2:0:0:
354,298,67606,1,10,0:0:0:0:
69,158,67756,1,2,0:0:0:0:
261,384,67906,6,0,P|269:335|260:287,1,99.0000030212403,4|0,1:2|0:0,0:0:0:0:
21,76,68206,2,0,B|-7:144|34:207|34:207|69:158,1,198.000006042481,10|0,0:0|1:0,0:0:0:0:
287,39,68656,2,0,B|179:61|204:-7|94:22,1,198.000006042481,2|0,0:0|0:0,0:0:0:0:
323,225,69106,6,0,L|421:214,1,99.0000030212403,2|0,1:2|0:0,0:0:0:0:
374,1,69406,1,10,0:0:0:0:
241,177,69556,2,0,P|231:225|240:273,1,99.0000030212403,2|0,0:0|1:0,0:0:0:0:
506,258,69856,1,8,0:0:0:0:
506,258,69931,1,8,0:0:0:0:
506,258,70006,2,0,L|456:252,1,49.5000015106202,10|8,0:0|0:0,0:0:0:0:
288,96,70156,2,0,L|337:90,1,49.5000015106202,8|8,0:0|0:0,0:0:0:0:
451,362,70306,6,0,P|393:328|312:338,1,148.50000453186,6|0,1:2|0:0,0:0:0:0:
227,382,70606,2,0,L|216:283,1,99.0000030212403,12|0,0:0|0:0,0:0:0:0:
440,99,70906,2,0,L|429:197,1,99.0000030212403,2|0,1:2|0:0,0:0:0:0:
216,283,71206,1,10,0:0:0:0:
356,48,71356,6,0,P|393:15|439:0,1,99.0000030212403,2|0,0:0|1:0,0:0:0:0:
146,224,71656,2,0,L|47:213,1,99.0000030212403,2|8,0:0|0:0,0:0:0:0:
261,38,71956,1,2,0:0:0:0:
312,300,72106,1,2,1:2:0:0:
181,90,72256,1,2,0:0:0:0:
99,367,72406,1,10,0:0:0:0:
267,139,72556,1,2,0:0:0:0:
365,384,72706,6,0,L|463:373,1,99.0000030212403,0|0,1:0|0:0,0:0:0:0:
240,241,73006,2,0,B|166:232|166:232|120:255|120:255|48:247,1,198.000006042481,10|0,0:0|1:0,0:0:0:0:
90,61,73456,2,0,L|101:159,1,99.0000030212403,2|8,0:0|0:0,0:0:0:0:
184,328,73756,1,2,0:0:0:0:
300,171,73906,6,0,P|310:123|300:75,1,99.0000030212403,2|0,1:2|1:0,0:0:0:0:
121,263,74206,1,8,0:0:0:0:
288,381,74356,1,10,0:0:0:0:
288,381,74431,1,8,0:0:0:0:
288,381,74506,1,8,0:0:0:0:
196,143,74656,1,0,1:0:0:0:
82,354,74806,1,6,0:3:0:0:
321,290,74956,1,8,0:3:0:0:
62,203,75106,5,6,1:2:0:0:
62,203,75256,2,0,P|132:254|217:233,1,180,0|2,1:0|1:2,3:0:0:0:
139,43,75706,2,0,B|151:166|151:166|114:121,1,180,10|0,0:0|0:0,0:0:0:0:
229,37,76156,1,2,1:2:0:0:
315,193,76306,5,6,1:2:0:0:
408,56,76456,2,0,P|449:49|496:56,1,90,0|0,1:0|0:0,0:0:0:0:
405,222,76756,1,2,1:2:0:0:
324,98,76906,2,0,P|317:57|324:10,1,90,10|0,0:0|0:0,0:0:0:0:
496,56,77206,1,2,0:0:0:0:
315,193,77356,6,0,L|220:182,1,90,2|0,1:2|0:0,0:0:0:0:
421,314,77656,2,0,L|516:303,1,90,2|0,1:2|0:0,0:0:0:0:
283,284,77956,1,2,1:2:0:0:
415,132,78106,2,0,L|405:222,1,90,10|0,0:0|0:0,0:0:0:0:
294,377,78406,1,2,0:0:0:0:
217,142,78556,6,0,P|176:135|129:142,1,90,2|0,1:2|0:0,0:0:0:0:
204,364,78856,1,2,1:2:0:0:
309,149,79006,5,8,0:0:0:0:
54,270,79156,1,2,1:2:0:0:
373,217,79306,5,10,0:0:0:0:
76,48,79456,1,2,1:2:0:0:
76,48,79531,1,0,1:0:0:0:
76,48,79606,2,0,B|92:88|92:88|69:129|80:184,1,135,8|0,0:0|0:0,0:0:0:0:
139,244,79906,6,0,L|222:236,1,80.9999975280763,0|0,1:0|1:0,0:0:0:0:
365,311,80206,2,0,L|282:303,1,80.9999975280763,10|0,0:0|0:0,0:0:0:0:
190,145,80506,2,0,L|273:137,1,80.9999975280763,2|0,0:0|0:0,0:0:0:0:
448,98,80806,1,10,0:0:0:0:
392,19,80956,6,0,P|366:51|352:89,1,80.9999975280763,2|0,0:0|0:0,0:0:0:0:
461,253,81256,2,0,P|396:209|314:222,1,161.999995056153,2|0,0:0|0:0,0:0:0:0:
213,371,81706,5,2,0:0:0:0:
116,234,81856,1,8,0:0:0:0:
226,384,82006,1,2,0:0:0:0:
55,300,82156,1,8,0:0:0:0:
230,198,82306,6,0,L|222:281,1,80.9999975280763,2|2,1:2|1:2,0:0:0:0:
153,147,82606,2,0,L|145:64,1,80.9999975280763,10|0,0:0|0:0,0:0:0:0:
322,102,82906,2,0,P|281:108|241:101,1,80.9999975280763,2|0,0:0|0:0,0:0:0:0:
285,11,83206,1,10,0:0:0:0:
389,168,83356,6,0,L|472:160,1,80.9999975280763,2|0,0:0|0:0,0:0:0:0:
264,253,83656,2,0,L|181:245,1,80.9999975280763,2|8,1:2|0:0,0:0:0:0:
326,322,83956,1,0,1:0:0:0:
284,164,84106,1,8,0:0:0:0:
249,160,84181,1,8,0:0:0:0:
216,156,84256,1,10,0:0:0:0:
183,152,84331,1,8,0:0:0:0:
149,149,84406,2,0,L|107:145,3,40.4999987640381,0|0|0|0,1:0|1:0|1:0|1:0,0:0:0:0:
0,257,84706,5,12,0:0:0:0:
284,164,84856,1,0,1:0:0:0:
16,20,85006,1,2,1:2:0:0:
318,273,85156,5,12,0:0:0:0:
141,41,85306,1,2,1:2:0:0:
67,327,85456,1,0,1:0:0:0:
381,199,85606,5,14,0:0:0:0:
100,140,85756,1,2,1:2:0:0:
412,298,85906,1,0,1:0:0:0:
52,338,86056,5,14,0:0:0:0:
366,214,86206,1,0,1:0:0:0:
87,129,86356,1,0,1:0:0:0:
266,383,86506,5,12,0:0:0:0:
370,85,86656,1,0,1:0:0:0:
174,356,86806,5,12,0:0:0:0:
116,22,86956,1,0,1:0:0:0:
349,328,87106,5,12,0:0:0:0:
381,345,87181,1,0,1:0:0:0:
418,351,87256,1,0,1:0:0:0:
454,347,87331,1,0,1:0:0:0:
488,332,87406,2,0,L|493:282,3,49.5000015106202,2|0|8|0,1:2|1:0|0:0|1:0,0:0:0:0:
360,164,87706,5,2,1:2:0:0:
360,164,87781,1,0,1:0:0:0:
360,164,87856,2,0,L|365:213,1,49.5000015106202,0|0,1:0|1:0,0:0:0:0:
174,356,88006,5,14,0:0:0:0:
326,33,88156,1,2,1:2:0:0:
