osu file format v14

[General]
AudioFilename: audio.mp3
AudioLeadIn: 0
PreviewTime: 58531
Countdown: 0
SampleSet: Soft
StackLeniency: 0.4
Mode: 0
LetterboxInBreaks: 0
WidescreenStoryboard: 0

[Editor]
DistanceSpacing: 1.4
BeatDivisor: 4
GridSize: 8
TimelineZoom: 1.6

[Metadata]
Title:SABLE (TV Size)
TitleUnicode:SABLE (TV Size)
Artist:nano
ArtistUnicode:ナノ
Creator:Nelliel
Version:SAVIOUR
Source:M3~ソノ黒キ鋼~
Tags:M3: Sono Kuroki Hagane M3 The Dark Metal Ending ed jrock rock japanese grindle english anime
BeatmapID:2535608
BeatmapSetID:1218665

[Difficulty]
HPDrainRate:5.4
CircleSize:4
OverallDifficulty:9
ApproachRate:9.3
SliderMultiplier:1.8
SliderTickRate:1

[Events]
//Background and Video events
0,0,"bg.jpg",0,0
//Break Periods
//Storyboard Layer 0 (Background)
//Storyboard Layer 1 (Fail)
//Storyboard Layer 2 (Pass)
//Storyboard Layer 3 (Foreground)
//Storyboard Layer 4 (Overlay)
//Storyboard Sound Samples

[TimingPoints]
706,300,4,2,1,60,1,0
706,-142.857142857143,4,2,1,60,0,0
10006,-200,4,2,1,60,0,0
10231,-200,4,2,1,5,0,0
10306,-100,4,1,2,70,0,0
10981,-100,4,1,2,5,0,0
11056,-100,4,1,2,70,0,0
12181,-100,4,1,2,5,0,0
12256,-100,4,1,2,70,0,0
13381,-100,4,1,2,5,0,0
13456,-100,4,1,2,70,0,0
19606,-200,4,1,2,70,0,0
19906,-200,4,2,1,60,0,0
22306,-125,4,2,1,65,0,0
23731,-125,4,2,1,5,0,0
23806,-125,4,2,1,65,0,0
24481,-125,4,2,1,5,0,0
24556,-125,4,2,1,65,0,0
28531,-125,4,2,1,5,0,0
28606,-125,4,2,1,65,0,0
31756,-111.111111111111,4,2,1,65,0,0
32206,-111.111111111111,4,1,2,65,0,0
40831,-111.111111111111,4,1,2,5,0,0
40906,-111.111111111111,4,1,2,65,0,0
41506,-200,4,2,1,60,0,0
51106,-133.333333333333,5,2,1,65,0,0
51406,-133.333333333333,5,1,2,65,0,0
55756,-100,5,1,2,70,0,0
55981,-100,5,1,2,5,0,0
56056,-100,5,1,2,70,0,0
57181,-100,5,1,2,5,0,0
57256,-100,5,1,2,70,0,0
58381,-100,5,1,2,5,0,0
58456,-100,5,1,2,70,0,0
58606,-100,5,2,1,60,0,0
60706,-83.3333333333333,5,1,2,75,0,1
65131,-83.3333333333333,5,1,2,5,0,1
65206,-83.3333333333333,5,1,2,75,0,1
66781,-83.3333333333333,5,1,2,5,0,1
66856,-83.3333333333333,5,1,2,75,0,1
75106,-125,5,2,1,70,0,0
79906,-100,5,1,2,65,0,0
81781,-100,5,1,2,5,0,0
81856,-100,5,1,2,65,0,0
84706,-83.3333333333333,5,1,3,70,0,0
88156,-83.3333333333333,5,2,1,70,0,0

[Colours]
Combo1 : 70,163,255
Combo2 : 255,55,55
Combo3 : 0,204,0
Combo4 : 192,192,192

[HitObjects]
190,282,706,5,2,0:0:0:0:
49,188,856,1,2,0:0:0:0:
239,125,1006,1,2,0:0:0:0:
106,230,1156,2,0,P|92:166|75:94,2,125.999996154785,2|2|2,0:0|0:0|0:0,0:0:0:0:
256,357,2056,1,2,0:0:0:0:
256,357,2206,2,0,P|264:316|275:271,1,62.9999980773926,2|0,0:0|0:0,0:0:0:0:
414,362,2506,2,0,P|383:354|352:348,1,62.9999980773926,2|0,0:0|0:0,0:0:0:0:
416,254,2806,2,0,P|446:247|477:240,1,62.9999980773926,2|0,0:0|0:0,0:0:0:0:
335,171,3106,5,2,0:0:0:0:
487,327,3256,1,2,0:0:0:0:
444,127,3406,1,2,0:0:0:0:
295,259,3556,2,0,P|279:189|263:120,2,125.999996154785,2|2|2,0:0|0:0|0:0,0:0:0:0:
99,244,4456,1,2,0:0:0:0:
99,244,4606,2,0,P|127:221|165:223,1,62.9999980773926,2|0,0:0|0:0,0:0:0:0:
277,330,4906,1,2,0:0:0:0:
346,296,5056,1,2,0:0:0:0:
473,188,5206,1,2,0:0:0:0:
404,154,5356,1,2,0:0:0:0:
441,343,5506,5,2,0:0:0:0:
498,190,5656,1,2,0:0:0:0:
368,371,5806,1,2,0:0:0:0:
311,218,5956,2,0,P|299:171|293:145,1,62.9999980773926,2|0,0:0|0:0,0:0:0:0:
154,226,6256,2,0,P|201:214|227:208,1,62.9999980773926,2|0,0:0|0:0,0:0:0:0:
171,98,6556,2,0,P|140:90|109:82,1,62.9999980773926,2|0,0:0|0:0,0:0:0:0:
255,24,6856,1,2,0:0:0:0:
143,121,7006,2,0,P|112:128|81:136,1,62.9999980773926,2|0,0:0|0:0,0:0:0:0:
58,280,7306,2,0,P|88:287|119:295,1,62.9999980773926,2|0,0:0|0:0,0:0:0:0:
270,174,7606,2,0,P|239:181|208:189,1,62.9999980773926,2|0,0:0|0:0,0:0:0:0:
320,288,7906,5,2,0:0:0:0:
366,147,8056,1,2,0:0:0:0:
448,329,8206,1,2,0:0:0:0:
494,188,8356,2,0,P|501:218|509:249,1,62.9999980773926,2|0,0:0|0:0,0:0:0:0:
363,353,8656,2,0,P|355:322|347:291,1,62.9999980773926,2|0,0:0|0:0,0:0:0:0:
371,91,8956,2,0,P|340:83|309:75,1,62.9999980773926,2|0,0:0|0:0,0:0:0:0:
206,222,9256,1,2,0:0:0:0:
133,193,9406,1,2,0:0:0:0:
58,75,9556,1,2,0:0:0:0:
131,46,9706,1,2,0:0:0:0:
78,209,9856,1,2,0:0:0:0:
205,16,10006,6,0,L|219:97,1,67.5,4|0,3:0|0:0,0:0:0:0:
236,32,10306,6,0,L|252:127,1,90,4|4,0:0|0:3,0:0:0:0:
274,262,10606,1,8,0:0:0:0:
470,153,10756,2,0,B|414:134|414:134|381:224,1,135,2|0,0:0|0:0,0:0:0:0:
381,226,11056,1,2,0:0:0:0:
512,384,11206,1,8,0:0:0:0:
367,311,11356,1,2,0:0:0:0:
511,217,11506,5,2,0:0:0:0:
336,380,11656,1,0,0:0:0:0:
240,210,11806,1,10,0:0:0:0:
415,373,11956,2,0,P|422:319|440:228,1,135,2|0,0:0|0:0,0:0:0:0:
446,217,12256,1,10,0:0:0:0:
234,287,12406,2,0,P|278:295|322:302,1,90,2|8,0:0|0:0,0:0:0:0:
221,164,12706,6,0,P|228:112|238:62,1,90,4|4,0:3|0:3,0:0:0:0:
112,251,13006,1,8,0:0:0:0:
20,46,13156,2,0,P|29:93|43:187,1,135,2|0,0:0|0:0,0:0:0:0:
31,210,13456,1,2,0:0:0:0:
176,75,13606,1,8,0:0:0:0:
31,249,13756,1,2,0:0:0:0:
270,289,13906,5,2,0:0:0:0:
78,126,14056,1,0,0:0:0:0:
208,334,14206,2,0,P|254:364|300:360,1,90,10|2,0:0|0:0,0:0:0:0:
374,162,14506,1,0,0:0:0:0:
144,261,14656,1,10,0:0:0:0:
392,349,14806,1,2,0:0:0:0:
293,119,14956,1,8,0:0:0:0:
487,309,15106,6,0,L|508:207,1,90,4|4,0:3|0:3,0:0:0:0:
443,87,15406,1,12,0:0:0:0:
284,237,15556,2,0,L|263:135,1,90,2|0,0:0|0:0,0:0:0:0:
428,187,15856,1,2,0:0:0:0:
234,310,16006,2,0,P|185:303|156:264,1,90,8|2,0:0|0:0,0:0:0:0:
309,81,16306,5,2,0:0:0:0:
401,286,16456,1,0,0:0:0:0:
264,141,16606,2,0,P|234:101|241:53,1,90,10|2,0:0|0:0,0:0:0:0:
409,42,16906,1,0,0:0:0:0:
322,284,17056,1,10,0:0:0:0:
115,127,17206,1,2,0:0:0:0:
357,214,17356,1,8,0:0:0:0:
187,358,17506,6,0,L|86:336,1,90,4|4,0:3|0:3,0:0:0:0:
255,194,17806,1,10,0:0:0:0:
402,370,17956,2,0,L|503:348,1,90,2|0,0:0|0:0,0:0:0:0:
366,126,18256,1,2,0:0:0:0:
265,314,18406,1,8,0:0:0:0:
209,195,18556,1,2,0:0:0:0:
374,355,18706,6,0,L|393:267,1,90,2|0,0:0|0:0,0:0:0:0:
151,143,19006,2,0,L|170:230,1,90,10|4,0:0|0:3,0:0:0:0:
431,173,19306,1,6,0:3:0:0:
431,128,19381,1,4,0:3:0:0:
408,90,19456,1,4,0:3:0:0:
367,72,19531,1,4,0:3:0:0:
324,78,19606,6,0,L|309:178,1,90,8|2,0:0|0:0,0:0:0:0:
467,73,21856,5,0,3:0:0:0:
467,73,21931,1,0,3:0:0:0:
467,73,22006,1,8,0:0:0:0:
467,73,22306,5,4,3:1:0:0:
431,148,22456,1,0,3:0:0:0:
341,85,22606,2,0,B|295:76|269:107|280:117|257:146|213:146,1,144,8|2,0:0|0:3,0:0:0:0:
145,98,23056,1,2,0:0:0:0:
49,205,23206,2,0,P|60:260|65:290,1,72,8|2,0:0|0:0,0:0:0:0:
129,331,23506,2,0,P|161:300|227:302,1,108,2|0,0:3|0:0,0:0:0:0:
255,326,23806,2,0,P|286:353|328:350,1,72,8|2,0:0|0:0,0:0:0:0:
376,293,24106,1,2,0:3:0:0:
307,176,24256,2,0,L|328:52,1,108,10|0,0:0|0:0,0:0:0:0:
332,26,24556,1,10,0:0:0:0:
209,45,24706,6,0,L|221:115,1,72,0|0,3:0|3:0,0:0:0:0:
313,261,25006,2,0,B|344:267|368:271|368:271|380:230|399:181,1,144,8|2,0:0|0:3,0:0:0:0:
479,83,25456,1,2,0:0:0:0:
308,174,25606,2,0,P|266:198|225:190,1,72,8|2,0:0|0:0,0:0:0:0:
126,91,25906,2,0,P|154:70|190:67,1,72,2|2,0:3|0:0,0:0:0:0:
114,210,26206,2,0,B|82:216|59:220|59:220|47:179|28:130,1,144,8|2,0:0|0:3,0:0:0:0:
147,10,26656,2,0,P|133:66|128:99,1,72,8|2,0:0|0:3,0:0:0:0:
192,220,26956,1,8,0:0:0:0:
341,133,27106,5,0,3:0:0:0:
261,100,27256,1,0,3:0:0:0:
346,210,27406,2,0,P|395:188|405:88,1,144,8|2,0:0|0:3,0:0:0:0:
356,14,27856,1,2,0:0:0:0:
255,183,28006,2,0,L|269:270,1,72,8|2,0:0|0:0,0:0:0:0:
389,382,28306,2,0,L|409:252,1,108,2|0,0:3|0:0,0:0:0:0:
431,240,28606,2,0,L|419:168,1,72,8|2,0:0|0:0,0:0:0:0:
457,91,28906,1,2,0:3:0:0:
263,222,29056,2,0,P|300:217|334:210,1,72,8|2,0:0|0:3,0:0:0:0:
286,138,29356,1,8,0:0:0:0:
188,259,29506,6,0,P|152:251|116:247,1,72,0|2,3:0|0:3,0:0:0:0:
38,118,29806,2,0,B|93:117|114:85|101:74|119:46|181:46,1,144,8|2,0:0|0:3,0:0:0:0:
236,80,30256,1,2,0:0:0:0:
378,33,30406,2,0,P|360:71|364:121,1,72,8|2,0:0|0:0,0:0:0:0:
385,257,30706,2,0,P|382:292|365:324,1,72,2|0,0:3|3:0,0:0:0:0:
300,268,31006,2,0,L|164:240,1,108,10|8,0:0|0:0,0:0:0:0:
151,238,31306,5,10,0:0:0:0:
321,112,31456,1,8,0:0:0:0:
188,321,31606,1,8,0:0:0:0:
62,151,31756,1,10,0:0:0:0:
263,272,31906,6,0,P|254:232|250:192,1,80.9999975280763,0|0,3:0|3:0,0:0:0:0:
306,17,32206,1,12,0:0:0:0:
306,17,32356,2,0,B|254:19|222:55|256:75|236:116|170:123,1,161.999995056153,2|2,0:2|0:2,0:0:0:0:
71,205,32806,1,8,0:0:0:0:
36,134,32956,1,2,0:2:0:0:
167,242,33106,5,2,0:3:0:0:
234,73,33256,1,2,0:2:0:0:
156,237,33406,1,8,0:0:0:0:
303,126,33556,2,0,B|339:117|362:111|362:111|375:159|396:216,1,161.999995056153,2|8,0:2|0:0,0:0:0:0:
268,363,34006,2,0,P|282:318|296:278,1,80.9999975280763,2|8,0:3|0:0,0:0:0:0:
101,325,34306,5,4,0:3:0:0:
175,354,34456,1,4,0:3:0:0:
53,248,34606,1,8,0:0:0:0:
53,248,34756,2,0,B|108:254|132:213|116:197|150:161|202:170,1,161.999995056153,2|2,0:2|0:2,0:0:0:0:
339,264,35206,1,8,0:0:0:0:
266,303,35356,1,2,0:2:0:0:
407,360,35506,5,2,0:3:0:0:
268,228,35656,1,2,0:2:0:0:
446,167,35806,1,8,0:0:0:0:
324,295,35956,1,0,0:0:0:0:
236,82,36106,1,2,0:3:0:0:
353,214,36256,1,8,0:0:0:0:
414,34,36406,1,2,0:3:0:0:
244,164,36556,1,8,0:0:0:0:
413,266,36706,6,0,P|430:241|430:179,1,80.9999975280763,4|4,0:3|0:3,0:0:0:0:
215,58,37006,1,8,0:0:0:0:
215,58,37156,2,0,B|183:77|163:90|163:90|176:142|184:195,1,161.999995056153,2|2,0:2|0:2,0:0:0:0:
288,315,37606,2,0,P|294:270|301:231,1,80.9999975280763,8|2,0:0|0:2,0:0:0:0:
90,307,37906,5,2,0:3:0:0:
61,235,38056,1,2,0:2:0:0:
191,308,38206,1,8,0:0:0:0:
33,375,38356,1,2,0:2:0:0:
211,344,38506,1,8,0:3:0:0:
18,219,38656,1,4,0:3:0:0:
244,101,38806,1,8,0:0:0:0:
125,383,38956,6,0,P|112:303|95:210,1,161.999995056153,6|4,0:0|0:3,0:0:0:0:
329,210,39406,1,10,0:0:0:0:
118,102,39556,1,4,0:3:0:0:
351,46,39706,1,10,0:3:0:0:
229,176,39856,1,4,0:3:0:0:
318,53,40006,1,8,0:0:0:0:
205,276,40156,6,0,P|135:250|136:143,1,161.999995056153,6|4,0:0|0:3,0:0:0:0:
391,160,40606,2,0,P|374:234|363:297,1,121.499996292114,10|0,0:0|0:0,0:0:0:0:
371,316,40906,1,6,0:3:0:0:
272,137,41056,1,2,0:0:0:0:
272,137,41131,1,8,0:0:0:0:
272,137,41206,1,8,0:0:0:0:
480,254,41356,1,2,0:0:0:0:
480,254,41431,1,8,0:0:0:0:
480,254,41506,5,0,3:0:0:0:
301,368,41656,1,0,3:0:0:0:
232,299,41806,2,0,P|186:305|129:313,1,90,10|2,0:0|0:3,0:0:0:0:
152,132,42256,1,2,0:0:0:0:
152,132,42406,2,0,P|178:177|176:227,1,90,8|2,0:0|0:3,0:0:0:0:
321,322,42856,1,0,0:0:0:0:
321,322,43006,2,0,P|314:277|308:232,1,90,10|2,0:0|0:3,0:0:0:0:
358,164,43456,2,0,P|364:119|370:74,1,90,8|8,0:0|0:0,0:0:0:0:
258,148,43906,5,0,3:0:0:0:
258,148,44056,1,0,3:0:0:0:
184,197,44206,2,0,P|177:152|171:107,1,90,10|2,0:0|0:3,0:0:0:0:
21,185,44656,1,2,0:0:0:0:
21,185,44806,2,0,P|52:155|106:161,1,90,8|2,0:0|0:3,0:0:0:0:
179,297,45256,1,0,0:0:0:0:
179,297,45406,2,0,P|222:298|254:267,1,90,10|2,0:0|0:3,0:0:0:0:
293,201,45856,2,0,P|324:170|368:171,1,90,8|8,0:0|0:0,0:0:0:0:
466,296,46306,5,0,3:0:0:0:
466,296,46456,1,0,3:0:0:0:
412,350,46606,2,0,P|405:305|399:260,1,90,10|2,0:0|0:3,0:0:0:0:
490,112,47056,1,2,0:0:0:0:
490,112,47206,2,0,P|484:156|477:201,1,90,8|2,0:0|0:3,0:0:0:0:
327,255,47656,1,0,0:0:0:0:
327,255,47806,2,0,P|282:249|237:242,1,90,10|2,0:0|0:3,0:0:0:0:
179,192,48256,2,0,P|134:197|89:204,1,90,8|8,0:0|0:0,0:0:0:0:
209,309,48706,5,0,3:0:0:0:
209,309,48856,1,0,3:0:0:0:
266,257,49006,2,0,P|263:234|259:212,1,45,10|0,0:0|0:0,0:0:0:0:
344,283,49306,2,0,P|340:305|337:327,1,45,2|2,0:3|0:0,0:0:0:0:
431,238,49606,1,8,0:0:0:0:
431,238,49756,2,0,P|424:191|417:144,1,90,2|2,0:0|0:0,0:0:0:0:
481,50,50206,1,8,0:0:0:0:
332,135,50356,2,0,P|309:131|287:128,1,45,2|2,0:0|0:3,0:0:0:0:
157,49,50656,1,8,0:0:0:0:
239,204,50806,1,2,0:3:0:0:
284,103,50956,1,8,0:0:0:0:
127,243,51106,5,0,3:0:0:0:
82,142,51256,1,0,3:0:0:0:
210,286,51406,2,0,B|251:291|279:261|266:247|294:223|331:225,1,135.000005149842,12|2,0:0|0:3,0:0:0:0:
385,326,51856,1,2,0:2:0:0:
468,158,52006,2,0,B|493:179|514:195|514:195|498:233|484:273,1,135.000005149842,8|2,0:0|0:3,0:0:0:0:
430,374,52456,1,0,0:0:0:0:
347,238,52606,5,8,0:0:0:0:
503,345,52756,1,2,0:2:0:0:
278,303,52906,1,2,0:0:0:0:
434,196,53056,1,10,0:0:0:0:
333,375,53206,1,2,0:2:0:0:
353,144,53356,1,10,0:0:0:0:
197,343,53506,1,4,0:3:0:0:
255,228,53656,1,4,0:3:0:0:
66,333,53806,6,0,P|56:274|38:192,1,135.000005149842,8|2,0:0|0:3,0:0:0:0:
150,100,54256,1,2,0:2:0:0:
228,228,54406,2,0,P|162:242|95:253,1,135.000005149842,8|2,0:0|0:3,0:0:0:0:
189,131,54856,1,0,0:0:0:0:
299,264,55006,1,8,0:0:0:0:
140,359,55156,1,2,0:2:0:0:
368,314,55306,1,2,0:3:0:0:
209,219,55456,1,10,0:0:0:0:
314,384,55606,1,0,0:0:0:0:
409,225,55756,6,0,B|435:190|435:190|410:92,1,135,6|0,1:0|0:0,0:0:0:0:
401,77,56056,1,0,0:0:0:0:
211,24,56206,1,10,0:0:0:0:
350,172,56356,1,8,0:0:0:0:
160,225,56506,1,8,0:0:0:0:
313,19,56656,1,8,0:0:0:0:
162,249,56806,1,10,0:0:0:0:
317,95,56956,6,0,B|271:76|241:105|251:121|229:143|181:142,1,135,4|0,0:0|0:0,0:0:0:0:
171,120,57256,1,0,0:0:0:0:
295,248,57406,1,10,0:0:0:0:
115,298,57556,1,8,0:0:0:0:
303,167,57706,1,10,0:0:0:0:
48,47,57856,2,0,P|43:99|36:150,1,90,8|0,0:0|0:0,0:0:0:0:
198,301,58156,6,0,P|204:234|212:167,1,135,10|0,0:0|0:0,0:0:0:0:
194,142,58456,1,8,0:0:0:0:
391,337,60406,5,2,0:0:0:0:
391,337,60706,6,0,P|401:281|413:226,1,107.999996704102,4|0,0:0|0:0,0:0:0:0:
225,65,61006,2,0,P|236:117|245:170,1,107.999996704102,10|0,0:0|0:0,0:0:0:0:
449,72,61306,2,0,P|396:83|343:92,1,107.999996704102,4|0,0:3|0:0,0:0:0:0:
143,20,61606,1,10,0:0:0:0:
234,212,61756,1,2,0:0:0:0:
234,212,61906,6,0,P|245:159|255:106,1,107.999996704102,4|2,0:3|0:0,0:0:0:0:
125,290,62206,2,0,P|115:236|104:184,1,107.999996704102,8|2,0:0|0:0,0:0:0:0:
299,268,62506,1,4,0:3:0:0:
105,378,62656,1,2,0:0:0:0:
348,322,62806,1,10,0:0:0:0:
154,212,62956,1,2,0:0:0:0:
410,254,63106,6,0,P|437:310|430:366,1,107.999996704102,4|0,0:3|0:0,0:0:0:0:
254,259,63406,2,0,B|216:232|185:212|185:212|201:153|226:67,1,215.999993408203,10|4,0:0|0:3,0:0:0:0:
412,29,63856,1,2,0:0:0:0:
345,290,64006,2,0,P|335:236|324:184,1,107.999996704102,8|2,0:0|0:0,0:0:0:0:
457,98,64306,5,4,0:3:0:0:
214,176,64456,2,0,P|225:123|234:70,1,107.999996704102,2|8,0:0|0:0,0:0:0:0:
73,122,64756,1,2,0:0:0:0:
73,122,64906,2,0,B|34:157|34:157|64:283,1,161.999995056153,4|0,0:3|0:0,0:0:0:0:
88,278,65206,2,0,P|78:331|67:384,1,107.999996704102,10|0,0:0|0:0,0:0:0:0:
284,297,65506,6,0,P|247:255|180:256,1,107.999996704102,4|0,0:0|0:0,0:0:0:0:
326,78,65806,2,0,P|293:119|241:128,1,107.999996704102,10|0,0:0|0:0,0:0:0:0:
436,256,66106,2,0,P|446:203|456:149,1,107.999996704102,4|4,0:3|0:3,0:0:0:0:
512,81,66406,1,8,0:0:0:0:
395,339,66556,6,0,P|354:291|389:175,1,161.999995056153,6|0,0:0|0:0,0:0:0:0:
380,186,66856,1,6,0:3:0:0:
510,335,67006,1,8,0:0:0:0:
396,85,67156,1,4,0:0:0:0:
266,234,67306,1,2,0:0:0:0:
491,108,67456,1,4,0:3:0:0:
237,58,67606,1,10,0:0:0:0:
462,184,67756,6,0,B|392:184|366:229|398:260|364:319|284:302,1,215.999993408203,2|0,0:0|0:0,0:0:0:0:
123,229,68206,2,0,P|106:162|96:109,1,107.999996704102,10|0,0:0|0:0,0:0:0:0:
238,11,68506,1,4,0:3:0:0:
204,309,68656,2,0,P|221:242|231:189,1,107.999996704102,2|8,0:0|0:0,0:0:0:0:
109,34,68956,1,2,0:0:0:0:
302,158,69106,6,0,P|274:120|194:120,1,107.999996704102,4|0,0:3|0:0,0:0:0:0:
343,342,69406,1,8,0:0:0:0:
468,186,69556,2,0,P|475:139|418:82,1,107.999996704102,2|4,0:0|0:3,0:0:0:0:
220,210,69856,2,0,L|157:222,2,53.9999983520508,4|8|10,0:3|0:0|0:0,0:0:0:0:
424,300,70156,1,4,0:3:0:0:
424,300,70231,1,8,0:0:0:0:
424,300,70306,6,0,P|368:288|287:274,1,107.999996704102,4|0,0:0|0:0,0:0:0:0:
99,360,70606,2,0,P|152:350|204:339,1,107.999996704102,14|0,0:0|0:0,0:0:0:0:
263,91,70906,2,0,P|252:143|242:196,1,107.999996704102,4|0,0:3|0:0,0:0:0:0:
162,23,71206,1,10,0:0:0:0:
330,180,71356,1,2,0:0:0:0:
330,180,71506,6,0,P|381:161|392:89,1,107.999996704102,4|2,0:3|0:0,0:0:0:0:
152,124,71806,2,0,P|162:176|172:229,1,107.999996704102,8|2,0:0|0:0,0:0:0:0:
269,38,72106,1,4,0:3:0:0:
41,108,72256,1,2,0:0:0:0:
310,253,72406,1,10,0:0:0:0:
82,183,72556,1,2,0:0:0:0:
349,328,72706,6,0,P|358:274|369:222,1,107.999996704102,4|0,0:3|0:0,0:0:0:0:
187,332,73006,2,0,P|118:322|112:197,1,215.999993408203,10|4,0:0|0:3,0:0:0:0:
259,108,73456,1,2,0:0:0:0:
276,356,73606,2,0,P|266:302|255:250,1,107.999996704102,8|2,0:0|0:0,0:0:0:0:
439,101,73906,5,4,0:3:0:0:
494,336,74056,1,4,0:3:0:0:
277,184,74206,1,8,0:0:0:0:
512,129,74356,1,2,0:0:0:0:
512,129,74431,1,8,0:0:0:0:
512,129,74506,1,8,0:0:0:0:
351,232,74656,1,8,0:3:0:0:
487,292,74806,1,8,0:3:0:0:
388,205,74956,1,4,0:3:0:0:
354,334,75106,5,4,3:1:0:0:
354,334,75256,2,0,P|318:285|223:302,1,144,0|2,3:0|3:2,0:0:0:0:
95,384,75706,2,0,P|82:315|66:233,1,144,8|2,0:0|0:3,0:0:0:0:
133,134,76156,1,2,0:0:0:0:
27,233,76306,5,2,0:3:0:0:
27,233,76456,2,0,P|40:164|56:82,1,144,0|2,3:0|3:2,0:0:0:0:
247,232,76906,2,0,P|290:199|269:105,1,144,8|2,0:0|0:3,0:0:0:0:
167,313,77356,6,0,L|240:326,1,72,4|2,3:1|0:3,0:0:0:0:
379,372,77656,2,0,L|308:384,1,72,2|2,3:2|0:3,0:0:0:0:
403,254,77956,1,2,3:2:0:0:
253,131,78106,2,0,B|222:152|205:163|205:163|222:201|236:243,1,144,10|2,0:0|0:3,0:0:0:0:
378,169,78556,6,0,P|393:140|388:85,1,72,4|0,3:1|0:0,0:0:0:0:
313,11,78856,1,2,3:2:0:0:
161,124,79006,1,8,0:0:0:0:
352,22,79156,1,0,3:0:0:0:
118,62,79306,1,10,0:0:0:0:
309,164,79456,1,2,3:2:0:0:
309,164,79531,1,0,3:0:0:0:
309,164,79606,1,8,0:0:0:0:
309,164,79906,5,4,0:0:0:0:
102,292,80056,1,4,0:3:0:0:
360,254,80206,2,0,P|298:232|269:225,1,90,8|2,0:0|0:2,0:0:0:0:
388,96,80506,2,0,P|431:84|473:68,1,90,2|2,0:3|0:2,0:0:0:0:
267,16,80806,1,8,0:0:0:0:
419,171,80956,1,2,0:2:0:0:
207,100,81106,5,2,0:3:0:0:
359,19,81256,1,2,0:2:0:0:
136,42,81406,1,8,0:0:0:0:
318,139,81556,2,0,B|349:161|370:170|370:170|355:220|341:280,1,135,2|0,0:2|0:0,0:0:0:0:
342,270,81856,1,8,0:0:0:0:
451,178,82006,1,2,0:3:0:0:
347,371,82156,1,8,0:0:0:0:
210,211,82306,5,4,0:3:0:0:
403,315,82456,1,4,0:3:0:0:
140,270,82606,2,0,P|120:221|129:176,1,90,8|2,0:0|0:2,0:0:0:0:
330,71,82906,2,0,P|333:115|314:155,1,90,2|2,0:3|0:2,0:0:0:0:
135,86,83206,1,8,0:0:0:0:
377,217,83356,6,0,P|343:246|299:254,1,90,2|2,0:2|0:3,0:0:0:0:
229,38,83656,1,4,0:3:0:0:
415,110,83806,1,8,0:0:0:0:
203,219,83956,1,4,0:3:0:0:
335,381,84106,6,0,L|322:337,1,45,8|8,0:0|0:0,0:0:0:0:
292,130,84256,2,0,L|307:184,1,45,8|8,0:3|0:3,0:0:0:0:
438,347,84406,2,0,L|450:303,1,45,4|4,0:3|0:3,0:0:0:0:
468,132,84556,2,0,L|455:175,1,45,4|4,0:3|0:3,0:0:0:0:
209,299,84706,5,12,0:0:0:0:
399,86,84856,1,4,0:3:0:0:
120,28,85006,1,6,0:3:0:0:
371,298,85156,5,12,0:0:0:0:
281,26,85306,1,6,0:3:0:0:
91,239,85456,1,4,0:3:0:0:
450,168,85606,5,14,0:0:0:0:
169,109,85756,1,6,0:3:0:0:
258,380,85906,1,4,0:3:0:0:
375,22,86056,5,14,0:0:0:0:
183,235,86206,1,4,0:3:0:0:
462,294,86356,1,4,0:3:0:0:
108,41,86506,5,12,0:0:0:0:
196,313,86656,1,4,0:3:0:0:
314,65,86806,5,12,0:0:0:0:
226,337,86956,1,4,0:3:0:0:
455,152,87106,6,0,L|398:134,1,53.9999983520508,8|0,0:0|0:0,0:0:0:0:
169,228,87256,2,0,L|226:210,1,53.9999983520508,8|8,0:3|0:3,0:0:0:0:
374,30,87406,2,0,L|322:46,1,53.9999983520508,10|4,0:3|0:3,0:0:0:0:
85,282,87556,2,0,L|136:298,1,53.9999983520508,12|0,0:0|0:0,0:0:0:0:
225,44,87706,1,10,0:3:0:0:
176,21,87781,1,8,0:3:0:0:
123,25,87856,1,8,0:3:0:0:
78,54,87931,1,4,0:3:0:0:
53,102,88006,2,0,L|62:158,1,53.9999983520508,14|0,0:0|0:0,0:0:0:0:
85,282,88156,5,2,3:2:0:0:
