osu file format v14

[General]
AudioFilename: audio.mp3
AudioLeadIn: 0
PreviewTime: 58531
Countdown: 0
SampleSet: Normal
StackLeniency: 0.4
Mode: 0
LetterboxInBreaks: 0
WidescreenStoryboard: 1

[Editor]
Bookmarks: 45856
DistanceSpacing: 0.9
BeatDivisor: 4
GridSize: 16
TimelineZoom: 1.6

[Metadata]
Title:SABLE (TV Size)
TitleUnicode:SABLE (TV Size)
Artist:nano
ArtistUnicode:ナノ
Creator:Nelliel
Version:NORMAL
Source:M3~ソノ黒キ鋼~
Tags:M3: Sono Kuroki Hagane M3 The Dark Metal Ending ed jrock rock japanese grindle english anime
BeatmapID:2535635
BeatmapSetID:1218665

[Difficulty]
HPDrainRate:3.5
CircleSize:3
OverallDifficulty:4
ApproachRate:5.5
SliderMultiplier:0.999999999999999
SliderTickRate:1

[Events]
//Background and Video events
0,0,"bg.jpg",0,0
//Break Periods
//Storyboard Layer 0 (Background)
//Storyboard Layer 1 (Fail)
//Storyboard Layer 2 (Pass)
//Storyboard Layer 3 (Foreground)
//Storyboard Layer 4 (Overlay)
//Storyboard Sound Samples

[TimingPoints]
706,300,4,2,1,60,1,0
706,-100,4,2,1,60,0,0
10006,-100,4,2,1,60,0,0
10306,-100,4,1,2,70,0,0
19606,-100,4,1,2,70,0,0
19906,-100,4,2,1,60,0,0
22306,-100,4,2,1,65,0,0
31756,-100,4,2,1,65,0,0
32206,-100,4,1,2,65,0,0
41506,-100,4,2,1,60,0,0
51106,-100,5,2,1,65,0,0
51406,-100,5,1,2,65,0,0
55756,-100,5,1,2,70,0,0
58606,-100,5,2,1,60,0,0
60706,-100,5,1,2,75,0,1
75106,-100,5,2,1,70,0,0
79906,-100,5,1,2,65,0,0
84706,-100,5,1,3,70,0,0
88156,-100,5,2,1,70,0,0

[Colours]
Combo1 : 70,163,255
Combo2 : 255,55,55
Combo3 : 0,204,0
Combo4 : 192,192,192

[HitObjects]
103,344,706,6,0,L|96:282,1,50,2|2,0:0|0:0,0:0:0:0:
71,264,1006,1,2,0:0:0:0:
71,264,1156,2,0,L|88:144,1,99.9999999999999,2|2,0:0|0:0,0:0:0:0:
145,98,1756,1,2,0:0:0:0:
225,140,2056,2,0,L|219:195,1,50,2|2,0:0|0:0,0:0:0:0:
271,263,2506,1,2,0:0:0:0:
355,296,2806,1,2,0:0:0:0:
432,245,3106,6,0,L|426:195,1,50,2|2,0:0|0:0,0:0:0:0:
444,154,3406,1,2,0:0:0:0:
444,154,3556,2,0,L|455:49,1,99.9999999999999,2|2,0:0|0:0,0:0:0:0:
370,22,4156,1,2,0:0:0:0:
295,72,4456,2,0,L|300:121,1,50,2|2,0:0|0:0,0:0:0:0:
233,181,4906,2,0,L|179:171,1,50,2|2,0:0|0:0,0:0:0:0:
139,164,5206,1,2,0:0:0:0:
95,242,5506,6,0,L|144:251,1,50,2|2,0:0|0:0,0:0:0:0:
175,283,5806,1,2,0:0:0:0:
175,283,5956,2,0,L|288:266,1,99.9999999999999,2|2,0:0|0:0,0:0:0:0:
360,290,6556,1,2,0:0:0:0:
414,218,6856,2,0,L|463:227,1,50,2|2,0:0|0:0,0:0:0:0:
487,140,7306,1,2,0:0:0:0:
435,66,7606,1,2,0:0:0:0:
345,57,7906,6,0,L|281:69,1,50,2|2,0:0|0:0,0:0:0:0:
266,100,8206,1,2,0:0:0:0:
266,100,8356,2,0,L|161:79,1,99.9999999999999,2|2,0:0|0:0,0:0:0:0:
81,105,8956,1,2,0:0:0:0:
103,197,9256,1,2,0:0:0:0:
103,197,9406,2,0,L|167:209,2,50,2|2|2,0:0|0:0|0:0,0:0:0:0:
60,278,10006,5,4,3:0:0:0:
118,346,10306,6,0,L|223:326,1,99.9999999999999,4|8,0:0|0:0,0:0:0:0:
249,297,10756,2,0,L|354:317,1,99.9999999999999,2|2,0:0|0:0,0:0:0:0:
390,326,11206,1,8,0:0:0:0:
460,270,11506,2,0,L|446:217,1,50,2|0,0:0|0:0,0:0:0:0:
413,191,11806,1,10,0:0:0:0:
413,191,11956,2,0,L|429:85,1,99.9999999999999,2|10,0:0|0:0,0:0:0:0:
437,48,12406,1,2,0:0:0:0:
350,24,12706,6,0,L|335:122,1,99.9999999999999,4|8,0:3|0:0,0:0:0:0:
297,147,13156,2,0,L|311:245,1,99.9999999999999,2|2,0:0|0:0,0:0:0:0:
318,290,13606,1,8,0:0:0:0:
236,327,13906,2,0,P|206:308|183:307,1,50,2|0,0:0|0:0,0:0:0:0:
152,327,14206,1,10,0:0:0:0:
66,299,14506,2,0,L|76:230,1,50,0|10,0:0|0:0,0:0:0:0:
102,214,14806,2,0,L|91:145,1,50,2|8,0:0|0:0,0:0:0:0:
62,132,15106,6,0,L|77:27,1,99.9999999999999,4|12,0:3|0:0,0:0:0:0:
116,12,15556,2,0,P|145:35|212:44,1,99.9999999999999,2|2,0:0|0:0,0:0:0:0:
232,8,16006,1,8,0:0:0:0:
283,81,16306,2,0,L|332:76,1,50,2|0,0:0|0:0,0:0:0:0:
379,65,16606,1,10,0:0:0:0:
379,65,16756,2,0,P|358:125|361:181,1,99.9999999999999,2|10,0:0|0:0,0:0:0:0:
366,205,17206,1,2,0:0:0:0:
429,268,17506,6,0,P|426:317|407:363,1,99.9999999999999,4|10,0:3|0:0,0:0:0:0:
366,381,17956,2,0,L|247:350,1,99.9999999999999,2|2,0:0|0:0,0:0:0:0:
225,342,18406,1,8,0:0:0:0:
193,257,18706,2,0,L|289:231,1,99.9999999999999,2|10,0:0|0:0,0:0:0:0:
332,245,19156,1,4,0:3:0:0:
332,245,19306,2,0,L|389:256,1,50,6|4,0:3|0:3,0:0:0:0:
425,261,19606,1,8,0:0:0:0:
183,352,22006,5,8,0:0:0:0:
97,324,22306,6,0,P|76:273|79:222,1,99.9999999999999,4|8,3:1|0:0,0:0:0:0:
105,193,22756,1,2,0:0:0:0:
105,193,22906,2,0,P|126:142|123:91,1,99.9999999999999,2|8,0:3|0:0,0:0:0:0:
177,25,23506,2,0,L|286:57,1,99.9999999999999,2|8,0:3|0:0,0:0:0:0:
361,26,24106,1,2,0:3:0:0:
361,26,24256,1,10,0:0:0:0:
430,83,24556,6,0,L|410:186,1,99.9999999999999,10|0,0:0|3:0,0:0:0:0:
403,228,25006,1,8,0:0:0:0:
403,228,25156,2,0,L|423:331,1,99.9999999999999,2|2,0:0|0:0,0:0:0:0:
402,366,25606,1,8,0:0:0:0:
324,320,25906,2,0,P|297:294|231:284,1,99.9999999999999,2|8,0:3|0:0,0:0:0:0:
155,319,26506,2,0,L|145:378,2,50,2|8|2,0:3|0:0|0:3,0:0:0:0:
123,286,26956,6,0,L|114:127,1,150,8|8,0:0|0:0,0:0:0:0:
115,95,27556,1,2,0:0:0:0:
115,95,27706,1,2,0:3:0:0:
199,63,28006,1,8,0:0:0:0:
245,136,28306,2,0,L|235:250,1,99.9999999999999,2|8,0:3|0:0,0:0:0:0:
270,273,28756,1,2,0:0:0:0:
270,273,28906,2,0,L|327:258,1,50,2|8,0:3|0:0,0:0:0:0:
404,287,29356,5,8,0:0:0:0:
478,235,29656,2,0,L|486:135,1,99.9999999999999,2|2,0:3|0:0,0:0:0:0:
464,97,30106,1,2,0:3:0:0:
401,32,30406,1,8,0:0:0:0:
327,84,30706,2,0,P|269:115|226:113,1,99.9999999999999,2|10,0:3|0:0,0:0:0:0:
159,66,31306,2,0,L|169:6,2,50,10|8|8,0:0|0:0|0:0,0:0:0:0:
115,76,31756,6,0,L|137:234,1,150,10|12,0:0|0:0,0:0:0:0:
143,269,32356,1,2,0:2:0:0:
143,269,32506,1,2,0:3:0:0:
63,310,32806,2,0,L|52:246,1,50,8|2,0:0|0:2,0:0:0:0:
19,232,33106,2,0,L|4:128,1,99.9999999999999,2|8,0:3|0:0,0:0:0:0:
72,74,33706,1,2,0:3:0:0:
72,74,33856,1,8,0:0:0:0:
149,120,34156,6,0,P|195:150|257:143,1,99.9999999999999,8|4,0:0|0:3,0:0:0:0:
275,122,34606,1,8,0:0:0:0:
275,122,34756,2,0,P|321:92|383:99,1,99.9999999999999,2|2,0:2|0:2,0:0:0:0:
405,113,35206,1,8,0:0:0:0:
438,196,35506,2,0,L|421:305,1,99.9999999999999,2|8,0:3|0:0,0:0:0:0:
337,326,36106,1,2,0:3:0:0:
337,326,36256,1,8,0:0:0:0:
266,269,36556,6,0,L|236:106,1,150,8|8,0:0|0:0,0:0:0:0:
250,77,37156,1,2,0:2:0:0:
250,77,37306,2,0,P|209:108|155:110,1,99.9999999999999,2|8,0:3|0:0,0:0:0:0:
96,49,37906,2,0,P|46:53|7:83,1,99.9999999999999,2|8,0:3|0:0,0:0:0:0:
2,173,38506,1,8,0:3:0:0:
2,173,38656,1,4,0:3:0:0:
66,235,38956,6,0,L|49:341,1,99.9999999999999,6|4,0:0|0:3,0:0:0:0:
45,378,39406,1,10,0:0:0:0:
134,366,39706,2,0,L|195:349,1,50,10|4,0:3|0:3,0:0:0:0:
206,316,40006,1,8,0:0:0:0:
206,316,40156,2,0,L|316:333,1,99.9999999999999,6|4,0:0|0:3,0:0:0:0:
348,318,40606,1,10,0:0:0:0:
422,266,40906,1,6,0:3:0:0:
422,266,41056,2,0,L|433:212,1,50,2|8,0:0|0:0,0:0:0:0:
345,191,41506,6,0,L|291:202,1,50,0|0,3:0|3:0,0:0:0:0:
261,230,41806,2,0,L|149:207,1,99.9999999999999,10|2,0:0|0:3,0:0:0:0:
180,121,42406,2,0,P|223:89|284:93,1,99.9999999999999,8|2,0:0|0:3,0:0:0:0:
345,132,43006,1,10,0:0:0:0:
348,227,43306,1,2,0:3:0:0:
348,227,43456,2,0,L|360:344,1,99.9999999999999,8|8,0:0|0:0,0:0:0:0:
361,371,43906,5,0,3:0:0:0:
276,338,44206,2,0,P|247:310|172:307,1,99.9999999999999,10|2,0:0|0:3,0:0:0:0:
107,339,44806,2,0,P|57:334|20:302,1,99.9999999999999,8|2,0:0|0:3,0:0:0:0:
42,214,45406,1,10,0:0:0:0:
133,195,45706,1,2,0:3:0:0:
133,195,45856,2,0,P|170:227|219:231,1,99.9999999999999,8|8,0:0|0:0,0:0:0:0:
258,208,46306,5,0,3:0:0:0:
327,150,46606,2,0,L|315:39,1,99.9999999999999,10|2,0:0|0:3,0:0:0:0:
239,3,47206,2,0,L|228:102,1,99.9999999999999,8|2,0:0|0:3,0:0:0:0:
215,191,47806,1,10,0:0:0:0:
236,283,48106,1,2,0:3:0:0:
236,283,48256,2,0,P|274:259|334:258,1,99.9999999999999,8|8,0:0|0:0,0:0:0:0:
365,280,48706,5,0,3:0:0:0:
419,351,49006,2,0,P|468:349|510:324,1,99.9999999999999,10|2,0:0|0:3,0:0:0:0:
483,242,49606,1,8,0:0:0:0:
483,242,49756,2,0,L|464:135,1,99.9999999999999,2|2,0:0|0:0,0:0:0:0:
460,103,50206,1,8,0:0:0:0:
460,103,50356,1,2,0:0:0:0:
374,103,50656,1,8,0:0:0:0:
374,103,50806,2,0,L|321:95,1,50,2|8,0:3|0:0,0:0:0:0:
279,88,51106,5,0,3:0:0:0:
196,52,51406,2,0,L|82:72,1,99.9999999999999,12|2,0:0|0:3,0:0:0:0:
33,133,52006,1,8,0:0:0:0:
58,220,52306,1,2,0:3:0:0:
83,306,52606,2,0,L|142:316,1,50,8|2,0:0|0:2,0:0:0:0:
169,290,52906,1,2,0:0:0:0:
169,290,53056,2,0,L|275:251,1,99.9999999999999,10|10,0:0|0:0,0:0:0:0:
305,270,53506,5,4,0:3:0:0:
386,307,53806,2,0,L|401:198,1,99.9999999999999,8|2,0:0|0:3,0:0:0:0:
467,149,54406,1,8,0:0:0:0:
420,71,54706,1,2,0:3:0:0:
327,67,55006,2,0,L|271:83,1,50,8|2,0:0|0:2,0:0:0:0:
266,123,55306,1,2,0:3:0:0:
266,123,55456,2,0,L|211:115,1,50,10|0,0:0|0:0,0:0:0:0:
171,110,55756,1,6,1:0:0:0:
102,185,56206,6,0,L|200:199,1,99.9999999999999,10|8,0:0|0:0,0:0:0:0:
225,236,56656,1,8,0:0:0:0:
225,236,56806,2,0,L|274:228,1,50,10|4,0:0|0:0,0:0:0:0:
363,236,57256,2,0,L|378:176,2,50,0|10|8,0:0|0:0|0:0,0:0:0:0:
383,276,57706,2,0,L|370:325,1,50,10|8,0:0|0:0,0:0:0:0:
353,372,58006,1,0,0:0:0:0:
353,372,58156,5,10,0:0:0:0:
264,355,58456,1,8,0:0:0:0:
68,60,60706,6,0,L|178:84,1,99.9999999999999,4|10,0:0|0:0,0:0:0:0:
222,151,61306,2,0,L|329:128,1,99.9999999999999,4|10,0:3|0:0,0:0:0:0:
348,95,61756,2,0,L|455:118,1,99.9999999999999,2|2,0:0|0:0,0:0:0:0:
489,126,62206,1,8,0:0:0:0:
484,215,62506,2,0,L|418:235,1,50,4|2,0:3|0:0,0:0:0:0:
407,264,62806,1,10,0:0:0:0:
407,264,62956,6,0,P|358:256|324:221,1,99.9999999999999,2|0,0:0|0:0,0:0:0:0:
294,186,63406,1,10,0:0:0:0:
261,102,63706,1,4,0:3:0:0:
178,65,64006,1,8,0:0:0:0:
91,95,64306,2,0,L|79:151,1,50,4|2,0:3|0:0,0:0:0:0:
52,178,64606,1,8,0:0:0:0:
52,178,64756,2,0,L|71:282,1,99.9999999999999,2|0,0:0|0:0,0:0:0:0:
79,320,65206,1,10,0:0:0:0:
157,364,65506,6,0,L|255:383,1,99.9999999999999,4|10,0:0|0:0,0:0:0:0:
325,326,66106,2,0,L|374:316,1,50,4|4,0:3|0:3,0:0:0:0:
420,336,66406,1,8,0:0:0:0:
420,336,66556,2,0,P|394:279|399:228,1,99.9999999999999,6|6,0:0|0:3,0:0:0:0:
436,164,67156,1,4,0:0:0:0:
436,164,67306,2,0,L|495:172,2,50,2|4|10,0:0|0:3|0:0,0:0:0:0:
401,134,67756,6,0,L|300:145,1,99.9999999999999,2|0,0:0|0:0,0:0:0:0:
256,150,68206,1,10,0:0:0:0:
178,97,68506,1,4,0:3:0:0:
223,19,68806,1,8,0:0:0:0:
312,11,69106,2,0,L|411:21,1,99.9999999999999,4|8,0:3|0:0,0:0:0:0:
455,11,69556,2,0,P|431:70|429:124,1,99.9999999999999,2|4,0:0|0:3,0:0:0:0:
451,143,70006,1,10,0:0:0:0:
482,227,70306,6,0,P|475:276|454:321,1,99.9999999999999,4|14,0:0|0:0,0:0:0:0:
367,345,70906,2,0,L|262:323,1,99.9999999999999,4|10,0:3|0:0,0:0:0:0:
236,293,71356,2,0,L|126:311,1,99.9999999999999,2|2,0:0|0:0,0:0:0:0:
92,307,71806,1,8,0:0:0:0:
55,224,72106,2,0,L|104:215,1,50,4|2,0:3|0:0,0:0:0:0:
133,182,72406,1,10,0:0:0:0:
133,182,72556,6,0,L|231:199,1,99.9999999999999,2|0,0:0|0:0,0:0:0:0:
276,203,73006,1,10,0:0:0:0:
362,227,73306,1,4,0:3:0:0:
432,170,73606,1,8,0:0:0:0:
410,75,73906,2,0,L|360:66,1,50,4|4,0:3|0:3,0:0:0:0:
325,38,74206,1,8,0:0:0:0:
325,38,74356,2,0,L|216:56,1,99.9999999999999,2|8,0:0|0:3,0:0:0:0:
181,61,74806,1,8,0:3:0:0:
105,109,75106,6,0,B|72:141|54:190|79:196|117:226|106:294,1,200,4|8,3:1|0:0,0:0:0:0:
175,350,76006,1,2,0:3:0:0:
262,369,76306,2,0,B|300:362|327:356|327:356|331:298|346:209,1,200,2|8,0:3|0:0,0:0:0:0:
309,139,77206,1,2,0:3:0:0:
224,168,77506,6,0,P|228:98|347:54,1,200,2|10,0:3|0:0,0:0:0:0:
409,104,78406,1,2,0:3:0:0:
409,104,78556,2,0,L|390:210,1,99.9999999999999,4|2,3:1|3:2,0:0:0:0:
387,247,79006,1,8,0:0:0:0:
371,339,79306,1,10,0:0:0:0:
371,339,79456,2,0,L|313:354,1,50,2|8,3:2|0:0,0:0:0:0:
244,306,79906,6,0,L|137:285,1,99.9999999999999,4|8,0:0|0:0,0:0:0:0:
109,204,80506,2,0,L|207:184,1,99.9999999999999,2|8,0:3|0:0,0:0:0:0:
231,146,80956,2,0,L|335:166,1,99.9999999999999,2|2,0:2|0:2,0:0:0:0:
373,170,81406,1,8,0:0:0:0:
464,194,81706,1,2,0:3:0:0:
464,194,81856,2,0,L|457:248,1,50,8|2,0:0|0:3,0:0:0:0:
450,288,82156,1,8,0:0:0:0:
450,288,82306,6,0,P|416:261|346:265,1,99.9999999999999,4|8,0:3|0:0,0:0:0:0:
287,309,82906,2,0,P|247:338|198:338,1,99.9999999999999,2|8,0:3|0:0,0:0:0:0:
159,315,83356,2,0,L|150:197,1,99.9999999999999,2|4,0:2|0:3,0:0:0:0:
148,170,83806,1,8,0:0:0:0:
94,97,84106,2,0,L|43:111,2,50,8|8|4,0:0|0:3|0:3,0:0:0:0:
152,28,84706,6,0,L|256:52,1,99.9999999999999,12|6,0:0|0:3,0:0:0:0:
331,13,85306,1,6,0:3:0:0:
394,77,85606,1,14,0:0:0:0:
394,77,85756,2,0,L|372:175,1,99.9999999999999,6|14,0:3|0:0,0:0:0:0:
360,217,86206,1,4,0:3:0:0:
279,257,86506,2,0,L|181:235,1,99.9999999999999,12|12,0:0|0:0,0:0:0:0:
93,255,87106,5,8,0:0:0:0:
72,342,87406,1,10,0:3:0:0:
151,383,87706,2,0,L|249:361,1,99.9999999999999,10|14,0:3|0:0,0:0:0:0:
291,347,88156,1,2,3:2:0:0:
