osu file format v14

[General]
AudioFilename: audio.mp3
AudioLeadIn: 0
PreviewTime: 58531
Countdown: 0
SampleSet: Normal
StackLeniency: 0.4
Mode: 0
LetterboxInBreaks: 0
WidescreenStoryboard: 1

[Editor]
DistanceSpacing: 1.4
BeatDivisor: 4
GridSize: 8
TimelineZoom: 1.6

[Metadata]
Title:SABLE (TV Size)
TitleUnicode:SABLE (TV Size)
Artist:nano
ArtistUnicode:ナノ
Creator:Nelliel
Version:HARD
Source:M3~ソノ黒キ鋼~
Tags:M3: Sono Kuroki Hagane M3 The Dark Metal Ending ed jrock rock japanese grindle english anime
BeatmapID:2536389
BeatmapSetID:1218665

[Difficulty]
HPDrainRate:4
CircleSize:3.5
OverallDifficulty:6
ApproachRate:8
SliderMultiplier:1.2
SliderTickRate:1

[Events]
//Background and Video events
0,0,"bg.jpg",0,0
//Break Periods
//Storyboard Layer 0 (Background)
//Storyboard Layer 1 (Fail)
//Storyboard Layer 2 (Pass)
//Storyboard Layer 3 (Foreground)
//Storyboard Layer 4 (Overlay)
//Storyboard Sound Samples

[TimingPoints]
706,300,4,2,1,60,1,0
706,-125,4,2,1,60,0,0
10006,-100,4,2,1,60,0,0
10306,-100,4,1,2,70,0,0
19606,-100,4,1,2,70,0,0
19906,-100,4,2,1,60,0,0
22306,-125,4,2,1,65,0,0
31756,-100,4,2,1,65,0,0
32206,-100,4,1,2,65,0,0
41506,-142.857142857143,4,2,1,60,0,0
51106,-111.111111111111,5,2,1,65,0,0
51406,-111.111111111111,5,1,2,65,0,0
55756,-111.111111111111,5,1,2,70,0,0
58606,-111.111111111111,5,2,1,60,0,0
60706,-100,5,1,2,75,0,1
75106,-125,5,2,1,70,0,0
79906,-100,5,1,2,65,0,0
84706,-100,5,1,3,70,0,0
88156,-100,5,2,1,70,0,0

[Colours]
Combo1 : 70,163,255
Combo2 : 255,55,55
Combo3 : 0,204,0
Combo4 : 192,192,192

[HitObjects]
39,271,706,6,0,L|103:260,1,48,2|2,0:0|0:0,0:0:0:0:
139,200,1006,1,2,0:0:0:0:
139,200,1156,2,0,L|203:211,1,48,2|0,0:0|0:0,0:0:0:0:
255,251,1456,2,0,L|319:240,1,48,2|0,0:0|0:0,0:0:0:0:
359,183,1756,2,0,P|379:216|374:279,1,96,2|2,0:0|0:0,0:0:0:0:
316,319,2206,1,2,0:0:0:0:
283,168,2506,1,2,0:0:0:0:
335,23,2806,2,0,L|271:27,1,48,2|0,0:0|0:0,0:0:0:0:
211,15,3106,6,0,L|198:71,1,48,2|2,0:0|0:0,0:0:0:0:
152,127,3406,1,2,0:0:0:0:
152,127,3556,2,0,L|165:183,1,48,2|0,0:0|0:0,0:0:0:0:
118,242,3856,2,0,L|131:298,1,48,2|0,0:0|0:0,0:0:0:0:
184,349,4156,2,0,L|195:248,1,96,2|2,0:0|0:0,0:0:0:0:
270,223,4606,1,2,0:0:0:0:
336,345,4906,1,2,0:0:0:0:
336,345,5056,1,2,0:0:0:0:
415,317,5206,1,2,0:0:0:0:
415,317,5356,1,2,0:0:0:0:
470,257,5506,6,0,L|459:210,1,48,2|2,0:0|0:0,0:0:0:0:
496,137,5806,1,2,0:0:0:0:
496,137,5956,2,0,L|506:90,1,48,2|0,0:0|0:0,0:0:0:0:
423,87,6256,2,0,L|376:77,1,48,2|0,0:0|0:0,0:0:0:0:
307,32,6556,2,0,L|199:47,1,96,2|2,0:0|0:0,0:0:0:0:
132,23,7006,1,2,0:0:0:0:
41,158,7306,1,2,0:0:0:0:
95,271,7606,2,0,L|88:318,1,48,2|0,0:0|0:0,0:0:0:0:
154,365,7906,5,2,0:0:0:0:
154,365,8056,1,2,0:0:0:0:
212,308,8206,1,2,0:0:0:0:
207,226,8356,2,0,L|200:178,1,48,2|0,0:0|0:0,0:0:0:0:
250,114,8656,2,0,L|256:66,1,48,2|0,0:0|0:0,0:0:0:0:
327,26,8956,2,0,B|367:27|367:27|375:103,1,96,2|2,0:0|0:0,0:0:0:0:
409,155,9406,1,2,0:0:0:0:
409,155,9556,2,0,L|401:222,1,48,2|2,0:0|0:0,0:0:0:0:
396,284,9856,1,2,0:0:0:0:
325,237,10006,5,4,3:0:0:0:
174,321,10306,5,4,0:0:0:0:
174,321,10456,1,4,0:3:0:0:
108,268,10606,1,8,0:0:0:0:
46,210,10756,2,0,B|28:180|28:180|63:89,1,120,2|2,0:0|0:0,0:0:0:0:
131,59,11206,2,0,L|146:124,1,60,8|2,0:0|0:0,0:0:0:0:
211,167,11506,2,0,L|196:232,1,60,2|0,0:0|0:0,0:0:0:0:
245,294,11806,1,10,0:0:0:0:
245,294,11956,2,0,P|269:262|357:261,1,120,2|10,0:0|0:0,0:0:0:0:
411,304,12406,1,2,0:0:0:0:
491,156,12706,6,0,P|464:135|428:137,1,60,4|4,0:3|0:3,0:0:0:0:
356,150,13006,1,8,0:0:0:0:
287,198,13156,2,0,P|228:199|187:157,1,120,2|2,0:0|0:0,0:0:0:0:
173,74,13606,2,0,L|186:9,1,60,8|2,0:0|0:0,0:0:0:0:
83,61,13906,2,0,L|94:119,1,60,2|0,0:0|0:0,0:0:0:0:
84,203,14206,1,10,0:0:0:0:
155,256,14356,1,2,0:0:0:0:
155,256,14506,2,0,L|138:343,1,60,0|10,0:0|0:0,0:0:0:0:
212,365,14806,1,2,0:0:0:0:
282,320,14956,1,8,0:0:0:0:
353,276,15106,6,0,L|336:189,1,60,4|4,0:3|0:3,0:0:0:0:
382,143,15406,1,12,0:0:0:0:
341,69,15556,2,0,B|307:55|274:74|285:95|260:113|222:114,1,120,2|2,0:0|0:0,0:0:0:0:
167,64,16006,1,8,0:0:0:0:
167,64,16156,1,2,0:0:0:0:
88,94,16306,2,0,L|71:181,1,60,2|0,0:0|0:0,0:0:0:0:
111,229,16606,1,10,0:0:0:0:
153,301,16756,2,0,P|195:270|267:279,1,120,2|10,0:0|0:0,0:0:0:0:
324,329,17206,1,2,0:0:0:0:
478,263,17506,5,4,0:3:0:0:
478,263,17656,2,0,L|493:199,1,60,4|10,0:3|0:0,0:0:0:0:
424,163,17956,1,2,0:0:0:0:
424,163,18106,2,0,L|410:221,1,60,0|2,0:0|0:0,0:0:0:0:
327,207,18406,2,0,L|340:265,1,60,8|2,0:0|0:0,0:0:0:0:
294,336,18706,2,0,P|265:313|223:318,1,60,2|0,0:0|0:0,0:0:0:0:
169,351,19006,2,0,P|139:346|118:326,1,60,10|4,0:0|0:3,0:0:0:0:
118,241,19306,2,0,L|130:205,3,30,6|4|4|4,0:3|0:3|0:3|0:3,0:0:0:0:
108,167,19606,1,8,0:0:0:0:
331,113,21856,5,0,3:0:0:0:
331,113,21931,1,0,3:0:0:0:
331,113,22006,1,8,0:0:0:0:
413,253,22306,6,0,P|369:244|325:277,1,96,4|8,3:1|0:0,0:0:0:0:
280,339,22756,1,2,0:0:0:0:
280,339,22906,2,0,P|236:347|192:314,1,96,2|8,0:3|0:0,0:0:0:0:
158,246,23356,1,2,0:0:0:0:
158,246,23506,2,0,L|167:183,1,48,2|2,0:3|0:0,0:0:0:0:
118,130,23806,1,8,0:0:0:0:
172,59,23956,1,2,0:0:0:0:
172,59,24106,2,0,L|165:11,1,48,2|10,0:3|0:0,0:0:0:0:
309,108,24556,6,0,P|348:139|409:130,1,96,10|0,0:0|3:0,0:0:0:0:
419,61,25006,1,8,0:0:0:0:
419,61,25156,2,0,P|382:30|335:30,1,96,2|2,0:0|0:0,0:0:0:0:
244,50,25606,1,8,0:0:0:0:
244,50,25756,2,0,L|195:70,1,48,2|2,0:0|0:3,0:0:0:0:
141,140,26056,1,2,0:0:0:0:
141,140,26206,2,0,L|186:159,1,48,8|2,0:0|0:0,0:0:0:0:
144,236,26506,1,2,0:3:0:0:
144,236,26656,1,8,0:0:0:0:
274,357,26956,1,8,0:0:0:0:
274,357,27106,6,0,P|280:309|286:250,1,96,0|8,3:0|0:0,0:0:0:0:
356,211,27556,1,2,0:0:0:0:
356,211,27706,2,0,P|362:259|368:318,1,96,2|8,0:3|0:0,0:0:0:0:
425,370,28156,1,2,0:0:0:0:
425,370,28306,2,0,P|472:373|510:345,1,96,2|8,0:3|0:0,0:0:0:0:
498,258,28756,1,2,0:0:0:0:
498,258,28906,2,0,L|439:248,1,48,2|8,0:3|0:0,0:0:0:0:
401,83,29356,6,0,L|306:99,1,96,8|2,0:0|0:3,0:0:0:0:
238,151,29806,1,8,0:0:0:0:
238,151,29956,2,0,L|143:134,1,96,2|2,0:0|0:0,0:0:0:0:
58,117,30406,1,8,0:0:0:0:
185,0,30706,2,0,L|240:10,1,48,2|0,0:3|3:0,0:0:0:0:
288,74,31006,1,10,0:0:0:0:
360,29,31156,1,8,0:0:0:0:
360,29,31231,1,8,0:0:0:0:
360,29,31306,1,10,0:0:0:0:
436,58,31456,1,8,0:0:0:0:
448,138,31606,1,8,0:0:0:0:
431,220,31756,6,0,L|404:348,1,120,10|0,0:0|3:0,0:0:0:0:
332,377,32206,2,0,L|312:311,1,60,12|2,0:0|0:2,0:0:0:0:
334,237,32506,2,0,P|275:242|234:285,1,120,2|8,0:3|0:0,0:0:0:0:
195,361,32956,1,2,0:2:0:0:
195,361,33106,2,0,B|151:354|151:354|137:252,1,120,2|8,0:3|0:0,0:0:0:0:
182,206,33556,1,2,0:2:0:0:
122,147,33706,2,0,L|114:75,1,60,2|8,0:3|0:0,0:0:0:0:
171,24,34006,1,2,0:3:0:0:
171,24,34156,6,0,P|211:63|294:50,1,120,8|4,0:0|0:3,0:0:0:0:
346,24,34606,1,8,0:0:0:0:
346,24,34756,2,0,L|361:163,1,120,2|2,0:2|0:2,0:0:0:0:
365,227,35206,1,8,0:0:0:0:
438,377,35506,2,0,L|448:314,1,60,2|2,0:3|0:2,0:0:0:0:
461,234,35806,1,8,0:0:0:0:
461,234,35956,1,0,0:0:0:0:
395,180,36106,2,0,L|385:117,1,60,2|8,0:3|0:0,0:0:0:0:
370,38,36406,1,2,0:3:0:0:
291,68,36556,6,0,P|257:41|177:44,1,120,8|4,0:0|0:3,0:0:0:0:
119,96,37006,1,8,0:0:0:0:
66,161,37156,1,2,0:2:0:0:
66,161,37306,2,0,P|86:212|102:285,1,120,2|8,0:3|0:0,0:0:0:0:
165,337,37756,1,2,0:2:0:0:
165,337,37906,2,0,P|185:286|201:213,1,120,2|8,0:3|0:0,0:0:0:0:
177,140,38356,1,2,0:2:0:0:
246,187,38506,2,0,P|276:205|314:207,1,60,8|4,0:3|0:3,0:0:0:0:
371,163,38806,1,8,0:0:0:0:
371,163,38956,6,0,L|351:33,1,120,6|4,0:0|0:3,0:0:0:0:
426,3,39406,1,10,0:0:0:0:
464,77,39556,1,4,0:3:0:0:
506,149,39706,2,0,L|491:220,1,60,10|4,0:3|0:3,0:0:0:0:
466,287,40006,1,8,0:0:0:0:
466,287,40156,2,0,B|432:288|409:270|424:255|397:232|349:234,1,120,6|4,0:0|0:3,0:0:0:0:
287,272,40606,2,0,P|255:295|223:293,1,60,10|2,0:0|0:2,0:0:0:0:
151,302,40906,1,6,0:3:0:0:
104,232,41056,2,0,L|93:195,2,30,2|8|8,0:0|0:0|0:0,0:0:0:0:
177,186,41356,1,2,0:0:0:0:
177,186,41431,1,8,0:0:0:0:
177,186,41506,6,0,L|221:192,1,41.9999987182618,0|0,3:0|3:0,0:0:0:0:
286,142,41806,2,0,L|379:125,1,83.9999974365235,10|2,0:0|0:3,0:0:0:0:
479,254,42406,2,0,L|396:268,1,83.9999974365235,8|2,0:0|0:3,0:0:0:0:
242,335,43006,2,0,L|159:320,1,83.9999974365235,10|2,0:0|0:3,0:0:0:0:
81,351,43456,2,0,P|100:312|98:261,1,83.9999974365235,8|8,0:0|0:0,0:0:0:0:
56,200,43906,5,0,3:0:0:0:
56,200,44056,1,0,3:0:0:0:
0,137,44206,2,0,P|38:117|85:124,1,83.9999974365235,10|2,0:0|0:3,0:0:0:0:
220,209,44806,2,0,P|258:229|305:222,1,83.9999974365235,8|2,0:0|0:3,0:0:0:0:
378,77,45406,2,0,P|341:57|300:60,1,83.9999974365235,10|2,0:0|0:3,0:0:0:0:
232,109,45856,2,0,L|244:207,1,83.9999974365235,8|8,0:0|0:0,0:0:0:0:
290,267,46306,5,0,3:0:0:0:
290,267,46456,1,0,3:0:0:0:
371,288,46606,2,0,L|381:204,1,83.9999974365235,10|2,0:0|0:3,0:0:0:0:
485,72,47206,2,0,L|401:61,1,83.9999974365235,8|2,0:0|0:3,0:0:0:0:
244,0,47806,2,0,L|160:10,1,83.9999974365235,10|2,0:0|0:3,0:0:0:0:
76,20,48256,1,8,0:0:0:0:
194,146,48556,1,8,0:0:0:0:
194,146,48706,6,0,L|203:198,1,41.9999987182618,0|0,3:0|3:0,0:0:0:0:
146,251,49006,2,0,P|160:290|186:323,1,83.9999974365235,10|2,0:0|0:3,0:0:0:0:
355,346,49606,1,8,0:0:0:0:
355,346,49756,2,0,L|367:254,1,83.9999974365235,2|2,0:0|0:0,0:0:0:0:
315,195,50206,1,8,0:0:0:0:
315,195,50356,2,0,L|298:102,1,83.9999974365235,2|8,0:0|0:0,0:0:0:0:
380,90,50806,2,0,L|390:151,1,41.9999987182618,2|8,0:3|0:0,0:0:0:0:
452,216,51106,6,0,L|441:291,1,53.9999983520508,0|0,3:0|3:0,0:0:0:0:
384,331,51406,2,0,B|321:334|347:280|271:286,1,107.999996704102,12|2,0:0|0:3,0:0:0:0:
211,319,51856,1,2,0:2:0:0:
211,319,52006,2,0,P|180:294|178:216,1,107.999996704102,8|2,0:0|0:3,0:0:0:0:
302,115,52606,2,0,L|313:42,1,53.9999983520508,8|2,0:0|0:2,0:0:0:0:
238,13,52906,1,2,0:0:0:0:
238,13,53056,2,0,L|229:66,2,53.9999983520508,10|2|10,0:0|0:2|0:0,0:0:0:0:
152,23,53506,5,4,0:3:0:0:
152,23,53656,1,4,0:3:0:0:
94,87,53806,2,0,L|113:202,1,107.999996704102,8|2,0:0|0:3,0:0:0:0:
247,300,54406,2,0,L|266:184,1,107.999996704102,8|2,0:0|0:3,0:0:0:0:
129,300,55006,2,0,L|138:353,1,53.9999983520508,8|2,0:0|0:2,0:0:0:0:
52,340,55306,1,2,0:3:0:0:
52,340,55456,2,0,L|42:286,1,53.9999983520508,10|0,0:0|0:0,0:0:0:0:
103,212,55756,6,0,P|146:186|211:214,1,107.999996704102,6|0,1:0|0:0,0:0:0:0:
261,261,56206,2,0,L|251:315,1,53.9999983520508,10|8,0:0|0:0,0:0:0:0:
321,373,56506,1,8,0:0:0:0:
321,373,56656,1,8,0:0:0:0:
390,322,56806,1,10,0:0:0:0:
361,240,56956,2,0,L|393:115,1,107.999996704102,4|0,0:0|0:0,0:0:0:0:
335,65,57406,2,0,L|345:11,1,53.9999983520508,10|8,0:0|0:0,0:0:0:0:
431,8,57706,1,10,0:0:0:0:
496,63,57856,2,0,L|486:117,1,53.9999983520508,8|0,0:0|0:0,0:0:0:0:
468,200,58156,5,10,0:0:0:0:
430,368,58456,1,8,0:0:0:0:
396,351,60706,6,0,L|322:333,1,60,4|0,0:0|0:0,0:0:0:0:
261,300,61006,2,0,L|202:314,1,60,10|0,0:0|0:0,0:0:0:0:
108,289,61306,2,0,L|76:237,1,60,4|0,0:3|0:0,0:0:0:0:
170,203,61606,1,10,0:0:0:0:
170,203,61756,2,0,P|181:145|146:99,1,120,2|2,0:0|0:0,0:0:0:0:
68,69,62206,1,8,0:0:0:0:
224,7,62506,2,0,L|292:19,1,60,4|2,0:3|0:0,0:0:0:0:
336,83,62806,1,10,0:0:0:0:
336,83,62956,6,0,L|470:64,1,120,2|0,0:0|0:0,0:0:0:0:
484,145,63406,2,0,L|365:161,1,120,10|4,0:0|0:3,0:0:0:0:
285,178,63856,1,2,0:0:0:0:
285,178,64006,2,0,L|220:167,1,60,8|2,0:0|0:0,0:0:0:0:
175,54,64306,1,4,0:3:0:0:
175,54,64456,2,0,L|164:119,1,60,2|8,0:0|0:0,0:0:0:0:
97,163,64756,2,0,L|112:301,1,120,2|0,0:0|0:0,0:0:0:0:
120,365,65206,1,10,0:0:0:0:
287,375,65506,6,0,L|294:306,1,60,4|0,0:0|0:0,0:0:0:0:
356,259,65806,2,0,L|349:199,1,60,10|0,0:0|0:0,0:0:0:0:
341,115,66106,1,4,0:3:0:0:
341,115,66256,1,4,0:3:0:0:
408,64,66406,1,8,0:0:0:0:
475,114,66556,2,0,L|461:247,1,120,6|6,0:0|0:3,0:0:0:0:
393,281,67006,2,0,L|399:340,1,60,8|4,0:0|0:0,0:0:0:0:
314,333,67306,2,0,L|254:339,1,60,2|4,0:0|0:3,0:0:0:0:
174,310,67606,1,10,0:0:0:0:
109,265,67756,1,2,0:0:0:0:
109,265,67906,6,0,P|93:305|98:339,1,60,4|0,0:3|0:0,0:0:0:0:
11,339,68206,2,0,P|9:279|34:225,1,120,10|4,0:0|0:3,0:0:0:0:
102,176,68656,2,0,P|127:122|125:62,1,120,2|2,0:0|0:0,0:0:0:0:
195,15,69106,2,0,P|201:44|213:71,1,60,4|0,0:3|0:0,0:0:0:0:
281,121,69406,1,8,0:0:0:0:
281,121,69556,2,0,P|304:107|339:106,1,60,2|4,0:0|0:3,0:0:0:0:
408,150,69856,2,0,L|398:191,2,30,4|8|10,0:3|0:0|0:0,0:0:0:0:
486,112,70156,1,4,0:3:0:0:
486,112,70231,1,8,0:0:0:0:
486,112,70306,6,0,L|496:198,1,60,4|0,0:0|0:0,0:0:0:0:
458,248,70606,2,0,L|468:334,1,60,14|0,0:0|0:0,0:0:0:0:
400,361,70906,2,0,P|374:346|344:344,1,60,4|0,0:3|0:0,0:0:0:0:
280,290,71206,1,10,0:0:0:0:
280,290,71356,2,0,P|250:291|181:354,1,120,2|2,0:0|0:0,0:0:0:0:
99,342,71806,1,8,0:0:0:0:
48,186,72106,1,4,0:3:0:0:
48,186,72256,1,2,0:0:0:0:
109,129,72406,1,10,0:0:0:0:
165,190,72556,6,0,B|200:172|200:172|186:83,1,120,2|0,0:0|0:0,0:0:0:0:
268,71,73006,2,0,L|290:203,1,120,10|4,0:0|0:3,0:0:0:0:
360,230,73456,1,2,0:0:0:0:
360,230,73606,2,0,P|390:217|419:220,1,60,8|2,0:0|0:0,0:0:0:0:
428,303,73906,2,0,P|398:316|368:312,1,60,4|4,0:3|0:3,0:0:0:0:
297,283,74206,1,8,0:0:0:0:
234,338,74356,1,2,0:0:0:0:
234,338,74431,1,8,0:0:0:0:
234,338,74506,2,0,P|204:339|177:327,1,60,8|8,0:0|0:3,0:0:0:0:
105,282,74806,2,0,L|115:211,1,60,8|4,0:3|0:3,0:0:0:0:
66,156,75106,5,4,3:1:0:0:
66,156,75256,2,0,P|117:165|168:127,1,96,0|2,3:0|3:2,0:0:0:0:
215,84,75706,2,0,P|266:75|317:113,1,96,8|2,0:0|0:3,0:0:0:0:
362,157,76156,1,2,0:0:0:0:
362,157,76306,2,0,L|351:212,1,48,2|0,0:3|3:0,0:0:0:0:
319,286,76606,2,0,L|330:341,1,48,2|2,0:3|3:2,0:0:0:0:
251,372,76906,2,0,L|228:265,1,96,8|2,0:0|0:3,0:0:0:0:
170,215,77356,6,0,L|190:121,1,96,4|2,3:1|3:2,0:0:0:0:
85,70,77956,1,2,3:2:0:0:
85,70,78106,2,0,L|95:116,1,48,10|0,0:0|0:0,0:0:0:0:
47,189,78406,1,2,0:3:0:0:
47,189,78556,2,0,L|32:302,1,96,4|2,3:1|3:2,0:0:0:0:
79,358,79006,1,8,0:0:0:0:
241,300,79306,1,10,0:0:0:0:
322,351,79456,1,2,3:2:0:0:
322,351,79531,1,0,3:0:0:0:
322,351,79606,1,8,0:0:0:0:
441,232,79906,5,4,0:0:0:0:
441,232,80056,1,4,0:3:0:0:
379,174,80206,2,0,P|387:239|394:304,2,120,8|2|8,0:0|0:3|0:0,0:0:0:0:
308,127,80956,2,0,P|304:156|301:186,1,60,2|2,0:2|0:3,0:0:0:0:
222,211,81256,1,2,0:2:0:0:
222,211,81406,2,0,P|168:170|106:179,1,120,8|2,0:0|0:3,0:0:0:0:
48,217,81856,1,8,0:0:0:0:
48,217,82006,2,0,L|63:285,1,60,2|8,0:3|0:0,0:0:0:0:
136,322,82306,5,4,0:3:0:0:
136,322,82456,1,4,0:3:0:0:
210,358,82606,2,0,P|247:321|317:331,2,120,8|2|8,0:0|0:3|0:0,0:0:0:0:
152,296,83356,2,0,L|165:230,1,60,2|2,0:2|0:3,0:0:0:0:
115,168,83656,1,4,0:3:0:0:
115,168,83806,2,0,L|102:104,1,60,8|4,0:0|0:3,0:0:0:0:
162,49,84106,2,0,L|191:54,3,30,8|8|8|8,0:0|0:0|0:3|0:3,0:0:0:0:
222,27,84406,2,0,L|251:21,3,30,4|4|4|4,0:3|0:3|0:3|0:3,0:0:0:0:
282,49,84706,6,0,L|365:61,1,60,12|4,0:0|0:3,0:0:0:0:
431,35,85006,1,6,0:3:0:0:
431,35,85156,2,0,L|422:116,1,60,12|6,0:0|0:3,0:0:0:0:
375,171,85456,1,4,0:3:0:0:
375,171,85606,2,0,L|384:251,1,60,14|6,0:0|0:3,0:0:0:0:
338,310,85906,5,4,0:3:0:0:
263,344,86056,2,0,P|233:339|209:322,1,60,14|4,0:0|0:3,0:0:0:0:
186,240,86356,1,4,0:3:0:0:
186,240,86506,2,0,P|161:223|132:218,1,60,12|4,0:0|0:3,0:0:0:0:
58,258,86806,1,12,0:0:0:0:
33,177,86956,1,4,0:3:0:0:
13,95,87106,6,0,L|62:82,3,30,8|0|8|8,0:0|0:0|0:3|0:3,0:0:0:0:
82,97,87406,2,0,L|131:110,3,30,10|4|12|0,0:3|0:3|0:0|0:0,0:0:0:0:
141,75,87706,2,0,L|190:62,3,30,10|8|8|4,0:3|0:3|0:3|0:3,0:0:0:0:
209,82,88006,1,14,0:0:0:0:
275,132,88156,5,2,3:2:0:0:
