osu file format v14

[General]
AudioFilename: audio.mp3
AudioLeadIn: 0
PreviewTime:58531
Countdown: 0
SampleSet: Soft
StackLeniency: 0.4
Mode: 0
LetterboxInBreaks: 0
WidescreenStoryboard: 1

[Editor]
DistanceSpacing: 1.7
BeatDivisor: 4
GridSize: 8
TimelineZoom: 1.6

[Metadata]
Title:SABLE (TV Size)
TitleUnicode:SABLE (TV Size)
Artist:nano
ArtistUnicode:ナノ
Creator:Nelliel
Version:EXTRA
Source:M3~ソノ黒キ鋼~
Tags:M3: Sono Kuroki Hagane M3 The Dark Metal Ending ed jrock rock japanese grindle english anime
BeatmapID:2577028
BeatmapSetID:1218665

[Difficulty]
HPDrainRate:5
CircleSize:3.8
OverallDifficulty:8.7
ApproachRate:9.1
SliderMultiplier:1.65
SliderTickRate:1

[Events]
//Background and Video events
0,0,"bg.jpg"
//Break Periods
//Storyboard Layer 0 (Background)
//Storyboard Layer 1 (Fail)
//Storyboard Layer 2 (Pass)
//Storyboard Layer 3 (Foreground)
//Storyboard Layer 4 (Overlay)
//Storyboard Sound Samples

[TimingPoints]
706,300,4,2,1,60,1,0
706,-142.857142857143,4,2,1,60,0,0
10006,-200,4,2,1,60,0,0
10306,-100,4,1,2,70,0,0
19606,-200,4,1,2,70,0,0
19906,-200,4,2,1,60,0,0
22306,-125,4,2,1,65,0,0
31756,-111.111111111111,4,2,1,65,0,0
32206,-111.111111111111,4,1,2,65,0,0
41506,-166.666666666667,4,2,1,60,0,0
51106,-133.333333333333,5,2,1,65,0,0
51406,-133.333333333333,5,1,2,65,0,0
55756,-100,5,1,2,70,0,0
58606,-100,5,2,1,60,0,0
60706,-83.3333333333333,5,1,2,75,0,1
75106,-125,5,2,1,70,0,0
79906,-100,5,1,2,65,0,0
84706,-83.3333333333333,5,1,3,70,0,0
88156,-83.3333333333333,5,2,1,70,0,0

[Colours]
Combo1 : 70,163,255
Combo2 : 255,55,55
Combo3 : 0,204,0
Combo4 : 192,192,192

[HitObjects]
185,110,706,5,2,0:0:0:0:
114,44,856,1,2,0:0:0:0:
197,196,1006,1,2,0:0:0:0:
197,196,1156,2,0,P|205:152|211:130,1,57.7499982376099,2|0,0:0|0:0,0:0:0:0:
76,226,1456,2,0,P|82:254|87:282,1,57.7499982376099,2|0,0:0|0:0,0:0:0:0:
254,273,1756,2,0,P|225:279|197:284,1,57.7499982376099,2|0,0:0|0:0,0:0:0:0:
306,195,2056,1,2,0:0:0:0:
310,367,2206,2,0,P|281:362|253:355,1,57.7499982376099,2|0,0:0|0:0,0:0:0:0:
417,277,2506,2,0,P|394:294|369:309,1,57.7499982376099,2|0,0:0|0:0,0:0:0:0:
404,126,2806,2,0,P|399:154|392:182,1,57.7499982376099,2|0,0:0|0:0,0:0:0:0:
258,106,3106,5,2,0:0:0:0:
313,36,3256,1,2,0:0:0:0:
180,95,3406,1,2,0:0:0:0:
180,95,3556,2,0,P|182:134|199:158,1,57.7499982376099,2|0,0:0|0:0,0:0:0:0:
127,16,3856,2,0,P|100:44|95:73,1,57.7499982376099,2|0,0:0|0:0,0:0:0:0:
187,231,4156,2,0,L|254:214,1,57.7499982376099,2|0,0:0|0:0,0:0:0:0:
107,174,4456,1,2,0:0:0:0:
197,315,4606,2,0,L|141:300,1,57.7499982376099,2|0,0:0|0:0,0:0:0:0:
317,267,4906,1,2,0:0:0:0:
246,384,5056,1,2,0:0:0:0:
396,331,5206,1,2,0:0:0:0:
263,363,5356,1,2,0:0:0:0:
396,234,5506,5,2,0:0:0:0:
331,184,5656,1,2,0:0:0:0:
465,123,5806,1,2,0:0:0:0:
465,123,5956,2,0,L|453:197,1,57.7499982376099,2|0,0:0|0:0,0:0:0:0:
349,68,6256,2,0,L|337:-6,1,57.7499982376099,2|0,0:0|0:0,0:0:0:0:
233,123,6556,2,0,L|221:197,1,57.7499982376099,2|0,0:0|0:0,0:0:0:0:
141,65,6856,1,2,0:0:0:0:
262,167,7006,2,0,L|250:241,1,57.7499982376099,2|0,0:0|0:0,0:0:0:0:
136,336,7306,2,0,L|124:262,1,57.7499982376099,2|0,0:0|0:0,0:0:0:0:
59,378,7606,2,0,L|47:304,1,57.7499982376099,2|0,0:0|0:0,0:0:0:0:
24,178,7906,5,2,0:0:0:0:
183,248,8056,1,2,0:0:0:0:
59,164,8206,1,2,0:0:0:0:
189,330,8356,2,0,P|218:324|247:299,1,57.7499982376099,2|0,0:0|0:0,0:0:0:0:
181,171,8656,2,0,P|152:177|123:202,1,57.7499982376099,2|0,0:0|0:0,0:0:0:0:
261,109,8956,2,0,P|236:92|198:89,1,57.7499982376099,2|0,0:0|0:0,0:0:0:0:
332,182,9256,1,2,0:0:0:0:
400,57,9406,1,2,0:0:0:0:
400,57,9556,1,2,0:0:0:0:
288,98,9706,1,2,0:0:0:0:
288,98,9856,1,2,0:0:0:0:
400,221,10006,6,0,L|386:297,1,61.875,4|0,3:0|0:0,0:0:0:0:
358,300,10306,6,0,L|376:398,1,82.5,4|4,0:0|0:3,0:0:0:0:
221,196,10606,1,8,0:0:0:0:
274,358,10756,2,0,B|228:355|209:323|228:299|200:254|129:257,1,165,2|2,0:0|0:0,0:0:0:0:
29,334,11206,1,8,0:0:0:0:
95,379,11356,1,2,0:0:0:0:
49,168,11506,5,2,0:0:0:0:
118,360,11656,1,0,0:0:0:0:
155,126,11806,1,10,0:0:0:0:
155,126,11956,2,0,B|183:136|208:138|208:138|192:198|185:250,1,165,2|10,0:0|0:0,0:0:0:0:
366,222,12406,2,0,P|323:212|277:203,1,82.5,2|8,0:0|0:0,0:0:0:0:
362,90,12706,5,4,0:3:0:0:
440,271,12856,1,4,0:3:0:0:
512,128,13006,1,8,0:0:0:0:
357,309,13156,2,0,P|266:287|169:269,1,165,2|2,0:0|0:0,0:0:0:0:
116,80,13606,1,8,0:0:0:0:
258,179,13756,1,2,0:0:0:0:
89,120,13906,5,2,0:0:0:0:
237,75,14056,1,0,0:0:0:0:
47,22,14206,1,10,0:0:0:0:
213,151,14356,1,2,0:0:0:0:
22,236,14506,2,0,P|62:228|102:218,1,82.5,0|10,0:0|0:0,0:0:0:0:
228,323,14806,1,2,0:0:0:0:
94,136,14956,1,8,0:0:0:0:
315,234,15106,5,4,0:3:0:0:
142,306,15256,1,4,0:3:0:0:
315,324,15406,1,12,0:0:0:0:
110,379,15556,2,0,P|64:316|106:237,1,165,2|2,0:0|0:0,0:0:0:0:
239,177,16006,1,8,0:0:0:0:
142,306,16156,1,2,0:0:0:0:
217,148,16306,5,2,0:0:0:0:
57,90,16456,1,0,0:0:0:0:
214,15,16606,1,10,0:0:0:0:
214,15,16756,2,0,B|259:9|291:37|273:67|311:106|364:101,1,165,2|10,0:0|0:0,0:0:0:0:
507,17,17206,1,2,0:0:0:0:
357,121,17356,1,8,0:0:0:0:
509,219,17506,5,4,0:3:0:0:
397,44,17656,1,4,0:3:0:0:
353,256,17806,1,10,0:0:0:0:
465,81,17956,1,2,0:0:0:0:
265,231,18106,2,0,P|272:269|281:321,1,82.5,0|2,0:0|0:0,0:0:0:0:
111,172,18406,2,0,P|119:131|125:90,1,82.5,8|2,0:0|0:0,0:0:0:0:
293,138,18706,5,2,0:0:0:0:
211,172,18856,1,0,0:0:0:0:
407,199,19006,1,10,0:0:0:0:
222,84,19156,1,4,0:3:0:0:
387,286,19306,1,6,0:3:0:0:
427,289,19381,1,4,0:3:0:0:
465,272,19456,1,4,0:3:0:0:
490,240,19531,1,4,0:3:0:0:
497,200,19606,6,0,L|484:115,1,82.5,8|2,0:0|0:0,0:0:0:0:
485,118,21856,5,0,3:0:0:0:
485,118,21931,1,0,3:0:0:0:
485,118,22006,1,8,0:0:0:0:
485,118,22306,5,4,3:1:0:0:
309,42,22456,1,0,3:0:0:0:
365,197,22606,2,0,L|378:119,1,66,8|2,0:0|0:0,0:0:0:0:
249,148,22906,2,0,L|273:295,1,132,2|8,0:3|0:0,0:0:0:0:
157,202,23356,1,2,0:0:0:0:
268,327,23506,2,0,L|246:196,1,132,2|8,0:3|0:0,0:0:0:0:
218,50,23956,1,2,0:0:0:0:
76,148,24106,1,2,0:3:0:0:
76,148,24256,2,0,L|86:82,1,66,10|2,0:0|0:3,0:0:0:0:
2,198,24556,1,10,0:0:0:0:
141,220,24706,5,0,3:0:0:0:
0,117,24856,1,0,3:0:0:0:
93,283,25006,1,8,0:0:0:0:
93,283,25156,2,0,B|132:282|156:261|136:232|168:204|213:208,1,132,2|2,0:0|0:0,0:0:0:0:
341,278,25606,2,0,L|271:291,1,66,8|2,0:0|0:0,0:0:0:0:
358,183,25906,1,2,0:3:0:0:
428,323,26056,1,2,0:0:0:0:
282,207,26206,2,0,P|278:174|289:143,1,66,8|2,0:0|0:0,0:0:0:0:
434,78,26506,1,2,0:3:0:0:
262,10,26656,1,8,0:0:0:0:
435,164,26806,1,2,0:3:0:0:
263,232,26956,1,8,0:0:0:0:
327,70,27106,5,0,3:0:0:0:
420,240,27256,1,0,3:0:0:0:
221,223,27406,2,0,L|143:205,1,66,8|2,0:0|0:0,0:0:0:0:
57,82,27706,2,0,L|184:52,1,132,2|8,0:3|0:0,0:0:0:0:
317,98,28156,1,2,0:0:0:0:
201,26,28306,2,0,L|72:56,1,132,2|8,0:3|0:0,0:0:0:0:
293,170,28756,1,2,0:0:0:0:
183,314,28906,1,2,0:3:0:0:
183,314,29056,2,0,L|149:168,1,132,8|8,0:0|0:0,0:0:0:0:
453,197,29506,5,0,3:0:0:0:
284,258,29656,1,2,0:3:0:0:
431,379,29806,1,8,0:0:0:0:
238,324,29956,2,0,P|207:276|235:196,1,132,2|2,0:0|0:0,0:0:0:0:
369,86,30406,1,8,0:0:0:0:
369,86,30556,1,2,0:0:0:0:
193,36,30706,1,2,0:3:0:0:
363,4,30856,1,0,3:0:0:0:
196,113,31006,2,0,L|131:100,1,66,10|8,0:0|0:0,0:0:0:0:
97,73,31231,1,8,0:0:0:0:
97,73,31306,5,10,0:0:0:0:
194,228,31456,1,8,0:0:0:0:
23,93,31606,1,8,0:0:0:0:
247,178,31756,1,10,0:0:0:0:
88,160,31906,5,0,3:0:0:0:
88,160,32056,1,0,3:0:0:0:
21,297,32206,2,0,P|14:254|4:214,1,74.2499977340699,12|2,0:0|0:2,0:0:0:0:
229,180,32506,2,0,P|208:269|194:360,1,148.49999546814,2|8,0:3|0:0,0:0:0:0:
367,189,32956,1,2,0:2:0:0:
248,89,33106,5,2,0:3:0:0:
377,233,33256,1,2,0:2:0:0:
438,43,33406,1,8,0:0:0:0:
231,167,33556,1,2,0:2:0:0:
394,115,33706,1,2,0:3:0:0:
213,248,33856,2,0,P|160:209|159:127,1,148.49999546814,8|8,0:0|0:0,0:0:0:0:
316,48,34306,5,4,0:3:0:0:
316,48,34456,1,4,0:3:0:0:
130,0,34606,1,8,0:0:0:0:
328,139,34756,2,0,B|376:142|397:107|378:91|405:44|457:52,1,148.49999546814,2|2,0:2|0:2,0:0:0:0:
239,93,35206,2,0,L|250:181,1,74.2499977340699,8|2,0:0|0:2,0:0:0:0:
293,294,35506,5,2,0:3:0:0:
427,187,35656,1,2,0:2:0:0:
233,347,35806,2,0,P|211:310|216:268,1,74.2499977340699,8|0,0:0|0:0,0:0:0:0:
354,116,36106,1,2,0:3:0:0:
354,116,36256,2,0,L|343:204,1,74.2499977340699,8|2,0:0|0:3,0:0:0:0:
258,23,36556,1,8,0:0:0:0:
447,127,36706,5,4,0:3:0:0:
447,127,36856,1,4,0:3:0:0:
277,244,37006,2,0,P|255:207|260:165,1,74.2499977340699,8|2,0:0|0:2,0:0:0:0:
420,351,37306,2,0,L|439:192,1,148.49999546814,2|8,0:3|0:0,0:0:0:0:
261,333,37756,1,2,0:2:0:0:
261,333,37906,6,0,B|145:309|145:309|120:270,1,148.49999546814,2|8,0:3|0:0,0:0:0:0:
34,111,38356,1,2,0:2:0:0:
215,181,38506,1,8,0:3:0:0:
130,10,38656,1,4,0:3:0:0:
31,187,38806,1,8,0:0:0:0:
202,66,38956,6,0,P|272:71|312:141,1,148.49999546814,6|4,0:0|0:3,0:0:0:0:
251,332,39406,1,10,0:0:0:0:
141,166,39556,1,4,0:3:0:0:
257,310,39706,1,10,0:3:0:0:
114,160,39856,1,4,0:3:0:0:
67,344,40006,1,8,0:0:0:0:
224,227,40156,6,0,L|202:52,1,148.49999546814,6|4,0:0|0:3,0:0:0:0:
118,271,40606,2,0,L|128:183,1,74.2499977340699,10|2,0:0|0:2,0:0:0:0:
287,101,40906,1,6,0:3:0:0:
313,272,41056,2,0,L|307:308,2,37.1249988670349,2|8|8,0:0|0:0|0:0,0:0:0:0:
224,140,41356,1,2,0:0:0:0:
224,140,41431,1,8,0:0:0:0:
224,140,41506,6,0,L|236:207,1,49.4999984893799,0|0,3:0|3:0,0:0:0:0:
286,287,41806,2,0,P|346:245|420:267,1,148.49999546814,10|2,0:0|0:0,0:0:0:0:
228,367,42406,2,0,B|202:349|182:336|182:336|198:288|215:231,1,148.49999546814,8|0,0:0|0:0,0:0:0:0:
250,132,43006,1,10,0:0:0:0:
111,221,43156,1,2,0:0:0:0:
164,90,43306,1,2,0:3:0:0:
164,90,43456,2,0,L|172:138,1,49.4999984893799,8|2,0:0|0:3,0:0:0:0:
245,42,43756,1,8,0:0:0:0:
71,62,43906,5,0,3:0:0:0:
179,177,44056,1,0,3:0:0:0:
28,133,44206,2,0,P|-5:94|21:-5,1,148.49999546814,10|2,0:0|0:0,0:0:0:0:
161,57,44806,2,0,L|145:221,1,148.49999546814,8|0,0:0|0:0,0:0:0:0:
103,336,45406,1,10,0:0:0:0:
60,226,45556,1,2,0:0:0:0:
187,345,45706,1,2,0:3:0:0:
187,345,45856,2,0,L|192:289,1,49.4999984893799,8|2,0:0|0:3,0:0:0:0:
291,328,46156,1,8,0:0:0:0:
331,204,46306,5,0,3:0:0:0:
271,333,46456,1,0,3:0:0:0:
392,257,46606,2,0,P|412:222|359:130,1,148.49999546814,10|2,0:0|0:0,0:0:0:0:
234,187,47206,2,0,B|186:190|165:155|184:139|157:92|105:100,1,148.49999546814,8|0,0:0|0:0,0:0:0:0:
185,8,47806,2,0,L|234:11,1,49.4999984893799,10|0,0:0|0:0,0:0:0:0:
45,79,48106,1,2,0:3:0:0:
45,79,48256,2,0,L|49:137,1,49.4999984893799,8|2,0:0|0:3,0:0:0:0:
105,9,48556,1,8,0:0:0:0:
194,195,48706,5,0,3:0:0:0:
129,33,48856,1,0,3:0:0:0:
2,196,49006,2,0,P|32:211|61:211,1,49.4999984893799,10|0,0:0|0:0,0:0:0:0:
167,295,49306,2,0,P|147:309|123:316,1,49.4999984893799,2|2,0:3|0:0,0:0:0:0:
269,201,49606,1,8,0:0:0:0:
269,201,49756,2,0,L|247:311,1,98.9999969787599,2|2,0:0|0:0,0:0:0:0:
114,173,50206,1,8,0:0:0:0:
114,173,50356,2,0,L|92:63,1,98.9999969787599,2|8,0:0|0:0,0:0:0:0:
213,81,50806,1,2,0:3:0:0:
47,216,50956,1,8,0:0:0:0:
240,91,51106,5,0,3:0:0:0:
82,34,51256,1,0,3:0:0:0:
254,171,51406,2,0,P|293:155|318:72,1,123.750004720688,12|2,0:0|0:3,0:0:0:0:
168,11,51856,1,2,0:2:0:0:
334,96,52006,2,0,P|319:154|267:184,1,123.750004720688,8|2,0:0|0:3,0:0:0:0:
96,215,52456,1,0,0:0:0:0:
239,87,52606,1,8,0:0:0:0:
192,297,52756,1,2,0:2:0:0:
145,95,52906,1,2,0:0:0:0:
145,95,53056,2,0,P|155:139|160:166,1,61.875002360344,10|2,0:0|0:2,0:0:0:0:
267,324,53356,1,10,0:0:0:0:
298,144,53506,5,4,0:3:0:0:
204,266,53656,1,4,0:3:0:0:
337,371,53806,2,0,P|355:291|364:242,1,123.750004720688,8|2,0:0|0:3,0:0:0:0:
293,88,54256,1,2,0:2:0:0:
399,243,54406,2,0,P|387:303|373:363,1,123.750004720688,8|2,0:0|0:3,0:0:0:0:
200,236,54856,1,0,0:0:0:0:
363,155,55006,1,8,0:0:0:0:
205,316,55156,1,2,0:2:0:0:
289,119,55306,1,2,0:3:0:0:
289,119,55456,2,0,L|216:137,1,61.875002360344,10|0,0:0|0:0,0:0:0:0:
0,108,55756,6,0,L|172:67,1,165,6|0,1:0|0:0,0:0:0:0:
277,136,56206,1,10,0:0:0:0:
208,6,56356,1,8,0:0:0:0:
356,64,56506,1,8,0:0:0:0:
212,193,56656,1,8,0:0:0:0:
302,0,56806,1,10,0:0:0:0:
459,161,56956,6,0,L|420:321,1,165,4|0,0:0|0:0,0:0:0:0:
331,198,57406,1,10,0:0:0:0:
499,82,57556,1,8,0:0:0:0:
316,7,57706,1,10,0:0:0:0:
459,161,57856,1,8,0:0:0:0:
290,0,58006,1,0,0:0:0:0:
236,217,58156,6,0,L|95:182,1,123.75,10|0,0:0|0:0,0:0:0:0:
81,178,58456,1,8,0:0:0:0:
420,313,60406,5,2,0:0:0:0:
420,313,60706,6,0,P|426:258|435:207,1,98.9999969787599,4|0,0:0|0:0,0:0:0:0:
242,110,61006,2,0,P|250:158|255:208,1,98.9999969787599,10|0,0:0|0:0,0:0:0:0:
363,41,61306,2,0,P|354:89|349:139,1,98.9999969787599,4|0,0:3|0:0,0:0:0:0:
145,41,61606,1,10,0:0:0:0:
283,283,61756,6,0,P|228:284|191:239,1,98.9999969787599,2|4,0:0|0:3,0:0:0:0:
26,196,62056,2,0,P|63:165|111:168,1,98.9999969787599,2|8,0:0|0:0,0:0:0:0:
199,343,62356,1,2,0:0:0:0:
199,343,62506,1,4,0:3:0:0:
281,157,62656,1,2,0:0:0:0:
118,313,62806,1,10,0:0:0:0:
357,226,62956,1,2,0:0:0:0:
61,374,63106,6,0,P|38:335|43:278,1,98.9999969787599,4|0,0:3|0:0,0:0:0:0:
231,124,63406,2,0,L|202:319,1,197.99999395752,10|4,0:0|0:3,0:0:0:0:
123,79,63856,1,2,0:0:0:0:
354,205,64006,2,0,L|256:219,1,98.9999969787599,8|2,0:0|0:0,0:0:0:0:
404,85,64306,5,4,0:3:0:0:
271,277,64456,1,2,0:0:0:0:
432,137,64606,1,8,0:0:0:0:
234,354,64756,2,0,B|201:329|168:309|168:309|191:250|217:180,1,197.99999395752,2|0,0:0|0:0,0:0:0:0:
474,337,65206,2,0,L|459:239,1,98.9999969787599,10|0,0:0|0:0,0:0:0:0:
417,39,65506,6,0,L|431:136,1,98.9999969787599,4|0,0:0|0:0,0:0:0:0:
319,272,65806,2,0,L|304:174,1,98.9999969787599,10|0,0:0|0:0,0:0:0:0:
506,72,66106,1,4,0:3:0:0:
418,267,66256,1,4,0:3:0:0:
314,56,66406,1,8,0:0:0:0:
500,225,66556,6,0,B|454:231|408:187|445:151|400:110|331:121,1,197.99999395752,6|6,0:0|0:3,0:0:0:0:
182,232,67006,2,0,P|127:264|69:251,1,98.9999969787599,8|4,0:0|0:0,0:0:0:0:
15,57,67306,1,2,0:0:0:0:
223,154,67456,1,4,0:3:0:0:
11,50,67606,1,10,0:0:0:0:
236,3,67756,1,2,0:0:0:0:
116,185,67906,6,0,L|101:71,1,98.9999969787599,4|0,0:3|0:0,0:0:0:0:
326,97,68206,2,0,L|296:324,1,197.99999395752,10|4,0:0|0:3,0:0:0:0:
408,185,68656,1,2,0:0:0:0:
211,373,68806,2,0,L|198:274,1,98.9999969787599,8|2,0:0|0:0,0:0:0:0:
421,269,69106,6,0,P|483:216|433:100,1,197.99999395752,4|8,0:3|0:0,0:0:0:0:
253,32,69556,2,0,L|240:130,1,98.9999969787599,2|4,0:0|0:3,0:0:0:0:
75,163,69856,2,0,L|65:110,2,49.4999984893799,4|8|10,0:3|0:0|0:0,0:0:0:0:
261,265,70156,1,4,0:3:0:0:
261,265,70231,1,8,0:0:0:0:
261,265,70306,6,0,P|325:240|334:185,1,98.9999969787599,4|0,0:0|0:0,0:0:0:0:
133,257,70606,2,0,L|145:355,1,98.9999969787599,14|0,0:0|0:0,0:0:0:0:
275,83,70906,2,0,L|262:181,1,98.9999969787599,4|0,0:3|0:0,0:0:0:0:
117,60,71206,1,10,0:0:0:0:
387,117,71356,6,0,P|332:149|274:136,1,98.9999969787599,2|4,0:0|0:3,0:0:0:0:
88,184,71656,2,0,P|136:185|176:213,1,98.9999969787599,2|8,0:0|0:0,0:0:0:0:
319,53,71956,1,2,0:0:0:0:
319,53,72106,1,4,0:3:0:0:
271,257,72256,1,2,0:0:0:0:
404,110,72406,1,10,0:0:0:0:
159,137,72556,6,0,L|257:150,1,98.9999969787599,2|4,0:0|0:3,0:0:0:0:
439,86,72856,1,0,0:0:0:0:
474,292,73006,2,0,B|327:311|327:311|286:272,1,197.99999395752,10|4,0:0|0:3,0:0:0:0:
381,135,73456,1,2,0:0:0:0:
219,336,73606,2,0,L|206:238,1,98.9999969787599,8|2,0:0|0:0,0:0:0:0:
244,46,73906,5,4,0:3:0:0:
102,238,74056,1,4,0:3:0:0:
25,22,74206,1,8,0:0:0:0:
176,205,74356,1,2,0:0:0:0:
176,205,74431,1,8,0:0:0:0:
176,205,74506,1,8,0:0:0:0:
103,110,74656,1,8,0:3:0:0:
187,121,74806,1,8,0:3:0:0:
92,194,74956,1,4,0:3:0:0:
233,278,75106,5,4,3:1:0:0:
233,278,75256,2,0,B|270:282|297:257|280:233|316:211|348:217,1,132,0|2,3:0|3:2,0:0:0:0:
464,273,75706,2,0,L|484:124,1,132,8|2,0:0|0:3,0:0:0:0:
394,46,76156,1,2,0:0:0:0:
333,210,76306,5,2,0:3:0:0:
333,210,76456,2,0,L|313:122,1,66,0|2,3:0|0:3,0:0:0:0:
224,62,76756,1,2,3:2:0:0:
224,62,76906,2,0,L|204:150,1,66,8|2,0:0|0:0,0:0:0:0:
171,262,77206,1,2,0:3:0:0:
40,142,77356,6,0,L|51:231,1,66,4|2,3:1|0:3,0:0:0:0:
176,345,77656,2,0,L|187:255,1,66,2|2,3:2|0:3,0:0:0:0:
124,167,77956,1,2,3:2:0:0:
262,313,78106,2,0,P|330:290|329:226,1,132,10|2,0:0|0:3,0:0:0:0:
142,180,78556,6,0,L|159:318,1,132,4|2,3:1|3:2,0:0:0:0:
292,127,79006,1,8,0:0:0:0:
251,304,79156,1,0,3:0:0:0:
207,102,79306,1,10,0:0:0:0:
346,294,79456,1,2,3:2:0:0:
346,294,79531,1,0,3:0:0:0:
346,294,79606,1,8,0:0:0:0:
346,294,79906,5,4,0:0:0:0:
474,121,80056,1,4,0:3:0:0:
335,207,80206,2,0,P|294:204|262:179,1,82.5,8|2,0:0|0:2,0:0:0:0:
107,101,80506,2,0,P|139:76|179:73,1,82.5,2|2,0:3|0:2,0:0:0:0:
287,283,80806,1,8,0:0:0:0:
280,43,80956,6,0,L|265:124,1,82.5,2|2,0:2|0:3,0:0:0:0:
185,303,81256,1,2,0:2:0:0:
185,303,81406,2,0,L|167:201,1,82.5,8|2,0:0|0:2,0:0:0:0:
366,273,81706,1,2,0:3:0:0:
154,375,81856,2,0,L|136:273,1,82.5,8|2,0:0|0:3,0:0:0:0:
322,211,82156,1,8,0:0:0:0:
90,116,82306,5,4,0:3:0:0:
244,241,82456,1,4,0:3:0:0:
33,174,82606,2,0,P|11:137|17:80,1,82.5,8|2,0:0|0:2,0:0:0:0:
184,9,82906,2,0,P|206:46|200:103,1,82.5,2|2,0:3|0:2,0:0:0:0:
136,220,83206,1,8,0:0:0:0:
315,90,83356,6,0,P|304:131|259:167,1,82.5,2|2,0:2|0:3,0:0:0:0:
113,77,83656,1,4,0:3:0:0:
250,277,83806,2,0,L|349:267,1,82.5,8|4,0:0|0:3,0:0:0:0:
455,154,84106,1,8,0:0:0:0:
455,154,84181,1,8,0:0:0:0:
455,154,84256,2,0,L|463:100,1,41.25,8|8,0:3|0:3,0:0:0:0:
314,89,84406,1,4,0:3:0:0:
314,89,84481,1,4,0:3:0:0:
314,89,84556,2,0,L|322:143,1,41.25,4|4,0:3|0:3,0:0:0:0:
354,348,84706,6,0,L|340:249,1,98.9999969787599,12|4,0:0|0:3,0:0:0:0:
168,101,85006,1,6,0:3:0:0:
247,308,85156,2,0,L|260:209,1,98.9999969787599,12|6,0:0|0:3,0:0:0:0:
43,225,85456,1,4,0:3:0:0:
143,19,85606,6,0,L|156:117,1,98.9999969787599,14|6,0:0|0:3,0:0:0:0:
118,281,85906,1,4,0:3:0:0:
118,281,86056,1,14,0:0:0:0:
243,123,86206,1,4,0:3:0:0:
45,216,86356,1,4,0:3:0:0:
264,153,86506,1,12,0:0:0:0:
36,48,86656,1,4,0:3:0:0:
265,17,86806,1,12,0:0:0:0:
113,146,86956,1,4,0:3:0:0:
308,226,87106,5,8,0:0:0:0:
149,76,87256,1,8,0:3:0:0:
109,67,87331,1,8,0:3:0:0:
70,79,87406,1,10,0:3:0:0:
42,109,87481,1,4,0:3:0:0:
33,149,87556,1,12,0:0:0:0:
46,188,87631,1,0,0:0:0:0:
76,215,87706,2,0,L|133:205,1,49.4999984893799,10|8,0:3|0:3,0:0:0:0:
197,147,87856,2,0,L|254:157,1,49.4999984893799,8|4,0:3|0:3,0:0:0:0:
334,177,88006,1,14,0:0:0:0:
184,0,88156,5,2,3:2:0:0:
