osu file format v14

[General]
AudioFilename: Rock oooooon.mp3
AudioLeadIn: 0
PreviewTime: 63297
Countdown: 0
SampleSet: Soft
StackLeniency: 0.7
Mode: 0
LetterboxInBreaks: 0
WidescreenStoryboard: 0

[Editor]
DistanceSpacing: 1
BeatDivisor: 4
GridSize: 4
TimelineZoom: 1.78

[Metadata]
Title:Rock on.
TitleUnicode:Rock on.
Artist:nano
ArtistUnicode:ナノ
Creator:eINess
Version:Insane
Source:劇場版 蒼き鋼のアルペジオ - アルス・ノヴァ - DC
Tags:movie ending Aoki Hagane no Arpeggio of Blue Steel Ars Nova
BeatmapID:788219
BeatmapSetID:358451

[Difficulty]
HPDrainRate:7
CircleSize:4
OverallDifficulty:7
ApproachRate:9
SliderMultiplier:1.74
SliderTickRate:1

[Events]
//Background and Video events
0,0,"nano.jpg",0,0
//Break Periods
//Storyboard Layer 0 (Background)
//Storyboard Layer 1 (Fail)
//Storyboard Layer 2 (Pass)
//Storyboard Layer 3 (Foreground)
//Storyboard Sound Samples

[TimingPoints]
1871,500,4,2,2,15,1,0
2871,491.803278688525,4,2,2,15,1,0
3854,670.391061452514,4,2,2,15,1,0
7708,474.308300395257,4,2,2,15,1,0
9871,666.666666666667,4,2,2,15,1,0
10856,731.707317073171,4,2,2,15,1,0
11189,677.966101694915,4,2,2,15,1,0
12544,474.308300395257,4,2,2,15,1,0
13018,508.474576271186,4,2,2,15,1,0
15208,666.666666666667,4,2,2,15,1,0
20527,952.380952380952,4,2,2,15,1,0
21023,952.380952380952,4,2,2,15,1,0
22511,681.818181818182,4,2,2,20,1,0
23192,315.789473684211,4,1,1,25,1,0
23192,-125,4,1,1,25,0,0
32665,-125,4,2,2,45,0,0
32823,-125,4,2,1,45,0,0
33297,-111.111111111111,4,2,2,55,0,0
40876,-90.9090909090909,4,2,1,85,0,0
43402,-100,4,2,1,75,0,0
61086,-100,4,2,2,55,0,0
63455,-100,4,2,1,85,0,1
73481,-100,4,2,1,85,0,0
73560,-100,4,2,1,85,0,1
83586,-100,4,2,1,85,0,0
83665,-100,4,2,1,85,0,1
91402,-100,4,2,1,85,0,0
93297,-100,4,2,1,60,0,0
93455,-100,4,2,1,70,0,0

[Colours]
Combo1 : 0,0,255
Combo2 : 155,234,251
Combo3 : 81,81,255
Combo4 : 81,168,255

[HitObjects]
216,292,1871,5,2,0:0:0:0:
272,224,2371,1,0,0:0:0:0:
224,152,2871,1,2,0:0:0:0:
168,92,4524,6,0,P|112:100|24:64,2,130.5,2|0|2,0:0|0:0|0:0,0:0:0:0:
336,136,7205,5,2,0:0:0:0:
260,288,7708,1,0,0:0:0:0:
420,236,8182,1,2,0:0:0:0:
152,68,9871,6,0,L|156:208,1,130.5,2|0,0:0|0:0,0:0:0:0:
120,340,10856,1,2,0:0:0:0:
264,300,11189,1,2,0:0:0:0:
260,276,11866,1,2,0:0:0:0:
256,248,12544,5,2,0:0:0:0:
296,172,13018,1,0,0:0:0:0:
256,100,13526,1,2,0:0:0:0:
332,60,15208,6,0,P|392:80|448:156,2,130.5,2|0|2,0:0|0:0|0:0,0:0:0:0:
180,152,17874,6,0,L|32:164,1,130.5,2|0,0:0|0:0,0:0:0:0:
8,272,18874,1,2,0:0:0:0:
96,336,20527,5,2,0:0:0:0:
252,304,21023,1,0,0:0:0:0:
184,192,21499,1,2,0:0:0:0:
184,192,22511,6,0,L|192:80,1,87,2|0,0:0|0:0,0:0:0:0:
264,76,23022,2,0,L|264:112,1,21.75,2|0,0:1|0:0,0:0:0:0:
304,160,23192,6,0,P|360:140|460:176,1,139.2,6|0,0:0|0:0,0:0:0:0:
480,224,23665,2,0,P|488:264|484:312,1,69.6,0|0,0:0|0:0,0:0:0:0:
424,352,23981,1,2,0:0:0:0:
344,316,24139,1,2,0:0:0:0:
256,352,24297,2,0,P|180:360|116:312,1,139.2,2|2,0:0|0:0,0:0:0:0:
72,172,25560,6,0,L|76:232,1,34.8,2|0,0:0|0:0,0:0:0:0:
152,232,25718,6,0,L|144:72,1,139.2,2|0,0:0|0:0,0:0:0:0:
232,32,26192,2,0,P|280:24|324:32,1,69.6,2|0,0:0|0:0,0:0:0:0:
448,132,26507,2,0,P|400:116|372:100,1,69.6,2|2,0:0|0:0,0:0:0:0:
296,180,26823,2,0,P|306:229|306:261,1,69.6,2|0,0:0|0:0,0:0:0:0:
224,324,27139,1,2,0:0:0:0:
224,324,28086,6,0,L|264:328,1,34.8,2|0,0:0|0:0,0:0:0:0:
328,308,28244,6,0,L|176:316,1,139.2,2|0,0:0|0:0,0:0:0:0:
92,260,28718,2,0,P|104:216|136:176,1,69.6,2|0,0:0|0:0,0:0:0:0:
240,176,29034,1,2,0:0:0:0:
128,188,29192,1,2,0:0:0:0:
80,88,29349,2,0,L|240:72,1,139.2,2|2,0:0|0:0,0:0:0:0:
384,160,30613,6,0,L|376:212,1,34.8,2|0,0:0|0:0,0:0:0:0:
424,260,30770,6,0,P|380:236|280:288,1,139.2,2|0,0:0|0:0,0:0:0:0:
200,340,31244,2,0,P|143:319|115:292,1,69.6,2|0,0:0|0:0,0:0:0:0:
56,240,31560,1,2,0:0:0:0:
12,336,31718,1,2,0:0:0:0:
64,232,31876,6,0,L|52:76,2,139.2,2|2|2,0:0|0:0|0:0,0:0:0:0:
136,314,32665,2,0,P|166:331|200:340,1,69.6,2|4,0:0|0:3,0:0:0:0:
296,288,32981,2,0,P|288:248|284:200,1,69.6,2|0,0:0|0:0,0:0:0:0:
428,144,33297,6,0,P|416:228|412:312,1,156.599995220947,6|0,0:0|0:0,0:0:0:0:
504,264,33770,1,0,0:0:0:0:
344,176,33928,2,0,P|349:135|361:88,1,69.6,2|0,0:0|0:0,0:0:0:0:
416,48,34244,1,0,0:0:0:0:
248,116,34402,1,0,0:0:0:0:
248,116,34481,1,0,0:0:0:0:
248,116,34560,6,0,P|192:112|148:80,1,78.2999976104737,2|0,0:0|0:0,0:0:0:0:
24,136,34876,2,0,P|84:168|104:196,1,78.2999976104737,0|0,0:0|0:0,0:0:0:0:
104,312,35192,2,0,P|120:268|152:236,1,78.2999976104737,2|0,0:0|0:0,0:0:0:0:
216,220,35507,1,0,0:0:0:0:
300,312,35665,1,0,0:0:0:0:
300,312,35744,1,0,0:0:0:0:
300,312,35823,6,0,L|408:320,1,78.2999976104737,2|0,0:0|0:0,0:0:0:0:
452,244,36139,1,0,0:0:0:0:
368,176,36297,1,0,0:0:0:0:
368,176,36376,1,0,0:0:0:0:
368,176,36455,1,2,0:0:0:0:
360,68,36613,1,0,0:0:0:0:
260,204,36770,2,0,P|204:200|172:176,1,78.2999976104737,0|0,0:0|0:0,0:0:0:0:
32,160,37086,6,0,P|75:195|88:233,1,78.2999976104737,2|0,0:0|0:0,0:0:0:0:
96,336,37402,2,0,P|108:256|172:184,1,156.599995220947,0|2,0:0|0:0,0:0:0:0:
184,332,37876,2,0,P|200:272|224:252,1,78.2999976104737,0|0,0:0|0:0,0:0:0:0:
428,140,38349,6,0,L|264:128,1,156.599995220947,2|0,0:0|0:0,0:0:0:0:
128,36,38823,2,0,P|160:88|164:112,1,78.2999976104737,2|0,0:0|0:0,0:0:0:0:
52,200,39139,2,0,P|100:176|136:176,1,78.2999976104737,0|0,0:0|0:0,0:0:0:0:
208,256,39455,6,0,P|272:264|304:248,1,78.2999976104737,2|0,0:0|0:0,0:0:0:0:
352,176,39770,1,0,0:0:0:0:
288,344,39928,2,0,P|336:320|360:284,1,78.2999976104737,2|0,0:0|0:0,0:0:0:0:
448,184,40244,2,0,P|380:172|344:152,1,78.2999976104737,0|0,0:0|0:0,0:0:0:0:
280,56,40560,1,2,0:0:0:0:
280,56,40718,1,0,0:0:0:0:
280,56,40876,6,0,P|273:155|268:264,1,191.400005841065,6|2,0:0|0:0,0:0:0:0:
107,270,41349,2,0,P|154:281|199:296,1,95.7000029205323,8|2,0:0|0:0,0:0:0:0:
60,352,41665,1,2,0:0:0:0:
48,176,41823,2,0,P|95:180|142:188,1,95.7000029205323,8|2,0:0|0:0,0:0:0:0:
336,212,42139,6,0,P|280:224|236:220,1,95.7000029205323,8|2,0:0|0:0,0:0:0:0:
164,72,42455,2,0,P|176:132|168:176,1,95.7000029205323,8|0,0:0|0:0,0:0:0:0:
107,270,42770,2,0,P|152:312|248:308,1,143.550004380798,8|8,0:0|0:0,0:0:0:0:
252,308,43086,2,0,P|316:292|400:356,1,143.550004380798,8|8,0:0|0:0,0:0:0:0:
396,348,43402,6,0,P|416:272|436:232,1,87,6|0,0:0|0:0,0:0:0:0:
500,148,43718,2,0,P|440:152|404:144,1,87,8|0,0:0|0:0,0:0:0:0:
304,64,44034,2,0,L|112:84,1,174,2|8,0:0|0:0,0:0:0:0:
44,224,44507,6,0,L|217:209,1,174,2|2,0:0|0:0,0:0:0:0:
360,320,44981,2,0,P|296:320|248:296,1,87,8|2,0:0|0:0,0:0:0:0:
228,208,45297,1,0,0:0:0:0:
292,120,45455,1,2,0:0:0:0:
216,28,45613,2,0,P|172:30|108:44,1,87,8|0,0:0|0:0,0:0:0:0:
292,120,45928,6,0,L|480:104,1,174,6|8,0:0|0:0,0:0:0:0:
326,218,46402,2,0,L|240:224,1,87,0|2,0:0|0:0,0:0:0:0:
120,176,46718,1,2,0:0:0:0:
140,344,46876,2,0,L|128:240,1,87,8|2,0:0|0:0,0:0:0:0:
108,96,47192,5,0,0:0:0:0:
44,232,47349,1,2,0:0:0:0:
208,164,47507,2,0,L|192:60,1,87,8|2,0:0|0:0,0:0:0:0:
340,24,47823,2,0,L|326:109,1,87,0|0,0:0|0:0,0:0:0:0:
456,184,48139,2,0,L|442:98,1,87,8|0,0:0|0:0,0:0:0:0:
312,192,48455,6,0,L|325:277,1,87,6|0,0:0|0:0,0:0:0:0:
424,360,48770,2,0,P|348:312|260:336,1,174,8|2,0:0|0:0,0:0:0:0:
180,372,49244,1,2,0:0:0:0:
68,232,49402,2,0,P|68:184|84:128,1,87,8|2,0:0|0:0,0:0:0:0:
232,60,49718,6,0,B|176:72|176:72|32:56,1,174,6|8,0:0|0:0,0:0:0:0:
76,146,50192,2,0,L|204:164,1,87,2|0,0:0|0:0,0:0:0:0:
240,248,50507,1,2,0:0:0:0:
360,64,50665,2,0,P|365:107|365:150,1,87,8|0,0:0|0:0,0:0:0:0:
164,228,50981,6,0,P|224:172|312:216,1,174,6|8,0:0|0:0,0:0:0:0:
428,332,51455,2,0,B|376:348|376:348|244:328,1,174,0|2,0:0|0:0,0:0:0:0:
72,344,51928,2,0,P|136:312|144:284,1,87,8|0,0:0|0:0,0:0:0:0:
24,164,52244,5,0,0:0:0:0:
12,260,52402,1,2,0:0:0:0:
164,228,52560,1,8,0:0:0:0:
140,112,52718,1,8,0:0:0:0:
140,112,52797,1,8,0:0:0:0:
140,112,52876,2,0,P|140:55|144:20,1,87,8|2,0:0|0:0,0:0:0:0:
292,112,53192,2,0,P|291:168|288:204,1,87,8|2,0:3|0:0,0:0:0:0:
164,228,53507,6,0,L|352:256,1,174,6|2,0:0|0:0,0:0:0:0:
484,344,53981,2,0,P|424:300|452:180,1,174,8|2,0:0|0:0,0:0:0:0:
344,336,54455,1,8,0:0:0:0:
504,256,54613,1,2,0:0:0:0:
392,136,54770,6,0,L|284:148,1,87,2|8,0:0|0:0,0:0:0:0:
152,112,55086,2,0,P|133:69|130:24,1,87,0|2,0:0|0:0,0:0:0:0:
265,42,55402,1,8,0:0:0:0:
232,208,55560,1,2,0:0:0:0:
152,112,55718,1,8,0:0:0:0:
344,160,55876,1,2,0:0:0:0:
228,304,56034,6,0,P|148:256|140:176,1,174,6|2,0:0|0:0,0:0:0:0:
265,42,56507,2,0,B|273:96|273:96|232:208,1,174,8|2,0:0|0:0,0:0:0:0:
312,364,56981,1,8,0:0:0:0:
308,344,57060,1,8,0:0:0:0:
304,324,57139,1,8,0:0:0:0:
300,304,57218,1,8,0:0:0:0:
296,284,57297,6,0,L|388:292,1,87,4|4,0:3|0:3,0:0:0:0:
464,216,57613,1,4,0:3:0:0:
468,196,57692,1,2,0:0:0:0:
472,176,57771,1,4,0:3:0:0:
476,156,57850,1,2,0:0:0:0:
480,136,57929,2,0,L|388:144,1,87,8|2,0:0|0:0,0:0:0:0:
265,42,58244,1,2,0:0:0:0:
328,200,58402,1,4,3:0:0:0:
192,104,58560,6,0,B|144:84|144:84|80:128|88:192,1,174,6|2,0:0|0:0,0:0:0:0:
200,328,59034,2,0,P|128:260|40:300,1,174,8|2,0:0|0:0,0:0:0:0:
112,352,59507,1,8,0:0:0:0:
200,200,59665,1,2,0:0:0:0:
200,200,59744,1,2,0:0:0:0:
200,200,59823,6,0,L|316:208,1,87,2|0,0:0|0:0,0:0:0:0:
392,120,60139,1,2,0:0:0:0:
392,120,60297,1,2,0:0:0:0:
336,296,60455,1,8,0:0:0:0:
476,244,60613,1,4,3:0:0:0:
384,208,60770,1,8,0:3:0:0:
416,352,60928,1,2,0:0:0:0:
228,300,61086,1,2,0:0:0:0:
228,300,62507,6,0,L|108:316,2,87
372,284,62981,1,0,0:0:0:0:
284,224,63139,1,0,0:0:0:0:
304,360,63297,1,0,0:0:0:0:
388,252,63455,6,0,L|372:64,1,174,6|0,0:0|0:0,0:0:0:0:
476,284,63928,2,0,L|467:197,1,87,8|0,0:0|0:0,0:0:0:0:
297,273,64244,2,0,L|305:377,1,87,2|2,0:0|0:0,0:0:0:0:
220,224,64560,2,0,P|172:224|128:244,1,87,8|0,0:0|0:0,0:0:0:0:
20,352,64876,6,0,P|56:312|64:264,1,87,6|0,0:0|0:0,0:0:0:0:
24,148,65192,2,0,P|24:100|32:40,1,87,8|0,0:0|0:0,0:0:0:0:
172,44,65507,2,0,P|172:108|156:176,1,130.5,2|0,0:0|0:0,0:0:0:0:
157,172,65823,1,8,0:0:0:0:
292,96,65981,1,2,0:0:0:0:
292,96,66060,1,2,0:0:0:0:
292,96,66139,6,0,L|404:108,1,87,6|0,0:0|0:0,0:0:0:0:
376,232,66455,2,0,L|484:248,1,87,8|0,0:0|0:0,0:0:0:0:
264,292,66770,2,0,L|372:308,1,87,2|0,0:0|0:0,0:0:0:0:
148,348,67086,2,0,L|256:364,1,87,8|0,0:0|0:0,0:0:0:0:
372,308,67402,5,6,0:0:0:0:
255,209,67560,1,0,0:0:0:0:
424,96,67718,2,0,P|420:139|405:179,1,87,8|0,0:0|0:0,0:0:0:0:
349,38,68034,2,0,L|237:26,1,87,2|2,0:0|0:0,0:0:0:0:
237,26,68270,1,8,0:0:0:0:
237,26,68349,1,8,0:0:0:0:
124,124,68507,6,0,P|108:80|108:24,1,87,6|0,0:0|0:0,0:0:0:0:
220,156,68823,1,2,0:0:0:0:
116,264,68981,2,0,L|24:248,1,87,8|0,0:0|0:0,0:0:0:0:
148,348,69297,1,2,0:0:0:0:
148,348,69376,1,0,0:0:0:0:
148,348,69455,1,0,0:0:0:0:
256,256,69613,2,0,L|252:148,1,87,8|0,0:0|0:0,0:0:0:0:
452,116,69928,6,0,P|380:148|304:96,1,174,6|8,0:0|0:0,0:0:0:0:
176,40,70402,1,0,0:0:0:0:
176,40,70481,1,0,0:0:0:0:
176,40,70560,2,0,P|140:71|106:124,1,87,2|2,0:0|0:0,0:0:0:0:
256,256,70876,2,0,P|240:188|220:152,1,87,8|2,0:0|0:0,0:0:0:0:
40,208,71192,6,0,P|96:232|152:236,1,87,8|2,0:0|0:0,0:0:0:0:
132,336,71507,2,0,P|188:313|230:276,1,87,8|2,0:0|0:0,0:0:0:0:
308,376,71823,2,0,P|331:319|335:263,1,87,8|2,0:0|0:0,0:0:0:0:
480,328,72139,2,0,P|457:271|420:229,1,87,8|2,0:0|0:0,0:0:0:0:
280,160,72455,5,8,0:0:0:0:
256,256,72613,1,2,0:0:0:0:
404,152,72770,1,8,0:0:0:0:
248,72,72928,1,2,0:0:0:0:
248,72,73007,1,2,0:0:0:0:
248,72,73086,1,2,0:0:0:0:
368,248,73244,2,0,L|476:236,1,87,8|0,0:0|0:0,0:0:0:0:
272,360,73560,6,0,P|240:360|152:256,1,174,6|0,0:0|0:0,0:0:0:0:
280,160,74034,1,8,0:0:0:0:
256,256,74192,1,0,0:0:0:0:
148,128,74349,2,0,L|140:28,1,87,2|0,0:0|0:0,0:0:0:0:
336,97,74665,2,0,P|314:133|279:159,1,87,8|0,0:0|0:0,0:0:0:0:
87,252,74981,6,0,P|171:236|256:256,1,174,6|8,0:0|0:0,0:0:0:0:
408,360,75455,1,0,0:0:0:0:
408,360,75613,2,0,P|380:306|371:262,1,87,2|0,0:0|0:0,0:0:0:0:
460,148,75928,1,8,0:0:0:0:
336,97,76086,1,2,0:0:0:0:
336,97,76165,1,2,0:0:0:0:
336,97,76244,6,0,P|264:103|212:116,1,87,6|0,0:0|0:0,0:0:0:0:
112,280,76560,2,0,P|141:228|146:190,1,87,8|0,0:0|0:0,0:0:0:0:
64,40,76876,1,2,0:0:0:0:
0,128,77034,1,0,0:0:0:0:
168,192,77192,1,8,0:0:0:0:
100,128,77349,1,0,0:0:0:0:
112,280,77507,6,0,P|184:296|264:232,1,174,6|8,0:0|0:0,0:0:0:0:
224,92,77981,1,0,0:0:0:0:
168,192,78139,1,2,0:0:0:0:
308,308,78297,1,8,0:0:0:0:
308,308,78376,1,8,0:0:0:0:
308,308,78455,1,8,0:0:0:0:
112,360,78613,6,0,P|64:344|36:304,1,87,6|0,0:0|0:0,0:0:0:0:
60,200,78928,1,2,0:0:0:0:
212,260,79086,2,0,L|392:268,1,174,8|2,0:0|0:0,0:0:0:0:
192,340,79560,2,0,L|292:348,1,87,0|8,0:0|0:0,0:0:0:0:
412,304,79876,1,0,0:0:0:0:
312,192,80034,6,0,P|292:132|388:44,1,174,6|8,0:0|0:0,0:0:0:0:
220,176,80507,1,0,0:0:0:0:
384,136,80665,2,0,L|488:144,1,87,2|2,0:0|0:0,0:0:0:0:
280,56,80981,2,0,L|176:64,1,87,8|0,0:0|0:0,0:0:0:0:
76,140,81297,5,8,0:0:0:0:
76,140,81455,1,2,0:0:0:0:
220,176,81613,1,8,0:0:0:0:
220,176,81771,1,2,0:0:0:0:
80,280,81928,1,8,0:0:0:0:
236,340,82086,1,2,0:0:0:0:
208,168,82244,2,0,L|200:280,1,87,8|2,0:0|0:0,0:0:0:0:
360,352,82560,6,0,L|344:168,1,174,6|8,0:0|0:0,0:0:0:0:
440,260,83034,1,0,0:0:0:0:
440,260,83113,1,2,0:0:0:0:
440,260,83192,1,2,0:0:0:0:
272,316,83349,2,0,P|205:294|178:267,1,87,8|0,0:0|0:0,0:0:0:0:
34,185,83665,6,0,L|207:167,1,174,6|0,0:0|0:0,0:0:0:0:
352,56,84139,2,0,L|252:48,1,87,8|0,0:0|0:0,0:0:0:0:
432,68,84455,1,2,0:0:0:0:
312,144,84613,1,0,0:0:0:0:
440,260,84770,1,8,0:0:0:0:
436,160,84928,1,2,0:0:0:0:
276,236,85086,6,0,L|292:348,1,87,6|0,0:0|0:0,0:0:0:0:
144,352,85402,2,0,L|156:160,1,174,8|2,0:0|0:0,0:0:0:0:
76,292,85876,1,0,0:0:0:0:
248,220,86034,1,8,0:0:0:0:
96,128,86192,1,8,0:0:0:0:
96,128,86270,1,8,0:0:0:0:
96,128,86349,6,0,P|92:76|112:32,1,87,6|0,0:0|0:0,0:0:0:0:
256,32,86665,2,0,P|260:92|240:136,1,87,8|0,0:0|0:0,0:0:0:0:
148,264,86981,2,0,L|332:252,1,174,6|8,0:0|0:0,0:0:0:0:
384,352,87455,1,0,0:0:0:0:
496,200,87613,6,0,L|484:292,1,87,6|0,0:0|0:0,0:0:0:0:
332,148,87928,2,0,L|344:240,1,87,8|0,0:0|0:0,0:0:0:0:
476,108,88244,1,2,0:0:0:0:
352,32,88402,1,2,0:0:0:0:
332,36,88481,1,2,0:0:0:0:
312,40,88560,1,4,0:3:0:0:
292,44,88639,1,2,0:0:0:0:
272,48,88718,6,0,L|80:32,1,174,6|2,0:0|0:0,0:0:0:0:
36,172,89192,2,0,L|148:164,1,87,8|0,0:0|0:0,0:0:0:0:
236,272,89507,1,2,0:0:0:0:
144,288,89665,1,0,0:0:0:0:
264,180,89823,1,8,0:0:0:0:
296,352,89981,1,0,0:0:0:0:
272,168,90139,6,0,L|280:64,1,87,6|0,0:0|0:0,0:0:0:0:
436,32,90455,2,0,L|442:118,1,87,8|0,0:0|0:0,0:0:0:0:
348,216,90770,1,0,0:0:0:0:
492,268,90928,1,2,0:0:0:0:
328,248,91086,2,0,L|336:356,1,87,8|0,0:0|0:0,0:0:0:0:
184,368,91402,5,6,0:0:0:0:
236,272,91560,1,2,0:0:0:0:
144,188,91718,2,0,L|140:68,1,87,8|0,0:0|0:0,0:0:0:0:
29,240,92034,2,0,L|25:124,1,87,8|0,0:0|0:0,0:0:0:0:
204,288,92349,5,6,0:0:0:0:
52,344,92507,1,0,0:0:0:0:
236,272,92665,2,0,L|360:288,1,87,8|0,0:0|0:0,0:0:0:0:
432,136,92981,2,0,L|308:152,1,87,8|2,0:0|0:0,0:0:0:0:
324,152,93218,1,2,0:0:0:0:
324,152,93297,5,2,0:1:0:0:
168,56,93455,1,2,1:0:0:0:
