osu file format v14

[General]
AudioFilename: audio.mp3
AudioLeadIn: 0
PreviewTime: 62438
Countdown: 0
SampleSet: Soft
StackLeniency: 0.7
Mode: 0
LetterboxInBreaks: 0
WidescreenStoryboard: 1

[Editor]
Bookmarks: 15695,33287,68971,78603,93445
DistanceSpacing: 1.4
BeatDivisor: 4
GridSize: 4
TimelineZoom: 1.7

[Metadata]
Title:Rock on.
TitleUnicode:Rock on.
Artist:nano
ArtistUnicode:ナノ
Creator:PikAqours
Version:Insane
Source:劇場版 蒼き鋼のアルペジオ - アルス・ノヴァ - DC
Tags:movie ending anime japanese TheSea Mnyui Cycopton Wanpachi Kujinn Reform jp cut ver short version arpeggio of blue steel ‑ars nova rock jrock theme song gekijou ban aoki hagane no
BeatmapID:2299368
BeatmapSetID:1099953

[Difficulty]
HPDrainRate:5.2
CircleSize:3.4
OverallDifficulty:8
ApproachRate:9
SliderMultiplier:1.4
SliderTickRate:1

[Events]
//Background and Video events
0,0,"bg.jpg",0,0
//Break Periods
//Storyboard Layer 0 (Background)
//Storyboard Layer 1 (Fail)
//Storyboard Layer 2 (Pass)
//Storyboard Layer 3 (Foreground)
//Storyboard Layer 4 (Overlay)
//Storyboard Sound Samples

[TimingPoints]
-8805,666.6666666667,4,2,1,25,1,0
1861,-142.857142857143,4,2,1,25,0,0
22528,-181.818181818182,4,2,1,25,0,0
23043,315.7894736842,4,2,1,25,1,0
23202,315.7894736842,4,2,1,45,1,0
23202,-125,4,2,1,45,0,0
33307,-105.263157894737,4,2,1,55,0,0
40886,-86.9565217391304,4,2,1,70,0,0
43412,-90.9090909090868,4,2,1,65,0,0
62517,-133.333333333333,4,2,1,45,0,0
63385,-133.333333333333,4,2,1,5,0,0
63465,-86.9565217391304,4,2,1,70,0,1
83675,-90.9090909090909,4,2,1,65,0,0
91412,-90.9090909090909,4,2,1,70,0,0

[Colours]
Combo1 : 64,128,128
Combo2 : 128,64,64
Combo3 : 128,128,255

[HitObjects]
267,245,1861,6,0,P|257:218|258:158,2,73.4999977569581,2|2|2,2:0|2:0|2:0,2:0:0:0:
159,151,4528,2,0,P|171:124|214:83,2,73.4999977569581,2|2|2,2:0|2:0|2:0,2:0:0:0:
327,187,7195,6,0,L|234:169,2,73.4999977569581,2|0|0,2:0|2:0|2:0,2:0:0:0:
406,140,9861,2,0,L|478:126,2,73.4999977569581,2|0|2,2:0|2:0|2:0,2:0:0:0:
312,121,11194,2,0,P|308:167|337:215,1,97.9999970092774,0|2,2:0|2:0,2:0:0:0:
427,344,12528,6,0,L|515:328,2,73.4999977569581,2|2|2,2:0|2:0|2:0,2:0:0:0:
330,297,15195,2,0,L|242:281,2,73.4999977569581,2|2|2,2:0|2:0|2:0,2:0:0:0:
246,212,17861,6,0,P|258:257|255:297,2,73.4999977569581,2|2|2,2:0|2:0|2:0,2:0:0:0:
159,269,20528,2,0,P|135:309|105:335,2,73.4999977569581,2|0|0,2:0|2:0|2:0,2:0:0:0:
150,221,22528,2,0,L|155:265,1,38.5000011749268,2|2,2:0|2:0,2:0:0:0:
81,162,23202,6,0,P|127:132|194:144,1,112,6|2,1:2|2:0,2:0:0:0:
315,167,23675,2,0,P|289:182|263:187,1,56,2|0,2:0|2:0,2:0:0:0:
261,91,23991,1,2,2:0:0:0:
261,91,24149,1,2,2:0:0:0:
348,51,24307,2,0,P|398:71|455:80,1,112,2|2,2:0|2:0,2:0:0:0:
425,283,25570,1,2,2:0:0:0:
425,283,25649,1,2,2:0:0:0:
425,283,25728,6,0,B|365:273|367:306|301:295,1,112,2|2,2:0|2:0,2:0:0:0:
240,239,26201,2,0,P|215:225|188:220,1,56,2|0,2:0|2:0,2:0:0:0:
108,276,26517,1,2,2:0:0:0:
108,276,26675,1,2,2:0:0:0:
35,205,26833,2,0,B|26:167|26:167|52:74,1,112,2|2,2:0|2:0,2:0:0:0:
163,112,28096,1,2,2:0:0:0:
163,112,28175,1,2,2:0:0:0:
163,112,28254,6,0,P|208:162|264:166,1,112,2|2,2:0|2:0,2:0:0:0:
280,34,28728,2,0,P|259:53|248:79,1,56,2|0,2:0|2:0,2:0:0:0:
340,109,29044,1,2,2:0:0:0:
340,109,29201,1,2,2:0:0:0:
420,55,29359,2,0,B|438:94|438:94|418:160,1,112,2|2,2:0|2:0,2:0:0:0:
359,317,30623,1,2,2:0:0:0:
359,317,30701,1,2,2:0:0:0:
359,317,30780,6,0,L|334:185,1,112,2|0,2:0|2:0,2:0:0:0:
250,153,31254,2,0,L|233:226,1,56,2|0,2:0|2:0,2:0:0:0:
220,301,31570,1,2,2:0:0:0:
220,301,31728,1,2,2:0:0:0:
140,236,31886,2,0,L|127:181,1,56,2|0,2:0|2:0,2:0:0:0:
47,127,32201,2,0,L|20:256,1,112,2|2,2:0|2:0,2:0:0:0:
96,367,32675,2,0,L|166:379,1,56,2|2,2:0|2:0,2:0:0:0:
275,291,32991,2,0,L|205:303,1,56,2|0,2:0|2:0,2:0:0:0:
362,358,33307,6,0,P|385:289|358:227,1,132.999996448517,6|0,1:2|2:0,2:0:0:0:
261,107,33938,2,0,P|224:93|178:95,1,66.4999982242585,2|2,2:0|2:0,2:0:0:0:
74,202,34254,1,0,2:0:0:0:
74,202,34412,2,0,L|205:184,1,132.999996448517,2|2,2:0|2:0,2:0:0:0:
261,107,34886,1,2,2:0:0:0:
261,107,35044,1,2,2:0:0:0:
349,169,35201,1,2,2:0:0:0:
349,169,35359,2,0,L|330:233,1,66.4999982242585,2|0,2:0|2:0,2:0:0:0:
188,250,35675,1,2,2:0:0:0:
188,250,35754,1,2,2:0:0:0:
188,250,35833,6,0,P|238:210|265:206,1,66.4999982242585,2|0,2:0|2:0,2:0:0:0:
327,325,36149,2,0,P|267:301|249:280,1,66.4999982242585,2|0,2:0|2:0,2:0:0:0:
330,232,36465,1,2,2:0:0:0:
330,232,36623,1,2,2:0:0:0:
417,289,36780,2,0,P|450:285|481:263,1,66.4999982242585,2|2,2:0|2:0,2:0:0:0:
436,126,37096,6,0,B|415:189,1,66.4999982242585,2|0,2:0|2:0,2:0:0:0:
323,74,37412,1,2,2:0:0:0:
323,74,37570,2,0,L|338:139,1,66.4999982242585,2|0,2:0|2:0,2:0:0:0:
245,22,37886,2,0,B|214:155,1,132.999996448517,2|0,2:0|2:0,2:0:0:0:
33,268,38359,6,0,P|100:219|170:234,1,132.999996448517,2|2,2:0|2:0,2:0:0:0:
184,330,38833,2,0,L|120:316,1,66.4999982242585,2|0,2:0|2:0,2:0:0:0:
305,233,39149,2,0,L|241:248,1,66.4999982242585,2|0,2:0|2:0,2:0:0:0:
359,320,39465,6,0,P|399:261|392:191,1,132.999996448517,2|2,2:0|2:0,2:0:0:0:
287,169,39938,2,0,L|312:258,1,66.4999982242585,2|0,2:0|2:0,2:0:0:0:
384,49,40254,2,0,L|366:114,1,66.4999982242585,2|0,2:0|2:0,2:0:0:0:
298,0,40570,1,2,2:0:0:0:
298,0,40728,1,2,2:0:0:0:
191,131,40886,6,0,L|84:112,1,80.5000015354157,14|0,2:0|1:2,2:0:0:0:
167,30,41201,1,0,1:2:0:0:
255,219,41359,2,0,L|172:233,1,80.5000015354157,8|2,2:0|1:2,2:0:0:0:
191,131,41675,1,0,1:2:0:0:
315,332,41833,2,0,L|233:316,1,80.5000015354157,8|0,2:0|1:2,2:0:0:0:
415,186,42149,6,0,L|394:278,1,80.5000015354157,10|0,2:0|1:2,2:0:0:0:
305,47,42465,2,0,L|325:139,1,80.5000015354157,10|0,2:0|1:2,2:0:0:0:
465,20,42780,1,10,2:0:0:0:
415,186,42938,1,8,2:0:0:0:
415,186,43017,1,8,2:0:0:0:
415,186,43096,1,10,2:0:0:0:
305,47,43254,1,8,2:0:0:0:
305,47,43333,1,8,2:0:0:0:
305,47,43412,6,0,L|202:64,1,77.0000023498536,4|0,1:2|1:2,2:0:0:0:
189,204,43728,2,0,P|234:173|248:139,1,77.0000023498536,10|0,1:2|2:0,2:0:0:0:
136,42,44044,2,0,P|135:80|152:115,1,77.0000023498536,2|0,1:2|1:2,2:0:0:0:
229,59,44359,1,10,1:2:0:0:
94,193,44517,6,0,L|1:177,1,77.0000023498536,2|0,1:2|2:0,2:0:0:0:
53,307,44833,2,0,L|144:289,1,77.0000023498536,2|8,1:2|2:0,2:0:0:0:
268,265,45149,1,2,1:2:0:0:
220,361,45307,1,2,2:0:0:0:
189,204,45465,2,0,P|226:176|276:171,1,77.0000023498536,2|8,1:2|2:0,2:0:0:0:
369,229,45780,1,2,2:0:0:0:
351,0,45938,6,0,B|314:43|314:43|341:139,1,154.000004699707,2|10,1:2|2:0,2:0:0:0:
487,93,46412,2,0,P|455:73|418:64,1,77.0000023498536,2|0,2:0|1:2,2:0:0:0:
225,114,46728,1,2,1:2:0:0:
225,114,46886,6,0,B|159:102|159:102|125:124|125:124|58:113,1,154.000004699707,10|0,2:0|2:0,2:0:0:0:
127,333,47359,2,0,P|178:278|182:203,1,154.000004699707,2|0,1:2|1:2,2:0:0:0:
10,222,47833,2,0,L|86:236,1,77.0000023498536,2|0,2:0|1:2,2:0:0:0:
257,189,48149,2,0,L|182:203,1,77.0000023498536,10|0,2:0|2:0,2:0:0:0:
300,319,48465,6,0,P|332:334|393:332,1,77.0000023498536,6|0,1:2|2:0,2:0:0:0:
410,183,48780,2,0,P|378:206|358:238,1,77.0000023498536,10|0,2:0|2:0,2:0:0:0:
450,282,49096,1,0,1:2:0:0:
450,282,49254,1,0,1:2:0:0:
445,97,49412,2,0,P|407:90|369:98,1,77.0000023498536,8|2,2:0|1:2,2:0:0:0:
135,89,49728,6,0,B|226:71|195:145|295:120,1,154.000004699707,2|8,2:0|2:0,2:0:0:0:
150,325,50201,2,0,B|122:279|122:279|148:183,1,154.000004699707,2|0,1:2|1:2,2:0:0:0:
307,251,50675,2,0,P|267:263|216:263,1,77.0000023498536,10|0,2:0|2:0,2:0:0:0:
55,150,50991,6,0,P|101:100|207:111,1,154.000004699707,6|8,1:2|2:0,2:0:0:0:
359,163,51465,2,0,B|535:131,1,154.000004699707,2|0,2:0|1:2,2:0:0:0:
360,0,51938,2,0,L|344:75,1,77.0000023498536,10|0,2:0|1:2,2:0:0:0:
278,228,52254,6,0,P|334:268|436:235,1,154.000004699707,2|8,2:0|2:0,2:0:0:0:
262,129,52728,1,10,2:0:0:0:
262,129,52807,1,8,2:0:0:0:
262,129,52886,2,0,L|164:152,1,77.0000023498536,10|8,2:0|2:3,2:0:0:0:
362,164,53201,1,8,2:3:0:0:
362,164,53359,1,4,2:3:0:0:
213,303,53517,6,0,P|189:273|180:236,1,77.0000023498536,14|0,2:0|2:0,2:0:0:0:
278,228,53833,1,2,1:2:0:0:
81,244,53991,2,0,P|85:205|198:142,1,154.000004699707,10|0,2:0|1:2,2:0:0:0:
180,236,54465,1,10,2:0:0:0:
180,236,54623,1,2,1:2:0:0:
251,95,54780,6,0,L|235:9,1,77.0000023498536,2|8,1:2|2:0,2:0:0:0:
384,117,55096,2,0,L|369:192,1,77.0000023498536,2|0,2:0|1:2,2:0:0:0:
340,26,55412,1,10,2:0:0:0:
340,26,55570,1,2,1:2:0:0:
479,174,55728,1,0,1:2:0:0:
479,174,55886,1,0,1:2:0:0:
277,105,56044,6,0,B|168:127|168:127|140:164,1,154.000004699707,14|2,2:0|1:2,2:0:0:0:
207,359,56517,2,0,L|225:194,1,154.000004699707,10|0,2:0|1:2,2:0:0:0:
103,154,56991,6,0,L|141:160,3,38.5000011749268,8|8|8|8,2:3|2:3|2:3|2:3,2:0:0:0:
43,231,57307,2,0,L|4:237,3,38.5000011749268,2|0|0|0,1:2|1:2|1:2|1:2,2:0:0:0:
84,320,57623,2,0,L|122:326,3,38.5000011749268,2|0|2|0,1:2|1:2|1:2|1:2,2:0:0:0:
219,296,57938,2,0,L|210:361,3,38.5000011749268,10|8|8|8,2:0|2:3|2:3|2:3,2:0:0:0:
173,208,58254,1,4,2:3:0:0:
169,170,58332,1,4,2:3:0:0:
179,132,58411,1,4,2:3:0:0:
205,103,58490,1,4,2:3:0:0:
241,90,58570,6,0,B|325:57|314:135|406:98,1,154.000004699707,14|2,2:0|1:2,2:0:0:0:
502,1,59044,2,0,B|475:46|475:46|501:154,1,154.000004699707,10|2,2:0|1:2,2:0:0:0:
430,306,59517,2,0,L|444:204,1,77.0000023498536,10|8,2:0|2:3,2:0:0:0:
446,218,59754,1,8,2:3:0:0:
446,218,59833,2,0,L|352:205,1,77.0000023498536,2|0,1:2|1:2,2:0:0:0:
241,190,60149,1,2,1:2:0:0:
305,285,60307,1,0,1:2:0:0:
305,285,60386,1,0,1:2:0:0:
305,285,60465,5,10,2:0:0:0:
318,123,60623,1,8,2:0:0:0:
159,248,60780,1,10,2:0:0:0:
369,207,60938,1,8,2:0:0:0:
369,207,62517,6,0,L|430:194,3,52.5000020027161,2|2|2|2,2:0|2:0|2:0|2:0,2:0:0:0:
416,105,63149,2,0,L|331:123,1,78.7500030040742,2|0,2:0|2:0,2:0:0:0:
308,103,63465,6,0,B|266:90|233:115|233:115|201:138|151:125,1,161.000003070831,6|0,1:2|2:0,2:0:0:0:
16,102,63938,1,8,2:0:0:0:
183,31,64096,1,0,2:0:0:0:
120,217,64254,2,0,L|15:190,1,80.5000015354157,2|0,1:2|2:0,2:0:0:0:
272,114,64570,2,0,L|377:87,1,80.5000015354157,8|0,2:0|2:0,2:0:0:0:
290,342,64886,6,0,P|234:275|235:197,1,161.000003070831,2|8,1:2|2:0,2:0:0:0:
272,114,65359,1,0,2:0:0:0:
405,263,65517,2,0,L|327:246,1,80.5000015354157,2|0,1:2|2:0,2:0:0:0:
465,187,65833,1,10,2:0:0:0:
385,368,65991,1,10,2:0:0:0:
385,368,66070,1,8,2:0:0:0:
385,368,66149,1,4,1:2:0:0:
272,114,66465,6,0,P|232:112|196:130,1,80.5000015354157,10|0,2:0|2:0,2:0:0:0:
233,280,66780,2,0,P|254:246|257:207,1,80.5000015354157,2|0,1:2|2:0,2:0:0:0:
108,163,67096,2,0,P|126:198|159:220,1,80.5000015354157,8|0,2:0|2:0,2:0:0:0:
366,171,67412,5,2,1:2:0:0:
366,171,67570,2,0,L|390:73,1,80.5000015354157,2|8,2:0|2:0,2:0:0:0:
411,0,67886,1,2,2:0:0:0:
474,152,68044,1,2,1:2:0:0:
275,87,68201,1,10,2:0:0:0:
275,87,68280,1,8,2:0:0:0:
275,87,68359,1,10,2:0:0:0:
430,248,68517,6,0,P|386:267|346:269,1,80.5000015354157,6|0,1:2|2:0,2:0:0:0:
366,171,68833,1,0,1:2:0:0:
280,339,68991,2,0,B|231:372|231:372|98:351,1,161.000003070831,10|0,2:0|1:2,2:0:0:0:
183,195,69465,2,0,P|206:236|211:273,1,80.5000015354157,2|8,2:0|2:0,2:0:0:0:
110,268,69780,1,2,2:0:0:0:
154,99,69938,6,0,B|247:76|228:144|313:123,1,161.000003070831,2|8,1:2|2:0,2:0:0:0:
444,26,70412,2,0,P|416:52|391:101,1,80.5000015354157,2|0,2:0|1:2,2:0:0:0:
421,256,70728,1,0,1:2:0:0:
491,116,70886,1,8,2:0:0:0:
430,241,71044,1,0,1:2:0:0:
307,115,71201,6,0,L|285:210,1,80.5000015354157,14|0,2:0|1:2,2:0:0:0:
171,352,71517,2,0,L|152:273,1,80.5000015354157,10|0,2:0|1:2,2:0:0:0:
107,126,71833,5,10,2:0:0:0:
253,288,71991,1,2,1:2:0:0:
180,60,72149,5,10,2:0:0:0:
152,273,72307,1,2,1:2:0:0:
269,92,72465,6,0,P|325:91|370:125,1,80.5000015354157,10|0,2:0|1:2,2:0:0:0:
488,242,72780,1,10,2:0:0:0:
300,185,72938,1,8,2:0:0:0:
300,185,73017,1,8,2:0:0:0:
300,185,73096,1,8,2:0:0:0:
445,57,73254,1,2,1:2:0:0:
313,345,73570,6,0,B|351:238|351:238|331:193,1,161.000003070831,4|2,1:2|1:2,2:0:0:0:
300,185,73965,1,0,1:0:0:0:
300,185,74044,2,0,P|262:210|197:202,1,80.5000015354157,10|0,2:0|2:0,2:0:0:0:
91,94,74359,2,0,P|131:114|157:174,1,80.5000015354157,2|0,1:2|2:0,2:0:0:0:
186,298,74675,1,10,2:0:0:0:
60,183,74833,1,2,2:0:0:0:
203,315,74991,6,0,B|271:305|271:305|310:330|310:330|387:318,1,161.000003070831,2|8,1:2|2:0,2:0:0:0:
472,169,75465,1,2,2:0:0:0:
337,235,75623,1,2,1:2:0:0:
459,182,75780,2,0,L|476:81,1,80.5000015354157,2|8,2:0|2:0,2:0:0:0:
295,62,76096,1,8,2:0:0:0:
295,62,76175,1,8,2:0:0:0:
295,62,76254,6,0,L|308:141,1,80.5000015354157,4|0,1:2|2:0,2:0:0:0:
181,264,76570,2,0,P|198:227|232:207,1,80.5000015354157,10|0,2:0|2:0,2:0:0:0:
403,247,76886,2,0,P|364:250|329:232,1,80.5000015354157,2|0,1:2|2:0,2:0:0:0:
208,120,77201,1,10,2:0:0:0:
271,310,77359,1,2,2:0:0:0:
189,96,77517,6,0,P|123:58|18:101,1,161.000003070831,2|8,1:2|2:0,2:0:0:0:
7,267,77991,1,2,2:0:0:0:
106,159,78149,1,2,1:2:0:0:
136,336,78307,1,10,2:0:0:0:
136,336,78386,1,8,2:0:0:0:
136,336,78465,1,8,2:0:0:0:
357,268,78623,6,0,P|275:218|197:248,1,161.000003070831,4|0,1:2|1:2,2:0:0:0:
348,375,79096,2,0,L|441:358,1,80.5000015354157,8|0,2:0|2:0,2:0:0:0:
271,310,79412,1,0,1:2:0:0:
410,188,79570,2,0,L|489:202,1,80.5000015354157,2|8,2:0|2:0,2:0:0:0:
357,268,79886,1,0,2:0:0:0:
319,130,80044,6,0,P|384:91|485:115,1,161.000003070831,2|8,1:2|2:0,2:0:0:0:
410,188,80517,1,2,2:0:0:0:
490,8,80675,1,0,1:2:0:0:
490,8,80833,1,0,1:2:0:0:
278,43,80991,2,0,L|186:26,1,80.5000015354157,10|2,2:0|1:2,2:0:0:0:
124,221,81307,6,0,P|157:218|205:184,1,80.5000015354157,14|2,2:0|1:2,2:0:0:0:
39,43,81623,2,0,P|25:73|30:131,1,80.5000015354157,10|0,2:0|1:2,2:0:0:0:
45,307,81938,5,10,2:0:0:0:
135,101,82096,1,2,1:2:0:0:
164,331,82254,5,10,2:0:0:0:
133,121,82412,1,2,1:2:0:0:
283,355,82570,6,0,L|296:275,1,80.5000015354157,10|0,2:0|1:2,2:0:0:0:
325,113,82886,1,10,2:0:0:0:
425,269,83044,1,10,2:0:0:0:
425,269,83123,1,8,2:0:0:0:
425,269,83201,2,0,L|407:190,1,80.5000015354157,8|2,2:0|1:2,2:0:0:0:
24,49,83675,6,0,B|70:25|70:25|184:55,1,154.000004699707,6|2,1:2|1:2,2:0:0:0:
98,203,84149,2,0,P|83:154|84:109,1,77.0000023498536,10|2,2:0|2:0,2:0:0:0:
82,308,84465,2,0,P|36:283|5:251,1,77.0000023498536,2|2,1:2|2:0,2:0:0:0:
98,203,84780,1,8,2:0:0:0:
167,372,84938,6,0,P|243:370|313:293,1,154.000004699707,2|2,2:0|2:0,2:0:0:0:
229,195,85412,2,0,L|210:277,1,77.0000023498536,10|2,2:0|2:0,2:0:0:0:
396,336,85728,2,0,L|378:260,1,77.0000023498536,2|0,1:2|2:0,2:0:0:0:
300,321,86044,1,10,2:0:0:0:
484,278,86201,1,10,2:0:0:0:
484,278,86280,1,8,2:0:0:0:
484,278,86359,6,0,L|499:186,1,77.0000023498536,2|2,1:2|2:0,2:0:0:0:
393,77,86675,2,0,L|405:152,1,77.0000023498536,10|2,2:0|2:0,2:0:0:0:
300,321,86991,2,0,L|324:196,1,115.50000352478,2|0,1:2|2:0,2:0:0:0:
325,185,87307,6,0,P|247:188|232:179,1,77.0000023498536,10|0,2:0|2:0,2:0:0:0:
243,53,87623,2,0,P|284:119|281:135,1,77.0000023498536,2|0,1:2|2:0,2:0:0:0:
166,229,87938,2,0,P|169:159|212:114,1,115.50000352478,10|0,2:0|2:0,2:0:0:0:
195,124,88254,5,2,1:2:0:0:
72,206,88412,1,8,2:0:0:0:
72,206,88491,1,8,2:0:0:0:
72,206,88570,1,8,2:0:0:0:
247,290,88728,6,0,B|339:252|314:332|410:300,1,154.000004699707,6|2,1:2|1:2,2:0:0:0:
403,139,89201,2,0,L|382:214,1,77.0000023498536,10|2,2:0|2:0,2:0:0:0:
275,106,89517,2,0,L|295:181,1,77.0000023498536,0|2,1:2|2:0,2:0:0:0:
153,82,89833,1,8,2:0:0:0:
194,221,89991,6,0,L|158:378,1,154.000004699707,2|2,2:0|2:0,2:0:0:0:
9,310,90465,2,0,P|67:275|100:276,1,77.0000023498536,10|2,2:0|2:0,2:0:0:0:
268,331,90780,1,2,1:2:0:0:
268,331,90938,1,2,1:2:0:0:
194,221,91096,1,10,2:0:0:0:
194,221,91254,1,2,1:2:0:0:
396,320,91412,6,0,P|437:320|481:297,1,77.0000023498536,14|0,2:0|1:2,2:0:0:0:
426,126,91728,2,0,P|385:126|341:149,1,77.0000023498536,10|0,2:0|1:2,2:0:0:0:
194,221,92044,2,0,P|155:221|120:207,1,77.0000023498536,10|0,2:0|1:2,2:0:0:0:
30,29,92359,1,10,2:0:0:0:
181,128,92517,1,2,1:2:0:0:
27,270,92675,6,0,L|14:183,1,77.0000023498536,10|0,2:0|1:2,2:0:0:0:
196,22,92991,2,0,L|184:98,1,77.0000023498536,10|8,2:0|2:3,2:0:0:0:
181,128,93228,1,8,2:3:0:0:
181,128,93307,1,8,2:3:0:0:
341,80,93465,1,10,2:0:0:0:
