osu file format v14

[General]
AudioFilename: Rock on..mp3
AudioLeadIn: 0
PreviewTime: 62507
Countdown: 0
SampleSet: Normal
StackLeniency: 0.7
Mode: 0
LetterboxInBreaks: 0
WidescreenStoryboard: 0

[Editor]
DistanceSpacing: 0.8
BeatDivisor: 4
GridSize: 8
TimelineZoom: 2.4

[Metadata]
Title:Rock on.
TitleUnicode:Rock on.
Artist:nano
ArtistUnicode:ナノ
Creator:Line-
Version:Rock Combo
Source:劇場版 蒼き鋼のアルペジオ - アルス・ノヴァ - DC
Tags:Line- Dailycare bbj0920 Beomsan movie ending Aoki Hagane no Arpeggio of Blue Steel Ars Nova
BeatmapID:881749
BeatmapSetID:405701

[Difficulty]
HPDrainRate:6.5
CircleSize:4
OverallDifficulty:9
ApproachRate:9.5
SliderMultiplier:2
SliderTickRate:1

[Events]
//Background and Video events
0,0,"gaymapperlinegod2.png",0,0
//Break Periods
//Storyboard Layer 0 (Background)
//Storyboard Layer 1 (Fail)
//Storyboard Layer 2 (Pass)
//Storyboard Layer 3 (Foreground)
//Storyboard Sound Samples

[TimingPoints]
1868,329.67032967033,4,2,0,25,1,0
5019,329.67032967033,4,2,0,25,1,0
7186,329.67032967033,4,2,0,25,1,0
8154,329.67032967033,4,2,0,25,1,0
9864,329.67032967033,4,2,0,25,1,0
12521,329.67032967033,4,2,0,25,1,0
12995,329.67032967033,4,2,0,25,1,0
15179,329.67032967033,4,2,0,25,1,0
16188,329.67032967033,4,2,0,25,1,0
17857,329.67032967033,4,2,0,25,1,0
20514,329.67032967033,4,2,0,25,1,0
22511,681.818181818182,4,1,0,25,1,0
22511,-200,4,1,0,25,0,0
22851,-100,4,1,0,5,0,0
23022,-100,4,1,0,25,0,0
23192,315.789473684211,4,1,1,45,1,0
33770,-100,4,1,1,25,0,0
33928,-100,4,1,1,45,0,0
40876,-100,4,1,1,55,0,0
61086,-100,4,1,1,5,0,0
62507,-100,4,1,1,55,0,0
63376,-100,4,1,1,5,0,0
63455,-80,4,1,1,65,0,1
73086,-80,4,1,1,65,0,0
73560,-80,4,1,1,65,0,1
83349,-200,4,1,1,65,0,0
83586,-200,4,1,1,5,0,0
83665,314.13612565445,4,1,1,65,1,0
83665,-80,4,1,1,65,0,0
88691,315.789473684211,4,1,1,65,1,0
88691,-80,4,1,1,65,0,0

[Colours]
Combo1 : 255,128,128
Combo2 : 255,128,64
Combo3 : 255,255,128

[HitObjects]
96,224,1868,5,0,0:0:0:0:
164,300,2362,1,0,0:0:0:0:
256,192,2857,1,0,0:0:0:0:
416,224,4505,5,0,0:0:0:0:
348,300,5019,1,0,0:0:0:0:
256,192,5514,1,0,0:0:0:0:
376,264,7186,5,0,0:0:0:0:
330,182,7680,1,0,0:0:0:0:
424,112,8154,1,0,0:0:0:0:
256,192,9864,5,0,0:0:0:0:
302,110,10358,1,0,0:0:0:0:
208,40,10832,1,0,0:0:0:0:
256,192,11182,1,0,0:0:0:0:
119,192,11842,1,0,0:0:0:0:
256,337,12521,5,0,0:0:0:0:
356,272,12995,1,0,0:0:0:0:
256,160,13489,1,0,0:0:0:0:
88,192,15179,5,0,0:0:0:0:
219,243,15673,1,0,0:0:0:0:
194,70,16188,1,0,0:0:0:0:
310,328,17857,5,0,0:0:0:0:
231,243,18351,1,0,0:0:0:0:
377,170,18846,1,0,0:0:0:0:
219,243,20514,5,0,0:0:0:0:
347,192,21009,1,0,0:0:0:0:
256,55,21503,1,0,0:0:0:0:
302,360,22511,6,0,L|358:363,1,50
393,297,23022,1,0,0:0:0:0:
393,297,23107,1,0,0:0:0:0:
393,297,23192,6,0,B|387:265|407:251|407:251|379:235|379:235|415:186|391:124,1,200,4|0,0:0|0:0,0:0:0:0:
191,163,23665,2,0,P|241:168|291:169,1,100
311,71,23981,1,0,0:0:0:0:
291,169,24139,1,0,0:0:0:0:
271,267,24296,1,0,0:0:0:0:
391,124,24613,1,0,0:0:0:0:
481,140,25086,6,0,P|463:186|423:214,1,100
301,113,25402,2,0,P|324:60|364:37,1,100
391,124,25639,1,0,0:0:0:0:
391,124,25718,6,0,B|347:154|300:113|300:113|286:169|233:180,1,200
370,308,26192,2,0,P|354:261|333:216,1,100
210,90,26507,1,0,0:0:0:0:
358,38,26665,1,0,0:0:0:0:
332,215,26823,1,0,0:0:0:0:
332,215,27139,1,0,0:0:0:0:
412,315,27928,6,0,B|363:308|363:308|317:327,1,100
240,317,28165,1,0,0:0:0:0:
240,317,28244,6,0,B|211:257|211:257|227:180|227:180|195:105,1,200
296,247,28718,2,0,L|416:198,1,100
274,90,29034,1,0,0:0:0:0:
142,189,29192,1,0,0:0:0:0:
240,317,29349,1,0,0:0:0:0:
240,317,29665,1,0,0:0:0:0:
241,318,30613,5,0,0:0:0:0:
241,318,30692,1,0,0:0:0:0:
241,318,30770,6,0,B|224:282|237:236|237:236|212:209|212:209|228:172|210:126,1,200
324,272,31244,2,0,P|373:267|420:251,1,100
126,171,31560,1,0,0:0:0:0:
126,171,31718,2,0,P|76:165|29:149,1,100
172,361,32034,5,0,0:0:0:0:
172,361,32192,2,0,P|156:314|151:264,1,100
215,199,32507,1,0,0:0:0:0:
421,251,32665,1,0,0:0:0:0:
421,251,32823,1,0,0:0:0:0:
348,101,32981,1,0,0:0:0:0:
348,101,33139,1,0,0:0:0:0:
215,199,33297,6,0,B|195:216|188:248|188:248|221:276|277:263|277:263|285:230|268:217,1,200,4|0,0:0|0:0,0:0:0:0:
268,217,33770,1,0,0:0:0:0:
121,210,33928,2,0,P|111:259|132:304,1,100
252,371,34244,1,0,0:0:0:0:
278,123,34402,6,0,L|494:118,1,200,2|2,0:0|0:0,0:0:0:0:
288,31,34876,1,0,0:0:0:0:
268,217,35034,1,0,0:0:0:0:
430,234,35192,1,2,0:0:0:0:
278,123,35350,1,0,0:0:0:0:
347,264,35507,1,0,0:0:0:0:
478,119,35665,1,2,0:0:0:0:
478,119,35744,1,0,0:0:0:0:
478,119,35823,6,0,P|492:71|492:21,1,100,2|0,0:0|0:0,0:0:0:0:
347,264,36139,2,0,P|333:311|333:361,1,100,0|2,0:0|0:0,0:0:0:0:
175,169,36455,2,0,P|127:182|77:182,1,100
114,81,36770,1,2,0:0:0:0:
114,81,36928,1,0,0:0:0:0:
264,194,37086,6,0,P|265:144|240:101,1,100,0|2,0:0|0:0,0:0:0:0:
165,263,37402,1,0,0:0:0:0:
164,263,37560,2,0,P|188:355|280:379,1,200
474,87,38349,6,0,B|413:106|413:106|374:169|374:169|298:194,1,200,2|0,0:0|0:0,0:0:0:0:
265,120,38823,2,0,B|324:102|324:102|357:48|357:48|260:77,1,200,2|0,0:0|0:0,0:0:0:0:
285,69,39297,1,2,0:0:0:0:
465,182,39455,6,0,B|425:244|425:244|305:283,1,200,0|2,0:0|0:0,0:0:0:0:
359,356,39928,2,0,L|455:326,1,100
315,188,40244,2,0,L|219:218,1,100,2|0,0:0|0:0,0:0:0:0:
285,69,40560,2,0,L|381:39,1,100
263,300,40876,5,12,0:0:0:0:
161,106,41034,1,0,0:0:0:0:
161,106,41192,1,0,0:0:0:0:
26,320,41349,5,12,0:0:0:0:
220,218,41507,1,0,0:0:0:0:
220,218,41665,1,0,0:0:0:0:
355,4,41823,5,12,0:0:0:0:
161,106,41981,1,0,0:0:0:0:
358,284,42139,5,12,0:0:0:0:
243,63,42297,1,0,0:0:0:0:
105,278,42455,5,12,0:0:0:0:
370,138,42613,1,0,0:0:0:0:
243,321,42770,5,12,0:0:0:0:
243,63,42928,1,8,0:0:0:0:
243,63,43007,1,8,0:0:0:0:
243,62,43086,1,12,0:0:0:0:
447,219,43244,1,8,0:0:0:0:
447,219,43323,1,8,0:0:0:0:
447,218,43402,6,0,P|408:250|360:264,1,100,4|0,0:0|0:0,0:0:0:0:
256,382,43718,2,0,P|224:343|210:295,1,100,10|0,0:0|0:0,0:0:0:0:
89,196,44034,2,0,P|127:164|175:150,1,100,2|0,0:0|0:0,0:0:0:0:
174,150,44349,1,10,0:0:0:0:
278,21,44507,6,0,P|304:114|393:151,1,200
386,40,44981,1,10,0:0:0:0:
434,228,45139,1,0,0:0:0:0:
256,192,45297,1,2,0:0:0:0:
473,75,45455,2,0,P|435:45|386:39,1,100,0|10,0:0|0:0,0:0:0:0:
386,39,45770,1,0,0:0:0:0:
305,342,45928,6,0,P|377:323|434:274,1,150,2|0,0:0|0:0,0:0:0:0:
434,228,46244,1,10,0:0:0:0:
256,192,46402,1,0,0:0:0:0:
412,140,46560,1,2,0:0:0:0:
217,205,46718,1,0,0:0:0:0:
434,275,46876,6,0,P|459:201|389:237,1,200,10|2,0:0|0:0,0:0:0:0:
491,130,47349,1,0,0:0:0:0:
491,130,47507,2,0,P|445:113|396:119,1,100,10|0,0:0|0:0,0:0:0:0:
261,92,47823,2,0,P|264:141|256:191,1,100,2|0,0:0|0:0,0:0:0:0:
153,241,48139,2,0,P|149:191|157:141,1,100,10|0,0:0|0:0,0:0:0:0:
355,239,48455,6,0,P|403:248|451:235,1,100,6|0,0:0|0:0,0:0:0:0:
271,143,48770,2,0,P|237:180|224:228,1,100,10|0,0:0|0:0,0:0:0:0:
394,118,49086,2,0,P|377:71|343:36,1,100,2|0,0:0|0:0,0:0:0:0:
355,239,49402,1,10,0:0:0:0:
156,141,49560,1,0,0:0:0:0:
194,331,49718,6,0,L|97:307,1,100,2|0,0:0|0:0,0:0:0:0:
256,69,50034,1,10,0:0:0:0:
355,239,50192,2,0,L|452:214,1,100,0|2,0:0|0:0,0:0:0:0:
151,245,50507,1,0,0:0:0:0:
256,69,50665,2,0,P|271:115|258:162,1,100,10|0,0:0|0:0,0:0:0:0:
97,307,50981,6,0,B|132:337|183:322|183:322|242:308|286:340,1,200,6|10,0:0|0:0,0:0:0:0:
451,214,51455,1,0,0:0:0:0:
286,340,51613,1,2,0:0:0:0:
286,340,51770,1,0,0:0:0:0:
153,241,51928,2,0,L|145:129,1,100,10|0,0:0|0:0,0:0:0:0:
29,189,52244,6,0,L|21:288,1,100,2|0,0:0|0:0,0:0:0:0:
256,205,52560,1,10,0:0:0:0:
256,204,52718,2,8,L|260:155,1,50
272,25,52876,5,10,3:1:0:0:
145,192,53034,1,0,3:1:0:0:
346,131,53192,1,0,3:1:0:0:
147,62,53349,1,0,3:1:0:0:
268,235,53507,6,0,L|466:256,1,200,12|0,0:0|0:0,0:0:0:0:
387,364,53981,2,0,L|188:342,1,200,12|0,0:0|0:0,0:0:0:0:
346,131,54455,2,0,L|455:144,1,100,8|0,0:0|0:0,0:0:0:0:
256,205,54770,5,0,0:0:0:0:
166,79,54928,2,0,L|57:92,1,100,8|0,0:0|0:0,0:0:0:0:
156,216,55244,1,0,0:0:0:0:
278,10,55402,5,8,3:1:0:0:
264,125,55560,1,0,3:1:0:0:
251,241,55718,1,0,3:1:0:0:
238,357,55876,1,0,3:1:0:0:
51,237,56034,6,0,L|250:241,1,200,12|0,0:0|0:0,0:0:0:0:
464,130,56508,2,0,L|264:125,1,200,12|0,0:0|0:0,0:0:0:0:
238,357,56981,2,0,L|188:356,3,50,0|0|0|0,3:1|3:1|3:1|3:1,3:1:0:0:
271,357,57297,5,0,3:1:0:0:
294,363,57375,1,0,3:1:0:0:
318,356,57454,1,0,3:1:0:0:
335,338,57533,1,0,3:1:0:0:
340,314,57612,1,0,3:1:0:0:
332,290,57691,1,0,3:1:0:0:
313,274,57770,1,0,3:1:0:0:
289,270,57849,1,0,3:1:0:0:
267,280,57928,5,8,3:1:0:0:
283,240,58006,1,0,3:1:0:0:
274,197,58085,1,0,3:1:0:0:
244,167,58164,1,0,3:1:0:0:
201,158,58243,1,0,3:1:0:0:
162,175,58322,1,0,3:1:0:0:
137,210,58401,1,0,3:1:0:0:
137,253,58480,1,0,3:1:0:0:
160,290,58560,6,0,B|86:332|10:307|10:307|35:284|57:293,1,200,12|0,0:0|0:0,0:0:0:0:
162,175,59034,2,0,B|236:133|312:158|312:158|287:181|265:172,1,200,12|0,0:0|0:0,0:0:0:0:
261,371,59507,1,8,0:0:0:0:
161,290,59665,1,0,3:1:0:0:
161,290,59744,1,0,3:1:0:0:
161,290,59823,5,0,3:1:0:0:
330,290,59981,1,0,3:1:0:0:
261,202,60139,1,0,3:1:0:0:
261,371,60297,1,0,3:1:0:0:
261,371,60376,1,0,3:1:0:0:
261,371,60455,5,8,0:0:0:0:
375,188,60613,1,8,0:0:0:0:
193,75,60770,1,8,0:0:0:0:
79,257,60928,1,8,0:0:0:0:
256,192,61086,12,0,62034,0:0:0:0:
211,298,62507,6,0,B|232:288|256:312|256:312|280:288|299:297,2,100
256,219,62981,1,0,0:0:0:0:
256,99,63139,2,0,B|265:112|249:137|249:137|265:145|265:145|249:169|249:169|265:177|265:177|249:208|256:219,1,150
145,301,63455,6,0,B|199:269|256:332|256:332|311:269|364:301,1,250,4|0,0:0|0:0,0:0:0:0:
449,355,63928,2,0,P|463:294|443:237,1,125,10|0,0:0|0:0,0:0:0:0:
433,112,64244,2,0,P|373:128|334:176,1,125,2|0,0:0|0:0,0:0:0:0:
265,366,64560,2,0,P|323:348|363:300,1,125,10|0,0:0|0:0,0:0:0:0:
148,83,64876,6,0,P|208:93|253:136,1,125,2|0,0:0|0:0,0:0:0:0:
114,291,65192,2,0,P|124:230|167:185,1,125,10|0,0:0|0:0,0:0:0:0:
364,301,65507,2,0,L|521:312,1,125,2|0,0:0|0:0,0:0:0:0:
447,136,65823,2,0,L|290:147,1,125,10|8,0:0|0:0,0:0:0:0:
322,144,66060,1,8,0:0:0:0:
322,144,66139,5,2,0:0:0:0:
364,301,66297,1,0,0:0:0:0:
235,260,66455,2,0,L|82:298,1,125,10|0,0:0|0:0,0:0:0:0:
207,139,66770,2,0,L|250:-11,1,125,2|0,0:0|0:0,0:0:0:0:
325,176,67086,2,0,L|412:266,1,125,10|0,0:0|0:0,0:0:0:0:
113,290,67402,5,2,0:0:0:0:
206,139,67560,2,0,P|213:201|235:259,1,125,0|10,0:0|0:0,0:0:0:0:
374,77,67876,1,0,0:0:0:0:
351,296,68034,2,0,P|346:234|324:175,1,125,2|0,0:0|0:0,0:0:0:0:
325,176,68270,1,8,0:0:0:0:
325,176,68349,1,10,0:0:0:0:
112,288,68507,6,0,B|198:268|198:268|240:213|240:213|325:176,1,250,4|0,0:0|0:0,0:0:0:0:
465,244,68981,2,0,L|352:296,1,125,10|0,0:0|0:0,0:0:0:0:
294,52,69297,1,2,0:0:0:0:
181,104,69455,2,0,L|294:52,1,125,0|10,0:0|0:0,0:0:0:0:
325,176,69770,1,0,0:0:0:0:
112,288,69928,6,0,B|191:263|191:263|255:293,1,125,2|0,0:0|0:0,0:0:0:0:
342,329,70244,1,10,0:0:0:0:
465,244,70402,2,0,L|477:119,1,125,0|2,0:0|0:0,0:0:0:0:
342,329,70718,1,0,0:0:0:0:
312,51,70876,2,0,L|325:176,1,125,10|0,0:0|0:0,0:0:0:0:
125,249,71192,5,12,0:0:0:0:
361,308,71349,1,0,0:0:0:0:
93,261,71507,5,8,0:0:0:0:
325,176,71664,1,0,0:0:0:0:
187,29,71823,5,8,0:0:0:0:
272,261,71980,1,0,0:0:0:0:
446,76,72139,5,8,0:0:0:0:
361,308,72296,1,0,0:0:0:0:
126,192,72455,5,8,0:0:0:0:
415,192,72613,1,0,0:0:0:0:
187,29,72770,5,8,0:0:0:0:
187,355,72928,1,0,0:0:0:0:
187,355,73007,1,0,0:0:0:0:
187,355,73086,2,8,P|202:308|160:333,1,125,8|0,0:0|0:0,0:0:0:0:
187,355,73560,6,0,L|448:331,1,250,4|0,0:0|0:0,0:0:0:0:
290,203,74034,1,10,0:0:0:0:
456,216,74192,1,0,0:0:0:0:
290,203,74349,2,0,L|415:192,1,125,2|0,0:0|0:0,0:0:0:0:
390,22,74665,2,0,L|265:33,1,125,8|0,0:0|0:0,0:0:0:0:
126,192,74981,5,2,0:0:0:0:
182,372,75139,2,0,P|210:316|226:256,1,125,0|10,0:0|0:0,0:0:0:0:
415,192,75455,1,0,0:0:0:0:
223,159,75613,1,2,0:0:0:0:
284,361,75771,1,0,0:0:0:0:
428,206,75929,1,10,0:0:0:0:
210,145,76086,1,8,0:0:0:0:
210,145,76165,1,8,0:0:0:0:
210,145,76244,5,2,0:0:0:0:
428,80,76402,1,0,0:0:0:0:
328,245,76560,2,0,P|299:300|283:360,1,125,10|0,0:0|0:0,0:0:0:0:
210,145,76876,1,2,0:0:0:0:
428,206,77034,1,0,0:0:0:0:
210,145,77192,1,10,0:0:0:0:
428,80,77349,1,0,0:0:0:0:
428,329,77507,6,0,P|367:312|312:284,1,125,2|0,0:0|0:0,0:0:0:0:
161,354,77823,1,10,0:0:0:0:
210,145,77981,1,0,0:0:0:0:
7,245,78139,1,2,0:0:0:0:
256,235,78297,1,0,0:0:0:0:
256,235,78376,1,8,0:0:0:0:
256,235,78455,1,10,0:0:0:0:
7,245,78613,6,0,L|274:234,1,250,4|0,0:0|0:0,0:0:0:0:
455,130,79086,2,0,L|330:136,1,125,10|0,0:0|0:0,0:0:0:0:
256,324,79402,1,2,0:0:0:0:
57,130,79560,2,0,L|182:136,1,125,0|10,0:0|0:0,0:0:0:0:
256,324,79876,1,0,0:0:0:0:
444,104,80034,6,0,B|382:100|382:100|330:136,1,125,2|0,0:0|0:0,0:0:0:0:
256,324,80349,1,10,0:0:0:0:
68,103,80507,2,0,B|130:100|130:100|182:136,1,125,0|2,0:0|0:0,0:0:0:0:
256,324,80823,1,0,0:0:0:0:
182,136,80981,1,10,0:0:0:0:
117,377,81139,1,0,0:0:0:0:
117,377,81218,1,0,0:0:0:0:
117,377,81297,5,12,0:0:0:0:
367,355,81455,1,0,0:0:0:0:
5,345,81613,5,8,0:0:0:0:
256,324,81771,1,0,0:0:0:0:
95,127,81928,5,8,0:0:0:0:
117,377,82086,1,0,0:0:0:0:
261,167,82244,5,8,0:0:0:0:
5,345,82402,1,0,0:0:0:0:
398,210,82560,5,8,0:0:0:0:
95,127,82718,1,0,0:0:0:0:
255,323,82876,5,8,0:0:0:0:
329,20,83034,1,8,0:0:0:0:
329,20,83113,1,8,0:0:0:0:
329,20,83192,5,8,0:0:0:0:
384,368,83349,2,0,L|458:373,1,75
413,335,83665,6,0,B|290:327|290:327|256:308|256:260|266:227|266:227|312:208,1,250,4|0,0:0|0:0,0:0:0:0:
313,189,84057,1,0,0:0:0:0:
319,143,84136,2,0,P|334:82|329:20,1,125,10|0,0:0|0:0,0:0:0:0:
171,167,84451,2,0,P|156:227|161:289,1,125,2|0,0:0|0:0,0:0:0:0:
313,189,84764,1,10,0:0:0:0:
120,80,84921,1,0,0:0:0:0:
266,298,85078,6,0,P|326:313|388:308,1,125,2|0,0:0|0:0,0:0:0:0:
435,200,85392,2,0,P|374:184|312:189,1,125,10|0,0:0|0:0,0:0:0:0:
230,376,85706,1,2,0:0:0:0:
388,307,85863,1,0,0:0:0:0:
123,295,86021,1,10,0:0:0:0:
313,165,86178,1,8,0:0:0:0:
313,165,86256,1,8,0:0:0:0:
313,165,86335,6,0,P|328:104|323:42,1,125,2|0,0:0|0:0,0:0:0:0:
199,165,86649,2,0,P|183:104|188:42,1,125,10|0,0:0|0:0,0:0:0:0:
366,231,86963,2,0,B|359:263|351:271|159:271|151:263|146:230,1,250,2|10,0:0|0:0,0:0:0:0:
256,95,87434,1,0,0:0:0:0:
318,337,87591,6,0,P|256:344|193:338,1,125,2|0,0:0|0:0,0:0:0:0:
132,95,87905,2,0,P|194:88|257:95,1,125,10|0,0:0|0:0,0:0:0:0:
91,293,88219,1,2,0:0:0:0:
420,293,88377,1,0,0:0:0:0:
420,293,88455,1,8,0:0:0:0:
420,293,88534,1,10,0:0:0:0:
263,335,88691,6,0,B|295:271|263:207|263:207|231:143|263:79,1,250,4|0,0:0|0:0,0:0:0:0:
281,55,89085,1,0,0:0:0:0:
326,43,89164,2,0,L|470:28,1,125,10|0,0:0|0:0,0:0:0:0:
186,43,89480,2,0,L|42:28,1,125,2|0,0:0|0:0,0:0:0:0:
256,192,89796,1,10,0:0:0:0:
61,353,89954,6,0,L|186:341,1,125,0|2,0:0|0:0,0:0:0:0:
256,192,90269,1,0,0:0:0:0:
450,353,90427,2,0,L|326:341,1,125,10|0,0:0|0:0,0:0:0:0:
176,128,90743,5,2,0:0:0:0:
326,341,90901,1,0,0:0:0:0:
336,128,91059,1,10,0:0:0:0:
186,341,91217,1,0,0:0:0:0:
362,238,91375,6,0,L|487:250,1,125,10|0,0:0|0:0,0:0:0:0:
255,62,91691,5,10,0:0:0:0:
298,317,91848,1,0,0:0:0:0:
159,39,92006,5,10,0:0:0:0:
146,301,92164,1,0,0:0:0:0:
61,10,92322,5,10,0:0:0:0:
230,238,92480,1,0,0:0:0:0:
20,229,92638,5,10,0:0:0:0:
388,120,92796,1,0,0:0:0:0:
2,82,92954,5,10,0:0:0:0:
403,253,93112,1,0,0:0:0:0:
403,253,93191,1,0,0:0:0:0:
403,253,93269,1,10,0:0:0:0:
10,346,93427,5,12,0:0:0:0:
