osu file format v14

[General]
AudioFilename: Rock on..mp3
AudioLeadIn: 0
PreviewTime: 62507
Countdown: 0
SampleSet: Soft
StackLeniency: 0.7
Mode: 0
LetterboxInBreaks: 0
WidescreenStoryboard: 0

[Editor]
Bookmarks: 25639,25718,39455
DistanceSpacing: 1
BeatDivisor: 4
GridSize: 8
TimelineZoom: 2.4

[Metadata]
Title:Rock on.
TitleUnicode:Rock on.
Artist:nano
ArtistUnicode:ナノ
Creator:Line-
Version:Easy
Source:劇場版 蒼き鋼のアルペジオ - アルス・ノヴァ - DC
Tags:Line- Dailycare bbj0920 Beomsan movie ending Aoki Hagane no Arpeggio of Blue Steel Ars Nova
BeatmapID:883154
BeatmapSetID:405701

[Difficulty]
HPDrainRate:2
CircleSize:3
OverallDifficulty:2
ApproachRate:3.5
SliderMultiplier:1
SliderTickRate:1

[Events]
//Background and Video events
0,0,"gaymapperlinegod2.png",0,0
//Break Periods
2,60970,62015
//Storyboard Layer 0 (Background)
//Storyboard Layer 1 (Fail)
//Storyboard Layer 2 (Pass)
//Storyboard Layer 3 (Foreground)
//Storyboard Sound Samples

[TimingPoints]
1868,329.67032967033,4,2,0,25,1,0
5019,329.67032967033,4,2,0,25,1,0
7186,329.67032967033,4,2,0,25,1,0
8154,329.67032967033,4,2,0,25,1,0
9864,329.67032967033,4,2,0,25,1,0
12521,329.67032967033,4,2,0,25,1,0
12995,329.67032967033,4,2,0,25,1,0
15179,329.67032967033,4,2,0,25,1,0
16188,329.67032967033,4,2,0,25,1,0
17857,329.67032967033,4,2,0,25,1,0
20514,329.67032967033,4,2,0,25,1,0
22511,681.818181818182,4,2,0,25,1,0
23192,315.789473684211,4,1,1,45,1,0
63455,-100,4,1,1,55,0,1
83665,314.13612565445,4,1,1,45,1,0
88691,315.789473684211,4,1,1,45,1,0

[Colours]
Combo1 : 255,255,255
Combo2 : 0,255,168

[HitObjects]
28,337,23192,6,0,P|102:343|170:315,1,150,4|0,0:0|0:0,0:0:0:0:
260,358,23981,2,0,P|269:309|253:262,1,100,0|0,0:0|0:0,0:0:0:0:
165,215,24613,1,0,0:0:0:0:
469,42,25718,6,0,L|448:203,1,150,0|0,0:0|0:0,0:0:0:0:
357,231,26507,2,0,L|372:120,1,100,0|0,0:0|0:0,0:0:0:0:
384,32,27139,1,0,0:0:0:0:
272,363,28244,6,0,P|197:369|129:341,1,150,0|0,0:0|0:0,0:0:0:0:
40,384,29033,2,0,P|30:335|46:288,1,100,0|0,0:0|0:0,0:0:0:0:
135,241,29665,1,0,0:0:0:0:
416,33,30770,6,0,P|358:78|285:77,1,150,0|0,0:0|0:0,0:0:0:0:
150,144,31718,2,0,P|148:217|193:275,1,150,0|0,0:0|0:0,0:0:0:0:
321,352,32665,2,0,P|366:331|416:336,1,100,0|0,0:0|0:0,0:0:0:0:
481,259,33297,6,0,P|498:165|433:94,1,200,4|2,0:0|0:0,0:0:0:0:
282,93,34402,2,0,P|207:100|132:94,1,150,2|2,0:0|0:0,0:0:0:0:
32,94,35192,1,2,0:0:0:0:
31,293,35823,6,0,P|81:289|129:303,1,100,2|2,0:0|0:0,0:0:0:0:
224,335,36455,2,0,P|271:349|321:345,1,100,2|2,0:0|0:0,0:0:0:0:
420,359,37086,2,0,P|481:261|404:173,1,250,2|0,0:0|0:0,0:0:0:0:
254,173,38349,6,0,P|184:148|110:150,1,150,2|2,0:0|0:0,0:0:0:0:
25,205,39139,1,0,0:0:0:0:
64,296,39455,2,0,P|126:337|198:327,1,150,2|0,0:0|0:0,0:0:0:0:
298,317,40244,2,0,P|347:312|394:329,1,100,2|0,0:0|0:0,0:0:0:0:
490,358,40876,6,0,L|508:158,1,200,12|12,0:0|0:0,0:0:0:0:
308,159,42139,2,0,L|326:358,1,200,12|12,0:0|0:0,0:0:0:0:
226,347,43086,1,12,0:0:0:0:
125,357,43402,6,0,P|75:355|33:329,1,100,4|10,0:0|0:0,0:0:0:0:
103,260,44034,2,0,P|131:192|197:160,2,150,2|0|10,0:0|0:0|0:0,0:0:0:0:
204,261,45297,2,0,L|308:269,1,100,2|10,0:0|0:0,0:0:0:0:
263,360,45928,6,0,L|99:373,2,150,2|0|10,0:0|0:0|0:0,0:0:0:0:
363,353,47192,2,0,P|399:319|418:274,1,100,2|10,0:0|0:0,0:0:0:0:
451,180,47823,2,0,P|414:145|395:100,1,100,2|10,0:0|0:0,0:0:0:0:
298,125,48455,6,0,L|198:132,1,100,6|10,0:0|0:0,0:0:0:0:
239,222,49086,2,0,L|339:215,1,100,2|10,0:0|0:0,0:0:0:0:
379,304,49718,2,0,L|215:317,2,150,2|0|10,0:0|0:0|0:0,0:0:0:0:
464,252,50981,6,0,L|477:88,2,150,6|0|10,0:0|0:0|0:0,0:0:0:0:
379,304,52244,2,0,B|385:324|373:349|373:349|286:368|228:317,1,200,2|10,0:0|3:1,0:0:0:0:
133,348,53192,1,0,3:1:0:0:
33,353,53507,6,0,P|56:283|120:246,1,150,12|12,0:0|0:0,0:0:0:0:
145,98,54455,2,0,P|214:121|251:185,1,150,8|8,0:0|0:0,0:0:0:0:
390,127,55402,2,0,P|438:117|485:133,1,100,8|0,3:1|3:1,0:0:0:0:
430,217,56034,6,0,P|389:279|322:312,1,150,12|12,0:0|0:0,0:0:0:0:
289,166,56981,2,0,P|227:125|153:120,1,150,0|0,3:1|3:1,3:3:0:0:
177,268,57928,2,0,P|140:300|91:308,1,100,8|0,3:1|3:1,0:0:0:0:
98,207,58560,6,0,P|53:150|59:77,1,150,12|12,0:0|0:0,0:0:0:0:
204,115,59507,2,0,P|273:90|340:119,1,150,8|0,0:0|3:1,0:0:0:0:
471,193,60455,2,0,L|463:305,1,100,8|8,0:0|0:0,0:0:0:0:
312,318,63455,6,0,P|259:266|254:193,1,150,4|10,0:0|0:0,0:0:0:0:
349,225,64244,2,0,P|392:201|418:159,1,100,2|10,0:0|0:0,0:0:0:0:
491,90,64876,2,0,P|448:64|398:63,1,100,2|10,0:0|0:0,0:0:0:0:
301,79,65507,2,0,P|251:77|209:51,1,100,2|10,0:0|0:0,0:0:0:0:
145,128,66139,6,0,B|125:113|79:111|79:111|37:158|51:234,1,200,2|2,0:0|0:0,0:0:0:0:
111,315,67086,1,10,0:0:0:0:
168,232,67402,2,0,P|208:263|256:274,1,100,2|10,0:0|0:0,0:0:0:0:
353,299,68034,2,0,P|409:252|418:179,1,150,2|4,0:0|0:0,0:0:0:0:
328,58,68981,6,0,P|234:32|141:67,1,200,10|10,0:0|0:0,0:0:0:0:
139,166,69928,2,0,P|70:141|38:75,2,150,0|0|10,0:0|0:0|0:0,0:0:0:0:
97,258,71192,6,0,P|139:282|189:285,1,100,12|8,0:0|0:0,0:0:0:0:
258,357,71823,2,0,P|282:313|285:263,1,100,8|8,0:0|0:0,0:0:0:0:
359,196,72455,2,0,P|315:170|266:167,1,100,8|8,0:0|0:0,0:0:0:0:
168,188,73086,1,8,0:0:0:0:
56,88,73560,6,0,B|84:46|84:46|182:31,1,150,4|10,0:0|0:0,0:0:0:0:
276,67,74349,2,0,L|374:52,1,100,2|8,0:0|0:0,0:0:0:0:
438,130,74981,2,0,L|400:222,1,100,2|10,0:0|0:0,0:0:0:0:
302,240,75613,2,0,L|240:161,1,100,2|10,0:0|0:0,0:0:0:0:
276,67,76244,6,0,B|206:67|206:67|152:112|152:112|88:112,1,200,2|2,0:0|0:0,0:0:0:0:
55,205,77192,1,10,0:0:0:0:
15,296,77507,2,0,P|63:304|110:288,1,100,2|10,0:0|0:0,0:0:0:0:
202,251,78139,2,0,P|274:232|346:253,1,150,2|4,0:0|0:0,0:0:0:0:
470,170,79086,6,0,P|488:123|484:73,1,100,10|2,0:0|0:0,0:0:0:0:
394,30,79718,1,10,0:0:0:0:
313,88,80034,2,0,P|319:163|358:226,2,150,2|0|10,0:0|0:0|0:0,0:0:0:0:
213,75,81297,6,0,L|105:109,1,100,12|8,0:0|0:0,0:0:0:0:
172,189,81928,2,0,L|245:256,1,100,8|8,0:0|0:0,0:0:0:0:
310,179,82560,2,0,L|453:133,1,150,8|8,0:0|0:0,0:0:0:0:
404,46,83349,1,0,0:0:0:0:
303,50,83665,6,0,B|271:66|231:50|231:50|191:34|157:47,1,150,4|10,0:0|0:0,0:0:0:0:
188,141,84450,2,0,P|184:190|205:235,1,100,2|10,0:0|0:0,0:0:0:0:
302,258,85078,2,0,P|346:237|375:196,1,100,2|10,0:0|0:0,0:0:0:0:
352,99,85706,2,0,P|311:70|262:66,1,100,2|10,0:0|0:0,0:0:0:0:
164,88,86335,6,0,B|136:136|136:136|48:159|48:159|21:206,1,200,2|2,0:0|0:0,0:0:0:0:
113,246,87277,1,10,0:0:0:0:
35,309,87591,2,0,B|126:351|126:351|214:284,1,200,2|2,0:0|0:0,0:0:0:0:
341,229,88691,6,0,B|336:193|365:161|365:161|394:129|393:92,1,150,4|10,0:0|0:0,0:0:0:0:
292,89,89480,2,0,L|192:56,1,100,2|10,0:0|0:0,0:0:0:0:
134,136,90112,2,0,L|155:239,1,100,2|10,0:0|0:0,0:0:0:0:
253,250,90743,2,0,L|331:179,1,100,2|10,0:0|0:0,0:0:0:0:
427,171,91375,6,0,B|395:126|399:75|399:75|339:103|305:81,1,200,10|10,0:0|0:0,0:0:0:0:
211,115,92322,1,10,0:0:0:0:
116,147,92638,2,0,B|121:122|119:98|119:98|71:77|22:76|22:76|20:46|24:26,1,200,10|8,0:0|3:1,0:0:0:0:
