osu file format v14

[General]
AudioFilename: 12. Rock on.mp3
AudioLeadIn: 0
PreviewTime: 63348
Countdown: 0
SampleSet: Soft
StackLeniency: 0.7
Mode: 0
LetterboxInBreaks: 0
WidescreenStoryboard: 0

[Editor]
Bookmarks: 9873,13539,18873
DistanceSpacing: 0.8
BeatDivisor: 4
GridSize: 4
TimelineZoom: 1.5

[Metadata]
Title:Rock on.
TitleUnicode:Rock on.
Artist:nano
ArtistUnicode:ナノ
Creator:HabiHolic
Version:Insane
Source:劇場版 蒼き鋼のアルペジオ - アルス・ノヴァ - DC
Tags:movie ending Aoki Hagane no Arpeggio of Blue Steel Ars Nova
BeatmapID:929590
BeatmapSetID:338668

[Difficulty]
HPDrainRate:7
CircleSize:4
OverallDifficulty:7
ApproachRate:9
SliderMultiplier:1.8
SliderTickRate:1

[Events]
//Background and Video events
0,0,"BG.jpg",0,0
//Break Periods
//Storyboard Layer 0 (Background)
//Storyboard Layer 1 (Fail)
//Storyboard Layer 2 (Pass)
//Storyboard Layer 3 (Foreground)
//Storyboard Sound Samples

[TimingPoints]
1871,666.666666666667,4,2,2,15,1,0
23164,315.789473684211,4,2,1,25,1,0
23164,-133.333333333333,4,2,0,25,0,0
40848,-100,4,2,1,75,0,0

[HitObjects]
156,80,23164,6,0,L|300:72,1,135.000005149842,4|2,0:0|0:0,0:0:0:0:
88,160,23637,2,0,P|60:132|52:96,1,67.5000025749208,2|0,0:0|0:0,0:0:0:0:
184,176,23953,2,0,P|172:216|148:240,1,67.5000025749208,2|0,0:0|0:0,0:0:0:0:
64,264,24269,1,0,0:0:0:0:
24,88,24427,1,0,0:0:0:0:
52,272,24585,2,0,L|60:348,1,67.5000025749208,2|0,0:0|0:0,0:0:0:0:
228,224,25058,6,0,L|296:220,1,67.5000025749208
352,312,25374,2,0,L|420:316,1,67.5000025749208,2|0,0:0|0:0,0:0:0:0:
488,288,25611,1,0,0:0:0:0:
488,288,25690,2,0,P|496:256|488:224,1,67.5000025749208,2|0,0:0|0:0,0:0:0:0:
400,148,26006,1,2,0:0:0:0:
304,252,26164,1,0,0:0:0:0:
272,120,26321,1,0,0:0:0:0:
400,148,26479,2,0,L|404:80,1,67.5000025749208,2|0,0:0|0:0,0:0:0:0:
260,92,26795,5,0,0:0:0:0:
156,172,26953,2,0,P|124:176|92:164,1,67.5000025749208,0|2,0:0|0:0,0:0:0:0:
0,100,27269,2,0,L|16:240,1,135.000005149842
248,220,27900,2,0,P|260:184|256:152,1,67.5000025749208
155,267,28216,6,0,P|206:310|272:311,1,135.000005149842,2|0,0:0|0:0,0:0:0:0:
344,248,28690,1,0,0:0:0:0:
420,312,28848,2,0,P|452:320|484:308,1,67.5000025749208,0|2,0:0|0:0,0:0:0:0:
360,152,29164,2,0,P|320:152|288:168,1,67.5000025749208
436,212,29479,2,0,P|456:152|432:84,1,135.000005149842,0|2,0:0|0:0,0:0:0:0:
352,28,29953,1,0,0:0:0:0:
264,80,30111,2,0,P|236:88|196:80,1,67.5000025749208
24,36,30427,2,0,P|56:27|89:34,1,67.5000025749208
112,104,30664,1,0,0:0:0:0:
112,104,30742,6,0,L|96:244,1,135.000005149842,0|2,0:0|0:0,0:0:0:0:
160,336,31216,1,0,0:0:0:0:
256,272,31374,2,0,P|288:264|324:272,1,67.5000025749208
472,344,31690,2,0,P|439:352|406:345,1,67.5000025749208,2|0,0:0|0:0,0:0:0:0:
152,320,32006,2,0,L|144:248,1,67.5000025749208,0|2,0:0|0:0,0:0:0:0:
44,168,32321,2,0,L|36:235,1,67.5000025749208,0|2,0:0|0:0,0:0:0:0:
116,108,32637,2,0,P|92:84|52:72,1,67.5000025749208,0|2,0:0|0:0,0:0:0:0:
132,200,32953,2,0,P|164:192|192:164,1,67.5000025749208,0|2,0:0|0:0,0:0:0:0:
280,80,33269,6,0,L|304:216,1,135.000005149842,4|2,0:0|0:0,0:0:0:0:
303,212,33742,1,0,0:0:0:0:
408,284,33900,2,0,L|420:216,1,67.5000025749208
304,336,34216,1,2,0:0:0:0:
180,264,34374,2,0,P|108:248|64:284,1,135.000005149842
16,184,34848,2,0,L|0:116,1,67.5000025749208,2|0,0:0|0:0,0:0:0:0:
116,44,35164,2,0,L|108:112,1,67.5000025749208,2|0,0:0|0:0,0:0:0:0:
168,216,35479,1,0,0:0:0:0:
252,120,35637,1,0,0:0:0:0:
252,120,35716,1,0,0:0:0:0:
252,120,35795,6,0,L|320:112,1,67.5000025749208
408,208,36111,2,0,L|340:200,1,67.5000025749208,2|0,0:0|0:0,0:0:0:0:
484,264,36427,2,0,P|500:228|500:192,1,67.5000025749208
396,296,36742,2,0,P|416:324|448:340,1,67.5000025749208,2|0,0:0|0:0,0:0:0:0:
464,124,37058,5,0,0:0:0:0:
312,204,37216,2,0,L|240:200,1,67.5000025749208
168,296,37532,1,0,0:0:0:0:
168,296,37690,2,0,L|240:292,1,67.5000025749208
88,352,38006,2,0,P|68:324|68:288,1,67.5000025749208
115,87,38321,6,0,P|141:149|124:213,1,135.000005149842,0|2,0:0|0:0,0:0:0:0:
48,156,38795,1,0,0:0:0:0:
224,148,38953,2,0,L|296:152,1,67.5000025749208
408,68,39269,2,0,L|336:72,1,67.5000025749208
480,128,39585,2,0,P|500:96|504:60,1,67.5000025749208
380,164,39900,2,0,L|396:304,1,135.000005149842
492,364,40374,2,0,L|504:288,1,67.5000025749208
280,252,40690,1,0,0:0:0:0:
280,252,40848,6,0,P|204:228|136:296,1,180,12|2,0:0|0:0,0:0:0:0:
36,352,41321,1,0,0:0:0:0:
16,204,41479,2,0,P|8:160|8:108,1,90,2|8,0:0|0:0,0:0:0:0:
212,200,41795,2,0,P|211:244|203:289,1,90,8|2,0:0|0:0,0:0:0:0:
136,108,42111,5,8,0:0:0:0:
244,28,42269,1,2,0:0:0:0:
264,208,42427,1,8,0:0:0:0:
100,96,42585,1,2,0:0:0:0:
364,124,42742,2,0,P|372:64|376:20,1,90,8|2,0:0|0:0,0:0:0:0:
374,34,42979,1,2,0:0:0:0:
374,34,43058,1,8,0:0:0:0:
160,188,43216,2,0,L|164:232,1,45,2|2,0:0|0:0,0:0:0:0:
164,304,43374,6,0,P|108:292|72:288,1,90,4|0,0:0|0:0,0:0:0:0:
256,364,43690,2,0,P|312:352|348:336,1,90,8|0,0:0|0:0,0:0:0:0:
488,248,44006,2,0,P|424:192|336:212,1,180,2|8,0:0|0:0,0:0:0:0:
236,264,44479,2,0,P|220:208|212:164,1,90,0|2,0:0|0:0,0:0:0:0:
276,80,44795,1,2,0:0:0:0:
356,224,44953,1,8,0:0:0:0:
400,24,45111,1,0,0:0:0:0:
276,80,45269,2,0,P|232:88|176:84,1,90,2|2,0:0|0:0,0:0:0:0:
128,164,45585,2,0,P|85:148|39:117,1,90,8|0,0:0|0:0,0:0:0:0:
48,320,45900,6,2,P|104:272|232:284,1,180,0|8,0:0|0:0,0:0:0:0:
356,348,46374,2,0,P|332:312|316:264,1,90,0|2,0:0|0:0,0:0:0:0:
344,148,46690,1,2,0:0:0:0:
220,256,46848,1,8,0:0:0:0:
156,48,47006,1,0,0:0:0:0:
356,124,47164,5,2,0:0:0:0:
148,156,47321,2,0,P|96:148|48:136,1,90,2|8,0:0|0:0,0:0:0:0:
128,32,47637,1,0,0:0:0:0:
252,112,47795,2,0,P|264:164|268:208,1,90,2|2,0:0|0:0,0:0:0:0:
76,328,48111,2,0,P|64:276|60:232,1,90,8|0,0:0|0:0,0:0:0:0:
331,65,48427,6,0,P|359:150|352:240,1,180,4|8,0:0|0:0,0:0:0:0:
288,336,48900,1,0,0:0:0:0:
200,248,49058,2,0,P|140:252|104:264,1,90,2|2,0:0|0:0,0:0:0:0:
12,200,49374,2,0,P|4:248|0:300,1,90,8|0,0:0|0:0,0:0:0:0:
264,332,49690,2,0,P|300:268|256:164,1,180,2|8,0:0|0:0,0:0:0:0:
266,172,50164,1,0,0:0:0:0:
72,288,50321,2,0,P|28:312|-12:316,1,90,2|2,0:0|0:0,0:0:0:0:
136,212,50637,2,0,P|164:248|172:304,1,90,8|0,0:0|0:0,0:0:0:0:
300,200,50953,6,0,L|320:8,1,180,4|8,0:0|0:0,0:0:0:0:
318,20,51427,1,0,0:0:0:0:
408,132,51585,1,2,0:0:0:0:
200,112,51742,1,2,0:0:0:0:
404,244,51900,2,0,P|448:236|492:216,1,90,8|0,0:0|0:0,0:0:0:0:
288,228,52216,6,0,P|312:276|324:312,1,90,2|2,0:0|0:0,0:0:0:0:
360,152,52532,2,0,P|324:124|288:92,1,90,8|2,0:0|0:0,0:0:0:0:
290,94,52769,1,2,0:0:0:0:
290,94,52848,1,2,0:0:0:0:
156,108,53006,2,0,P|172:56|172:8,1,90,2|8,0:0|0:0,0:0:0:0:
64,48,53321,1,0,0:0:0:0:
16,244,53479,6,0,P|92:276|168:208,1,180,8|2,0:0|0:0,0:0:0:0:
192,64,53953,1,8,0:0:0:0:
192,64,54269,1,2,0:0:0:0:
260,200,54427,1,8,0:0:0:0:
304,20,54585,1,2,0:0:0:0:
132,152,54742,6,0,P|92:136|52:104,1,90,8|2,0:0|0:0,0:0:0:0:
55,107,55058,1,2,0:0:0:0:
220,24,55216,1,2,0:0:0:0:
192,256,55374,1,8,0:0:0:0:
344,144,55532,2,0,P|296:152|256:144,1,90,2|2,0:0|0:0,0:0:0:0:
184,24,55848,1,0,0:0:0:0:
380,56,56006,6,0,P|440:108|424:204,1,180,12|2,0:0|0:0,0:0:0:0:
340,316,56479,1,8,0:0:0:0:
340,316,56795,1,2,0:0:0:0:
272,228,56953,6,0,L|276:180,3,45,2|2|2|2,0:0|0:0|0:0|0:0,0:0:0:0:
268,140,57269,1,2,0:0:0:0:
243,102,57348,1,2,0:0:0:0:
207,75,57427,1,2,0:0:0:0:
164,63,57506,1,2,0:0:0:0:
119,67,57585,1,2,0:0:0:0:
79,87,57664,1,2,0:0:0:0:
49,120,57742,1,2,0:0:0:0:
31,161,57821,1,2,0:0:0:0:
30,206,57900,6,0,L|36:256,1,45,2|2,0:0|0:0,0:0:0:0:
144,344,58058,2,0,L|149:299,1,45,2|2,0:0|0:0,0:0:0:0:
176,204,58216,2,0,L|128:196,1,45,2|2,0:0|0:0,0:0:0:0:
4,336,58374,2,0,L|48:343,1,45,2|2,0:0|0:0,0:0:0:0:
336,260,58532,6,0,P|344:204|344:140,1,90,8|2,0:0|0:0,0:0:0:0:
252,80,58848,1,8,0:0:0:0:
484,176,59006,2,0,P|468:132|464:80,1,90,8|2,0:0|0:0,0:0:0:0:
252,80,59321,1,2,0:0:0:0:
328,216,59479,1,8,0:0:0:0:
396,20,59637,1,2,0:0:0:0:
396,20,59716,1,2,0:0:0:0:
396,20,59795,6,0,L|408:116,1,90,2|2,0:0|0:0,0:0:0:0:
240,296,60111,2,0,P|192:288|156:260,1,90,8|2,0:0|0:0,0:0:0:0:
159,263,60348,1,2,0:0:0:0:
159,263,60427,1,2,0:0:0:0:
216,104,60585,2,0,P|228:140|232:196,1,90,2|8,0:0|0:0,0:0:0:0:
56,176,60900,1,2,0:0:0:0:
116,24,61058,1,2,0:0:0:0:
116,24,62479,5,0,0:0:0:0:
212,160,62637,2,0,P|260:148|300:120,1,90
120,52,62953,1,0,0:0:0:0:
124,216,63111,2,0,P|76:204|36:176,1,90
304,280,63427,6,0,L|332:80,1,180,4|0,0:0|0:0,0:0:0:0:
328,101,63900,1,8,0:0:0:0:
448,180,64058,1,0,0:0:0:0:
200,108,64216,2,0,P|224:60|236:16,1,90,2|2,0:0|0:0,0:0:0:0:
96,116,64532,2,0,P|112:172|152:208,1,90,8|0,0:0|0:0,0:0:0:0:
280,336,64848,2,0,P|313:242|324:152,1,180,2|8,0:0|0:0,0:0:0:0:
188,80,65321,1,0,0:0:0:0:
112,236,65479,1,2,0:0:0:0:
32,32,65637,1,2,0:0:0:0:
208,192,65795,1,8,0:0:0:0:
0,128,65953,5,2,0:0:0:0:
0,128,66032,1,2,0:0:0:0:
0,128,66111,2,0,P|8:184|20:228,1,90,2|2,0:0|0:0,0:0:0:0:
60,356,66427,2,0,P|104:348|156:312,1,90,8|0,0:0|0:0,0:0:0:0:
296,192,66742,2,0,P|256:248|256:332,1,135,2|0,0:0|0:0,0:0:0:0:
288,360,67058,2,0,P|328:352|380:336,1,90,8|0,0:0|0:0,0:0:0:0:
392,136,67374,6,0,P|356:100|316:88,1,90,2|2,0:0|0:0,0:0:0:0:
408,252,67690,2,0,P|456:248|512:216,1,90,8|0,0:0|0:0,0:0:0:0:
504,64,68006,1,2,0:0:0:0:
272,148,68164,1,2,0:0:0:0:
272,148,68242,1,2,0:0:0:0:
272,148,68321,1,8,0:0:0:0:
472,352,68479,6,0,L|496:168,1,180,4|2,0:0|0:0,0:0:0:0:
392,76,68953,1,8,0:0:0:0:
348,248,69111,1,0,0:0:0:0:
276,32,69269,1,2,0:0:0:0:
440,172,69427,1,2,0:0:0:0:
440,172,69506,1,2,0:0:0:0:
440,172,69585,1,8,0:0:0:0:
200,128,69742,1,0,0:0:0:0:
308,268,69900,6,0,P|264:272|208:256,1,90,2|2,0:0|0:0,0:0:0:0:
120,320,70216,2,0,P|99:280|94:235,1,90,8|0,0:0|0:0,0:0:0:0:
136,40,70532,1,2,0:0:0:0:
16,152,70690,1,2,0:0:0:0:
224,124,70848,2,0,P|272:112|324:84,1,90,8|0,0:0|0:0,0:0:0:0:
428,24,71164,6,0,P|440:80|448:116,1,90,8|2,0:0|0:0,0:0:0:0:
384,308,71479,2,0,P|372:240|372:208,1,90,8|2,0:0|0:0,0:0:0:0:
472,248,71795,1,8,0:0:0:0:
280,264,71953,2,0,P|224:264|184:256,1,90,2|8,0:0|0:0,0:0:0:0:
128,176,72269,1,2,0:0:0:0:
296,36,72427,2,0,P|352:92|360:192,1,180,2|8,0:0|0:0,0:0:0:0:
256,284,72900,2,0,L|252:228,1,45,2|2,0:0|0:0,0:0:0:0:
248,164,73058,1,8,0:0:0:0:
88,152,73216,2,0,P|96:212|108:248,1,90,2|8,0:0|0:0,0:0:0:0:
340,348,73532,6,0,P|424:360|484:292,1,180,4|2,0:0|0:0,0:0:0:0:
376,176,74006,2,0,P|380:228|404:292,1,90,8|0,0:0|0:0,0:0:0:0:
436,76,74321,2,0,P|392:60|344:52,1,90,2|2,0:0|0:0,0:0:0:0:
256,120,74637,2,0,P|208:128|160:124,1,90,8|0,0:0|0:0,0:0:0:0:
48,44,74953,5,2,0:0:0:0:
108,216,75111,1,2,0:0:0:0:
196,36,75269,1,8,0:0:0:0:
0,132,75427,1,0,0:0:0:0:
280,148,75585,2,0,P|284:96|296:44,1,90,2|2,0:0|0:0,0:0:0:0:
380,112,75900,1,8,0:0:0:0:
184,224,76058,1,2,0:0:0:0:
184,224,76137,1,2,0:0:0:0:
184,224,76216,6,0,P|180:172|168:120,1,90,2|2,0:0|0:0,0:0:0:0:
120,312,76532,2,0,P|172:320|212:348,1,90,8|0,0:0|0:0,0:0:0:0:
84,216,76848,2,0,P|44:248|8:260,1,90,2|2,0:0|0:0,0:0:0:0:
0,156,77164,1,8,0:0:0:0:
152,48,77321,1,0,0:0:0:0:
276,172,77479,2,0,P|224:164|180:148,1,90,2|2,0:0|0:0,0:0:0:0:
152,48,77795,1,8,0:0:0:0:
180,272,77953,1,0,0:0:0:0:
352,112,78111,2,0,P|368:160|368:212,1,90,2|2,0:0|0:0,0:0:0:0:
369,199,78348,1,2,0:0:0:0:
369,199,78427,1,8,0:0:0:0:
140,312,78585,6,0,L|108:132,1,180,4|0,0:0|0:0,0:0:0:0:
248,24,79058,2,0,P|252:64|232:120,1,90,8|0,0:0|0:0,0:0:0:0:
96,204,79374,1,2,0:0:0:0:
40,64,79532,1,2,0:0:0:0:
208,184,79690,2,0,P|256:176|304:176,1,90,8|0,0:0|0:0,0:0:0:0:
512,300,80006,2,0,P|432:316|336:248,1,180,2|8,0:0|0:0,0:0:0:0:
312,72,80479,1,0,0:0:0:0:
416,144,80637,2,0,P|456:108|476:72,1,90,2|2,0:0|0:0,0:0:0:0:
312,212,80953,1,8,0:0:0:0:
212,40,81111,1,0,0:0:0:0:
276,224,81269,6,0,L|372:232,1,90,8|2,0:0|0:0,0:0:0:0:
200,312,81585,2,0,L|104:320,1,90,8|2,0:0|0:0,0:0:0:0:
144,204,81900,1,8,0:0:0:0:
320,340,82058,1,2,0:0:0:0:
344,104,82216,1,8,0:0:0:0:
144,204,82374,1,2,0:0:0:0:
376,212,82532,6,0,P|432:204|476:192,1,90,2|2,0:0|0:0,0:0:0:0:
464,195,82769,1,2,0:0:0:0:
464,195,82848,1,8,0:0:0:0:
232,160,83006,2,0,L|240:204,1,45,2|2,0:0|0:0,0:0:0:0:
252,272,83164,1,2,0:0:0:0:
280,52,83321,2,0,P|232:56|184:48,1,90,2|8,0:0|0:0,0:0:0:0:
64,40,83637,6,0,L|84:220,1,180,4|2,0:0|0:0,0:0:0:0:
220,348,84111,2,0,P|240:304|240:256,1,90,8|0,0:0|0:0,0:0:0:0:
200,136,84427,1,2,0:0:0:0:
304,232,84585,1,2,0:0:0:0:
344,28,84742,1,8,0:0:0:0:
160,224,84900,6,0,P|107:154|135:72,1,180,2|2,0:0|0:0,0:0:0:0:
292,128,85374,1,8,0:0:0:0:
228,300,85532,1,0,0:0:0:0:
172,108,85690,1,2,0:0:0:0:
376,244,85848,2,0,L|392:152,1,90,2|8,0:0|0:0,0:0:0:0:
172,204,86164,5,2,0:0:0:0:
172,204,86242,1,8,0:0:0:0:
172,204,86321,2,0,L|80:212,1,90,2|2,0:0|0:0,0:0:0:0:
4,132,86637,1,8,0:0:0:0:
16,296,86795,1,0,0:0:0:0:
236,287,86953,2,0,P|271:207|238:126,1,180,2|8,0:0|0:0,0:0:0:0:
152,64,87427,1,0,0:0:0:0:
96,176,87585,6,0,P|144:188|184:192,1,90,2|2,0:0|0:0,0:0:0:0:
276,84,87900,1,8,0:0:0:0:
212,272,88058,1,0,0:0:0:0:
408,184,88216,2,0,P|360:192|316:192,1,90,2|2,0:0|0:0,0:0:0:0:
318,192,88453,1,2,0:0:0:0:
318,192,88532,1,8,0:0:0:0:
448,92,88690,6,0,P|505:157|493:244,1,180,4|0,0:0|0:0,0:0:0:0:
404,328,89164,1,8,0:0:0:0:
328,164,89321,1,0,0:0:0:0:
488,224,89479,1,2,0:0:0:0:
236,256,89637,2,0,P|225:212|220:167,1,90,2|8,0:0|0:0,0:0:0:0:
432,40,89953,6,0,L|416:224,1,180,2|2,0:0|0:0,0:0:0:0:
304,336,90427,1,8,0:0:0:0:
272,176,90585,1,0,0:0:0:0:
412,236,90742,1,2,0:0:0:0:
187,283,90900,2,0,P|170:242|158:199,1,90,2|8,0:0|0:0,0:0:0:0:
200,64,91216,5,2,0:0:0:0:
200,64,91295,1,2,0:0:0:0:
200,64,91374,1,8,0:0:0:0:
268,216,91532,1,0,0:0:0:0:
80,180,91690,2,0,P|28:100|40:16,1,180,8|8,0:0|0:0,0:0:0:0:
212,100,92164,1,2,0:0:0:0:
128,292,92321,2,0,L|24:288,1,90,8|2,0:0|0:0,0:0:0:0:
220,352,92637,5,8,0:0:0:0:
280,176,92795,1,2,0:0:0:0:
120,264,92953,1,8,0:0:0:0:
336,284,93111,1,2,0:0:0:0:
336,284,93190,1,2,0:0:0:0:
336,284,93269,1,8,0:0:0:0:
372,72,93427,1,12,0:0:0:0:
