osu file format v14

[General]
AudioFilename: audio.mp3
AudioLeadIn: 0
PreviewTime: 48986
Countdown: 0
SampleSet: Normal
StackLeniency: 0.7
Mode: 1
LetterboxInBreaks: 0
WidescreenStoryboard: 0

[Editor]
DistanceSpacing: 0.8
BeatDivisor: 4
GridSize: 4
TimelineZoom: 1.6

[Metadata]
Title:PARALYZE:D
TitleUnicode:PARALYZE:D
Artist:nano
ArtistUnicode:ナノ
Creator:Hitsu
Version:Inner Oni
Source:RE:VICE[D]
Tags:INFINITY≠ZERO / SABLE Rock on. west ground visual novel otomate 2014 idea factory paralyzed リヴァイスディー
BeatmapID:1197358
BeatmapSetID:565883

[Difficulty]
HPDrainRate:6
CircleSize:5
OverallDifficulty:6
ApproachRate:5
SliderMultiplier:1.4
SliderTickRate:1

[Events]
//Background and Video events
0,0,"RE-VICE[D].full.1747173.jpg",0,20
//Break Periods
//Storyboard Layer 0 (Background)
//Storyboard Layer 1 (Fail)
//Storyboard Layer 2 (Pass)
//Storyboard Layer 3 (Foreground)
//Storyboard Sound Samples

[TimingPoints]
1487,333.333333333333,4,1,1,90,1,0
49486,-100,4,1,1,100,0,1
49653,-95.2380952380952,4,1,1,100,0,1
70820,-95.2380952380952,4,1,1,90,0,0
70986,-100,4,1,1,90,0,0
79986,-100,4,1,1,80,0,0

[HitObjects]
240,196,1487,5,0,0:0:0:0:
240,196,1820,1,8,0:0:0:0:
240,196,2070,1,0,0:0:0:0:
240,196,2153,1,0,0:0:0:0:
240,196,2320,1,0,0:0:0:0:
240,196,2653,1,8,0:0:0:0:
240,196,2987,1,0,0:0:0:0:
240,196,3153,1,8,0:0:0:0:
240,196,3320,1,8,0:0:0:0:
216,184,3403,1,0,0:0:0:0:
240,196,3487,1,0,0:0:0:0:
240,196,3653,1,0,0:0:0:0:
240,196,3820,1,8,0:0:0:0:
240,196,3986,1,8,0:0:0:0:
240,196,4153,1,0,0:0:0:0:
240,196,4487,1,8,0:0:0:0:
240,196,4737,1,0,0:0:0:0:
240,196,4820,1,0,0:0:0:0:
240,196,4987,1,0,0:0:0:0:
240,196,5320,1,8,0:0:0:0:
240,196,5653,1,0,0:0:0:0:
240,196,5820,1,8,0:0:0:0:
240,196,5987,1,8,0:0:0:0:
240,196,6070,1,8,0:0:0:0:
240,196,6153,1,0,0:0:0:0:
240,196,6320,1,0,0:0:0:0:
240,196,6486,1,0,0:0:0:0:
240,196,6820,1,4,0:0:0:0:
264,192,6986,1,0,0:0:0:0:
264,192,7153,1,8,0:0:0:0:
264,192,7320,1,0,0:0:0:0:
264,192,7403,1,0,0:0:0:0:
264,192,7487,1,0,0:0:0:0:
264,192,7653,1,0,0:0:0:0:
264,192,7820,1,0,0:0:0:0:
264,192,7987,1,8,0:0:0:0:
264,192,8320,1,0,0:0:0:0:
264,192,8487,1,8,0:0:0:0:
264,192,8653,1,8,0:0:0:0:
264,192,8737,1,0,0:0:0:0:
264,192,8820,1,0,0:0:0:0:
264,192,8987,1,0,0:0:0:0:
264,192,9153,1,8,0:0:0:0:
276,196,9236,1,0,0:0:0:0:
264,192,9320,1,8,0:0:0:0:
264,192,9487,1,0,0:0:0:0:
264,192,9820,1,8,0:0:0:0:
264,192,10070,1,0,0:0:0:0:
264,192,10153,1,0,0:0:0:0:
264,192,10320,1,0,0:0:0:0:
264,192,10487,1,0,0:0:0:0:
264,192,10653,1,8,0:0:0:0:
264,192,10987,1,0,0:0:0:0:
264,192,11153,1,8,0:0:0:0:
264,192,11320,1,8,0:0:0:0:
264,192,11403,1,8,0:0:0:0:
264,192,11487,1,0,0:0:0:0:
264,192,11653,1,0,0:0:0:0:
272,196,11736,1,0,0:0:0:0:
264,192,11820,1,8,0:0:0:0:
264,192,11987,1,8,0:0:0:0:
264,192,12153,1,4,0:0:0:0:
276,184,12487,1,8,0:0:0:0:
244,204,12736,1,0,0:0:0:0:
244,204,12820,1,0,0:0:0:0:
244,204,12986,1,0,0:0:0:0:
244,204,13153,1,0,0:0:0:0:
244,204,13320,1,8,0:0:0:0:
244,208,13653,1,0,0:0:0:0:
244,208,13820,1,8,0:0:0:0:
244,208,13986,1,0,0:0:0:0:
244,208,14070,1,0,0:0:0:0:
244,208,14153,1,0,0:0:0:0:
244,208,14320,1,8,0:0:0:0:
244,208,14486,1,0,0:0:0:0:
244,208,14570,1,0,0:0:0:0:
244,208,14653,1,8,0:0:0:0:
244,208,14820,1,0,0:0:0:0:
244,208,15153,1,8,0:0:0:0:
244,208,15403,1,0,0:0:0:0:
244,208,15486,1,0,0:0:0:0:
244,208,15653,1,0,0:0:0:0:
244,208,15820,1,0,0:0:0:0:
244,208,15986,1,8,0:0:0:0:
244,208,16153,1,0,0:0:0:0:
244,200,16320,1,0,0:0:0:0:
236,184,16403,1,0,0:0:0:0:
244,200,16486,1,8,0:0:0:0:
244,200,16653,1,0,0:0:0:0:
244,200,16820,1,8,0:0:0:0:
268,188,16986,1,0,0:0:0:0:
268,188,17070,1,0,0:0:0:0:
268,188,17153,1,8,0:0:0:0:
268,188,17236,1,8,0:0:0:0:
268,188,17320,1,8,0:0:0:0:
268,188,17403,1,8,0:0:0:0:
268,188,17486,1,4,0:0:0:0:
280,204,17820,1,8,0:0:0:0:
256,192,17986,1,0,0:0:0:0:
256,192,18070,1,0,0:0:0:0:
272,192,18153,1,0,0:0:0:0:
256,192,18320,1,0,0:0:0:0:
228,196,18486,1,8,0:0:0:0:
228,196,18653,1,0,0:0:0:0:
228,196,18986,1,0,0:0:0:0:
228,196,19153,1,8,0:0:0:0:
228,196,19320,1,0,0:0:0:0:
228,196,19653,1,8,0:0:0:0:
228,196,19986,1,8,0:0:0:0:
228,196,20070,1,8,0:0:0:0:
228,196,20153,1,0,0:0:0:0:
228,196,20486,1,8,0:0:0:0:
228,196,20653,1,0,0:0:0:0:
228,196,20820,1,0,0:0:0:0:
236,200,20986,1,0,0:0:0:0:
236,200,21070,1,0,0:0:0:0:
228,196,21153,1,8,0:0:0:0:
228,196,21320,1,0,0:0:0:0:
228,196,21653,1,0,0:0:0:0:
228,196,21820,1,8,0:0:0:0:
228,196,21986,1,0,0:0:0:0:
228,196,22320,1,8,0:0:0:0:
228,196,22486,1,0,0:0:0:0:
228,196,22653,1,8,0:0:0:0:
228,196,22736,1,8,0:0:0:0:
228,196,22820,1,0,0:0:0:0:
232,188,22986,1,0,0:0:0:0:
232,188,23153,1,8,0:0:0:0:
212,192,23320,1,0,0:0:0:0:
232,188,23403,1,0,0:0:0:0:
232,188,23486,1,0,0:0:0:0:
232,188,23653,1,0,0:0:0:0:
232,188,23820,1,8,0:0:0:0:
232,188,23986,1,0,0:0:0:0:
296,192,24320,1,0,0:0:0:0:
296,192,24486,1,8,0:0:0:0:
296,192,24653,1,0,0:0:0:0:
296,192,24986,1,8,0:0:0:0:
296,192,25320,1,8,0:0:0:0:
296,192,25403,1,8,0:0:0:0:
296,192,25486,1,0,0:0:0:0:
260,192,25653,1,0,0:0:0:0:
260,192,25820,1,8,0:0:0:0:
260,192,25986,1,0,0:0:0:0:
256,192,26320,1,0,0:0:0:0:
256,196,26486,1,8,0:0:0:0:
256,192,26653,1,8,0:0:0:0:
280,192,26736,1,8,0:0:0:0:
256,192,26820,1,0,0:0:0:0:
256,192,26903,1,8,0:0:0:0:
256,192,26986,1,0,0:0:0:0:
256,192,27070,1,0,0:0:0:0:
256,192,27153,1,8,0:0:0:0:
256,192,27320,1,0,0:0:0:0:
256,200,27403,1,0,0:0:0:0:
256,200,27486,1,0,0:0:0:0:
256,200,27653,1,8,0:0:0:0:
240,200,27736,1,0,0:0:0:0:
256,200,27820,1,8,0:0:0:0:
256,200,27986,1,8,0:0:0:0:
256,200,28153,1,4,0:0:0:0:
268,188,28320,1,0,0:0:0:0:
268,188,28486,1,8,0:0:0:0:
260,196,28653,1,0,0:0:0:0:
260,196,28736,1,0,0:0:0:0:
260,196,28820,1,0,0:0:0:0:
260,196,28986,1,0,0:0:0:0:
260,196,29153,1,8,0:0:0:0:
260,192,29320,1,0,0:0:0:0:
272,208,29653,1,0,0:0:0:0:
272,208,29820,1,8,0:0:0:0:
272,208,29986,1,0,0:0:0:0:
272,208,30070,1,0,0:0:0:0:
272,208,30153,1,0,0:0:0:0:
264,208,30320,1,0,0:0:0:0:
264,208,30486,1,8,0:0:0:0:
264,208,30653,1,0,0:0:0:0:
252,188,30986,1,0,0:0:0:0:
252,188,31153,1,8,0:0:0:0:
252,188,31320,1,0,0:0:0:0:
252,188,31403,1,0,0:0:0:0:
252,188,31486,1,0,0:0:0:0:
252,188,31653,1,0,0:0:0:0:
252,188,31736,1,0,0:0:0:0:
252,188,31820,1,8,0:0:0:0:
276,188,31986,1,0,0:0:0:0:
276,196,32320,1,0,0:0:0:0:
276,196,32486,1,8,0:0:0:0:
276,196,32653,1,0,0:0:0:0:
276,196,32986,1,0,0:0:0:0:
276,196,33153,1,8,0:0:0:0:
276,196,33320,1,0,0:0:0:0:
276,196,33486,1,4,0:0:0:0:
272,208,33653,1,0,0:0:0:0:
272,208,33736,1,0,0:0:0:0:
272,208,33820,1,8,0:0:0:0:
276,196,33903,1,0,0:0:0:0:
272,208,33986,1,8,0:0:0:0:
272,208,34153,1,0,0:0:0:0:
296,200,34320,1,0,0:0:0:0:
224,196,34403,1,0,0:0:0:0:
296,200,34486,1,8,0:0:0:0:
296,200,34653,1,0,0:0:0:0:
232,196,34986,1,0,0:0:0:0:
232,196,35153,1,8,0:0:0:0:
232,196,35320,1,0,0:0:0:0:
260,208,35653,1,0,0:0:0:0:
260,208,35820,1,8,0:0:0:0:
260,208,35986,1,0,0:0:0:0:
260,208,36070,1,8,0:0:0:0:
260,208,36153,1,0,0:0:0:0:
224,196,36320,1,0,0:0:0:0:
296,212,36486,1,8,0:0:0:0:
296,208,36820,1,0,0:0:0:0:
296,208,36986,1,0,0:0:0:0:
296,208,37153,1,8,0:0:0:0:
272,184,37320,1,0,0:0:0:0:
272,176,37653,1,0,0:0:0:0:
272,176,37820,1,8,0:0:0:0:
272,176,37986,1,0,0:0:0:0:
272,176,38070,1,0,0:0:0:0:
272,176,38153,1,8,0:0:0:0:
280,180,38320,1,0,0:0:0:0:
280,180,38403,1,0,0:0:0:0:
280,180,38486,1,8,0:0:0:0:
280,180,38570,1,0,0:0:0:0:
280,180,38653,1,0,0:0:0:0:
280,180,38736,1,0,0:0:0:0:
280,180,38820,1,8,0:0:0:0:
280,180,38986,1,0,0:0:0:0:
280,180,39153,1,0,0:0:0:0:
280,180,39320,1,12,0:0:0:0:
280,180,39653,1,0,0:0:0:0:
280,180,39736,1,0,0:0:0:0:
280,180,39820,1,8,0:0:0:0:
280,180,39986,1,0,0:0:0:0:
280,180,40153,1,12,0:0:0:0:
280,180,40486,1,0,0:0:0:0:
280,180,40653,1,12,0:0:0:0:
280,180,40986,1,8,0:0:0:0:
280,180,41070,1,0,0:0:0:0:
280,180,41153,1,8,0:0:0:0:
280,180,41236,1,8,0:0:0:0:
280,180,41320,1,0,0:0:0:0:
280,180,41403,1,0,0:0:0:0:
280,180,41486,1,8,0:0:0:0:
280,180,41653,1,0,0:0:0:0:
280,180,41736,1,0,0:0:0:0:
280,180,41820,1,0,0:0:0:0:
280,180,41986,1,12,0:0:0:0:
280,180,42153,1,0,0:0:0:0:
280,180,42320,1,8,0:0:0:0:
280,180,42486,1,8,0:0:0:0:
280,180,42570,1,8,0:0:0:0:
280,180,42653,1,0,0:0:0:0:
272,176,42736,1,0,0:0:0:0:
280,180,42820,1,8,0:0:0:0:
280,180,42986,1,0,0:0:0:0:
280,180,43070,1,0,0:0:0:0:
280,180,43153,1,0,0:0:0:0:
280,180,43320,1,12,0:0:0:0:
280,180,43486,1,0,0:0:0:0:
280,180,43570,1,0,0:0:0:0:
280,180,43653,1,0,0:0:0:0:
280,180,43736,1,0,0:0:0:0:
280,180,43820,1,8,0:0:0:0:
280,180,43986,1,8,0:0:0:0:
280,180,44153,1,4,0:0:0:0:
280,180,44486,1,0,0:0:0:0:
280,180,44820,1,0,0:0:0:0:
280,180,45153,1,0,0:0:0:0:
280,180,45320,1,8,0:0:0:0:
280,180,45486,1,0,0:0:0:0:
280,180,45820,1,0,0:0:0:0:
280,180,46153,1,0,0:0:0:0:
280,180,46486,1,0,0:0:0:0:
280,180,46653,1,0,0:0:0:0:
280,180,46820,1,8,0:0:0:0:
331,192,46986,1,0,0:0:0:0:
280,180,47153,1,8,0:0:0:0:
279,189,47320,1,0,0:0:0:0:
280,180,47486,1,0,0:0:0:0:
280,180,47570,1,0,0:0:0:0:
280,180,47653,1,0,0:0:0:0:
280,180,47736,1,0,0:0:0:0:
280,180,47820,1,8,0:0:0:0:
280,180,47903,1,0,0:0:0:0:
280,180,47986,1,8,0:0:0:0:
280,180,48070,1,8,0:0:0:0:
280,180,48153,1,0,0:0:0:0:
280,180,48820,1,8,0:0:0:0:
280,180,48986,1,8,0:0:0:0:
280,180,49070,1,8,0:0:0:0:
280,180,49153,1,0,0:0:0:0:
280,180,49236,1,8,0:0:0:0:
280,180,49320,1,8,0:0:0:0:
280,180,49403,1,8,0:0:0:0:
280,180,49486,1,4,0:0:0:0:
272,192,49820,1,8,0:0:0:0:
272,192,49986,1,0,0:0:0:0:
272,192,50070,1,0,0:0:0:0:
272,192,50153,1,0,0:0:0:0:
264,176,50320,1,0,0:0:0:0:
264,176,50486,1,0,0:0:0:0:
264,176,50653,1,8,0:0:0:0:
260,188,50986,1,0,0:0:0:0:
260,188,51153,1,8,0:0:0:0:
260,188,51320,1,0,0:0:0:0:
260,188,51403,1,0,0:0:0:0:
260,188,51486,1,0,0:0:0:0:
288,176,51653,1,0,0:0:0:0:
288,176,51820,1,8,0:0:0:0:
272,180,51986,1,0,0:0:0:0:
272,180,52070,1,8,0:0:0:0:
272,180,52153,1,0,0:0:0:0:
272,180,52320,1,0,0:0:0:0:
272,180,52486,1,8,0:0:0:0:
272,180,52653,1,8,0:0:0:0:
272,180,52736,1,0,0:0:0:0:
272,180,52820,1,8,0:0:0:0:
292,208,52903,1,8,0:0:0:0:
280,196,52986,1,0,0:0:0:0:
280,196,53153,1,0,0:0:0:0:
280,196,53320,1,8,0:0:0:0:
272,184,53653,1,0,0:0:0:0:
272,184,53736,1,0,0:0:0:0:
272,184,53820,1,8,0:0:0:0:
272,184,53986,1,8,0:0:0:0:
272,184,54153,1,0,0:0:0:0:
272,184,54320,1,0,0:0:0:0:
284,192,54403,1,0,0:0:0:0:
272,184,54486,1,8,0:0:0:0:
272,184,54570,1,8,0:0:0:0:
272,184,54653,1,8,0:0:0:0:
272,184,54736,1,8,0:0:0:0:
272,184,54820,1,4,0:0:0:0:
232,188,54986,1,0,0:0:0:0:
272,184,55153,1,8,0:0:0:0:
272,184,55320,1,8,0:0:0:0:
272,184,55403,1,8,0:0:0:0:
272,184,55486,1,0,0:0:0:0:
272,184,55653,1,0,0:0:0:0:
272,184,55820,1,8,0:0:0:0:
272,184,55903,1,0,0:0:0:0:
272,184,55986,1,8,0:0:0:0:
264,192,56153,1,0,0:0:0:0:
264,192,56320,1,0,0:0:0:0:
264,192,56403,1,0,0:0:0:0:
264,192,56486,1,8,0:0:0:0:
248,180,56653,1,0,0:0:0:0:
248,180,56737,1,0,0:0:0:0:
248,180,56820,1,0,0:0:0:0:
248,180,56986,1,0,0:0:0:0:
248,180,57153,1,8,0:0:0:0:
248,180,57320,1,8,0:0:0:0:
248,180,57403,1,8,0:0:0:0:
248,180,57486,1,0,0:0:0:0:
296,184,57653,1,0,0:0:0:0:
296,184,57820,1,8,0:0:0:0:
296,184,57986,1,0,0:0:0:0:
296,184,58070,1,0,0:0:0:0:
296,184,58153,1,0,0:0:0:0:
264,192,58320,1,0,0:0:0:0:
264,192,58486,1,8,0:0:0:0:
264,192,58653,1,0,0:0:0:0:
264,192,58986,1,0,0:0:0:0:
264,192,59153,1,8,0:0:0:0:
264,192,59320,1,0,0:0:0:0:
264,192,59403,1,0,0:0:0:0:
264,192,59486,1,8,0:0:0:0:
264,192,59653,1,0,0:0:0:0:
264,192,59736,1,0,0:0:0:0:
264,192,59820,1,8,0:0:0:0:
264,192,59903,1,8,0:0:0:0:
264,192,59986,1,8,0:0:0:0:
264,192,60070,1,8,0:0:0:0:
264,192,60153,1,4,0:0:0:0:
264,192,60486,1,8,0:0:0:0:
264,192,60653,1,0,0:0:0:0:
264,192,60736,1,8,0:0:0:0:
264,192,60820,1,0,0:0:0:0:
264,192,60986,1,0,0:0:0:0:
264,192,61153,1,0,0:0:0:0:
264,192,61320,1,8,0:0:0:0:
264,188,61653,1,0,0:0:0:0:
264,188,61820,1,8,0:0:0:0:
264,188,61986,1,8,0:0:0:0:
264,188,62070,1,0,0:0:0:0:
264,188,62153,1,0,0:0:0:0:
264,188,62320,1,0,0:0:0:0:
264,188,62486,1,8,0:0:0:0:
264,188,62653,1,0,0:0:0:0:
257,186,62736,1,0,0:0:0:0:
264,188,62820,1,0,0:0:0:0:
264,188,62986,1,0,0:0:0:0:
264,188,63070,1,0,0:0:0:0:
264,188,63153,1,8,0:0:0:0:
264,188,63320,1,8,0:0:0:0:
264,188,63486,1,0,0:0:0:0:
264,188,63570,1,0,0:0:0:0:
264,188,63653,1,8,0:0:0:0:
257,186,63736,1,0,0:0:0:0:
264,184,63820,1,8,0:0:0:0:
264,188,63986,1,8,0:0:0:0:
260,204,64320,1,0,0:0:0:0:
260,204,64486,1,8,0:0:0:0:
260,204,64653,1,0,0:0:0:0:
260,204,64736,1,0,0:0:0:0:
260,204,64820,1,8,0:0:0:0:
252,192,64986,1,0,0:0:0:0:
252,192,65153,1,8,0:0:0:0:
252,192,65236,1,8,0:0:0:0:
252,192,65320,1,8,0:0:0:0:
252,192,65403,1,8,0:0:0:0:
252,192,65486,1,4,0:0:0:0:
252,192,65653,1,0,0:0:0:0:
252,192,65820,1,8,0:0:0:0:
252,192,65986,1,0,0:0:0:0:
272,188,66070,1,0,0:0:0:0:
264,184,66153,1,0,0:0:0:0:
264,184,66320,1,0,0:0:0:0:
264,184,66486,1,8,0:0:0:0:
264,184,66570,1,0,0:0:0:0:
264,184,66653,1,8,0:0:0:0:
264,184,66736,1,8,0:0:0:0:
272,196,66820,1,0,0:0:0:0:
272,196,66986,1,0,0:0:0:0:
272,196,67070,1,0,0:0:0:0:
272,196,67153,1,8,0:0:0:0:
256,208,67320,1,8,0:0:0:0:
256,208,67486,1,0,0:0:0:0:
256,208,67653,1,0,0:0:0:0:
216,200,67736,1,0,0:0:0:0:
256,196,67820,1,8,0:0:0:0:
256,196,67986,1,8,0:0:0:0:
256,196,68070,1,8,0:0:0:0:
256,196,68153,1,0,0:0:0:0:
240,184,68320,1,0,0:0:0:0:
240,184,68486,1,8,0:0:0:0:
240,184,68653,1,0,0:0:0:0:
248,196,68736,1,0,0:0:0:0:
240,184,68820,1,0,0:0:0:0:
272,216,68986,1,0,0:0:0:0:
272,216,69153,1,8,0:0:0:0:
276,216,69320,1,8,0:0:0:0:
272,216,69403,1,0,0:0:0:0:
276,216,69486,1,0,0:0:0:0:
276,216,69653,1,0,0:0:0:0:
276,216,69736,1,0,0:0:0:0:
276,216,69820,1,8,0:0:0:0:
276,216,69986,1,0,0:0:0:0:
276,216,70153,1,8,0:0:0:0:
276,216,70236,1,0,0:0:0:0:
276,216,70320,1,0,0:0:0:0:
276,216,70403,1,0,0:0:0:0:
276,216,70486,1,8,0:0:0:0:
276,216,70570,1,0,0:0:0:0:
276,216,70653,1,8,0:0:0:0:
276,216,70736,1,8,0:0:0:0:
276,216,70820,1,4,0:0:0:0:
288,204,71153,1,8,0:0:0:0:
268,180,71403,1,0,0:0:0:0:
268,180,71486,1,0,0:0:0:0:
268,180,71653,1,0,0:0:0:0:
256,176,71820,1,0,0:0:0:0:
268,180,71986,1,8,0:0:0:0:
256,192,72320,1,0,0:0:0:0:
256,176,72486,1,8,0:0:0:0:
260,172,72652,1,8,0:0:0:0:
260,172,72736,1,0,0:0:0:0:
260,172,72820,1,0,0:0:0:0:
260,172,72986,1,0,0:0:0:0:
248,176,73153,1,8,0:0:0:0:
248,176,73320,1,8,0:0:0:0:
240,184,73486,1,0,0:0:0:0:
240,184,73820,1,8,0:0:0:0:
272,180,74070,1,0,0:0:0:0:
272,180,74153,1,8,0:0:0:0:
264,196,74320,1,0,0:0:0:0:
264,196,74403,1,0,0:0:0:0:
264,196,74486,1,0,0:0:0:0:
264,196,74653,1,8,0:0:0:0:
264,204,74986,1,0,0:0:0:0:
264,204,75153,1,8,0:0:0:0:
264,204,75320,1,8,0:0:0:0:
264,204,75403,1,0,0:0:0:0:
264,204,75486,1,0,0:0:0:0:
264,204,75653,1,0,0:0:0:0:
264,204,75820,1,8,0:0:0:0:
264,204,75903,1,8,0:0:0:0:
264,204,75986,1,8,0:0:0:0:
248,192,76070,1,8,0:0:0:0:
264,196,76153,1,4,0:0:0:0:
256,196,76320,1,0,0:0:0:0:
256,196,76486,1,8,0:0:0:0:
256,196,76570,1,0,0:0:0:0:
256,196,76653,1,8,0:0:0:0:
236,192,76820,1,0,0:0:0:0:
236,192,76986,1,0,0:0:0:0:
236,192,77070,1,0,0:0:0:0:
236,192,77153,1,8,0:0:0:0:
284,208,77320,1,8,0:0:0:0:
284,208,77486,1,0,0:0:0:0:
284,208,77653,1,0,0:0:0:0:
284,208,77736,1,0,0:0:0:0:
292,192,77820,1,8,0:0:0:0:
292,192,77986,1,8,0:0:0:0:
292,192,78070,1,8,0:0:0:0:
292,192,78153,1,0,0:0:0:0:
292,192,78320,1,0,0:0:0:0:
292,192,78486,1,8,0:0:0:0:
292,192,78570,1,8,0:0:0:0:
292,192,78653,1,8,0:0:0:0:
276,196,78820,1,0,0:0:0:0:
268,208,79153,1,8,0:0:0:0:
264,208,79403,1,8,0:0:0:0:
264,208,79486,1,0,0:0:0:0:
264,208,79653,1,0,0:0:0:0:
264,208,79820,1,0,0:0:0:0:
272,200,79986,1,8,0:0:0:0:
272,200,80320,1,8,0:0:0:0:
272,200,80653,1,8,0:0:0:0:
272,200,80820,1,0,0:0:0:0:
272,200,80986,1,8,0:0:0:0:
272,200,81153,1,8,0:0:0:0:
272,200,81320,1,8,0:0:0:0:
