osu file format v14

[General]
AudioFilename: audio.mp3
AudioLeadIn: 0
PreviewTime: 48986
Countdown: 0
SampleSet: Normal
StackLeniency: 0.7
Mode: 1
LetterboxInBreaks: 0
WidescreenStoryboard: 0

[Editor]
DistanceSpacing: 0.8
BeatDivisor: 4
GridSize: 4
TimelineZoom: 1

[Metadata]
Title:PARALYZE:D
TitleUnicode:PARALYZE:D
Artist:nano
ArtistUnicode:ナノ
Creator:Hitsu
Version:Kantan
Source:RE:VICE[D]
Tags:INFINITY≠ZERO / SABLE Rock on. west ground visual novel otomate 2014 idea factory paralyzed リヴァイスディー
BeatmapID:1197359
BeatmapSetID:565883

[Difficulty]
HPDrainRate:8
CircleSize:5
OverallDifficulty:4
ApproachRate:2
SliderMultiplier:1.4
SliderTickRate:1

[Events]
//Background and Video events
0,0,"RE-VICE[D].full.1747173.jpg",0,20
//Break Periods
//Storyboard Layer 0 (Background)
//Storyboard Layer 1 (Fail)
//Storyboard Layer 2 (Pass)
//Storyboard Layer 3 (Foreground)
//Storyboard Sound Samples

[TimingPoints]
1487,333.333333333333,4,1,1,90,1,0
49486,-100,4,1,1,100,0,1
70820,-100,4,1,1,90,0,0
79986,-100,4,1,1,80,0,0

[HitObjects]
240,196,1487,5,0,0:0:0:0:
240,196,2153,1,0,0:0:0:0:
240,196,2653,1,8,0:0:0:0:
240,196,4153,1,0,0:0:0:0:
240,196,4820,1,0,0:0:0:0:
240,196,5320,1,8,0:0:0:0:
240,196,6820,1,4,0:0:0:0:
264,192,7486,1,0,0:0:0:0:
264,192,7987,1,8,0:0:0:0:
264,192,8487,1,8,0:0:0:0:
264,192,9487,1,0,0:0:0:0:
264,192,10153,1,0,0:0:0:0:
264,192,10653,1,8,0:0:0:0:
264,192,11153,1,8,0:0:0:0:
264,192,12153,1,4,0:0:0:0:
244,204,12820,1,0,0:0:0:0:
244,204,13320,1,8,0:0:0:0:
244,208,13820,1,8,0:0:0:0:
244,208,14820,1,0,0:0:0:0:
244,208,15486,1,0,0:0:0:0:
244,208,15986,1,8,0:0:0:0:
244,200,16486,1,8,0:0:0:0:
268,188,17486,1,4,0:0:0:0:
228,196,18486,1,8,0:0:0:0:
228,196,19153,1,8,0:0:0:0:
228,196,20153,1,0,0:0:0:0:
228,196,20820,1,8,0:0:0:0:
228,196,21320,1,8,0:0:0:0:
228,196,22820,1,4,0:0:0:0:
232,188,23820,1,8,0:0:0:0:
296,192,24486,1,8,0:0:0:0:
296,192,24986,1,8,0:0:0:0:
296,192,25486,1,0,0:0:0:0:
256,196,26820,1,0,0:0:0:0:
256,200,28153,1,12,0:0:0:0:
260,196,29153,1,8,0:0:0:0:
272,208,29820,1,8,0:0:0:0:
256,192,30486,1,0,0:0:0:0:
272,208,30820,1,8,0:0:0:0:
252,188,31820,1,8,0:0:0:0:
276,196,32486,1,8,0:0:0:0:
252,188,33486,1,4,0:0:0:0:
272,208,33820,1,8,0:0:0:0:
296,200,34486,1,8,0:0:0:0:
232,196,35153,1,0,0:0:0:0:
260,208,35820,1,8,0:0:0:0:
260,208,36153,1,0,0:0:0:0:
296,208,37153,1,8,0:0:0:0:
272,176,37486,1,0,0:0:0:0:
280,180,38820,1,12,0:0:0:0:
300,188,39320,1,12,0:0:0:0:
304,192,40153,1,4,0:0:0:0:
280,180,40653,1,4,0:0:0:0:
280,180,41486,1,12,0:0:0:0:
280,180,41986,1,12,0:0:0:0:
280,180,42820,1,12,0:0:0:0:
280,180,43320,1,12,0:0:0:0:
280,180,44153,1,4,0:0:0:0:
280,180,45486,1,0,0:0:0:0:
256,192,46820,12,0,48153,0:0:0:0:
292,196,48820,5,8,0:0:0:0:
280,180,49486,5,4,0:0:0:0:
272,192,50153,1,0,0:0:0:0:
264,176,50653,1,8,0:0:0:0:
260,188,51486,1,0,0:0:0:0:
248,176,51986,1,0,0:0:0:0:
272,180,52486,1,8,0:0:0:0:
272,180,52820,1,0,0:0:0:0:
280,196,53320,1,8,0:0:0:0:
272,184,54153,1,0,0:0:0:0:
272,184,54820,1,4,0:0:0:0:
272,184,55486,1,0,0:0:0:0:
252,180,55820,1,8,0:0:0:0:
264,192,56486,1,8,0:0:0:0:
248,180,57154,1,8,0:0:0:0:
248,180,57487,1,0,0:0:0:0:
296,184,57820,1,8,0:0:0:0:
264,192,58486,1,8,0:0:0:0:
264,192,59153,1,8,0:0:0:0:
264,200,60153,1,4,0:0:0:0:
300,200,60820,1,8,0:0:0:0:
272,184,61320,1,8,0:0:0:0:
260,188,62153,1,0,0:0:0:0:
272,180,62653,1,0,0:0:0:0:
276,188,63153,1,0,0:0:0:0:
272,180,63487,1,0,0:0:0:0:
264,188,63986,1,8,0:0:0:0:
272,184,64820,1,0,0:0:0:0:
252,192,65486,1,4,0:0:0:0:
264,184,66486,1,8,0:0:0:0:
232,200,67153,1,8,0:0:0:0:
256,208,67486,1,0,0:0:0:0:
240,184,68153,1,8,0:0:0:0:
272,216,68820,1,8,0:0:0:0:
264,196,70153,1,8,0:0:0:0:
276,216,70820,1,4,0:0:0:0:
264,192,71486,1,0,0:0:0:0:
264,192,71987,1,8,0:0:0:0:
264,192,72487,1,8,0:0:0:0:
264,192,73487,1,0,0:0:0:0:
264,192,74153,1,0,0:0:0:0:
264,192,74653,1,8,0:0:0:0:
264,192,75153,1,8,0:0:0:0:
264,192,76153,1,4,0:0:0:0:
244,204,76820,1,0,0:0:0:0:
244,204,77320,1,8,0:0:0:0:
244,208,77820,1,8,0:0:0:0:
244,208,78820,1,0,0:0:0:0:
244,208,79653,1,0,0:0:0:0:
244,208,79986,1,0,0:0:0:0:
244,200,80820,1,8,0:0:0:0:
244,200,81320,1,8,0:0:0:0:
