osu file format v14

[General]
AudioFilename: audio.mp3
AudioLeadIn: 0
PreviewTime: 58348
Countdown: 0
SampleSet: Soft
StackLeniency: 0.7
Mode: 1
LetterboxInBreaks: 0
WidescreenStoryboard: 0

[Editor]
DistanceSpacing: 0.8
BeatDivisor: 8
GridSize: 4
TimelineZoom: 3.399998

[Metadata]
Title:PARAISO
TitleUnicode:PARAISO
Artist:nano
ArtistUnicode:ナノ
Creator:Ryotarou Nogami
Version:Chain Taiko
Source:チェインクロニクル~ヘクセイタスの閃~
Tags:chain chronicles nano paraiso album ending full movie
BeatmapID:1389951
BeatmapSetID:655967

[Difficulty]
HPDrainRate:5
CircleSize:7
OverallDifficulty:6
ApproachRate:9
SliderMultiplier:1.4
SliderTickRate:1

[Events]
//Background and Video events
0,0,"wallhaven-347698.jpg",0,0
//Break Periods
//Storyboard Layer 0 (Background)
//Storyboard Layer 1 (Fail)
//Storyboard Layer 2 (Pass)
//Storyboard Layer 3 (Foreground)
//Storyboard Sound Samples

[TimingPoints]
0,615.012454002194,4,1,0,100,1,0
615,-100,4,2,1,5,0,0
12300,307.506227001097,4,1,0,100,1,0
14145,-83.3333333333333,4,2,1,50,0,0
23754,-133.333333333333,4,2,1,50,0,0
24062,-83.3333333333333,4,2,1,50,0,0
34670,-133.333333333333,4,2,1,50,0,0
42819,-83.3333333333333,4,2,1,50,0,0
43896,-83.3333333333333,4,2,1,50,0,0
53428,-133.333333333333,4,2,1,50,0,0
56273,-83.3333333333333,4,2,1,50,0,0
59040,-83.3333333333333,4,2,1,50,0,1
68188,-83.3333333333333,4,2,1,50,0,0
68919,-83.3333333333333,4,2,1,50,0,1
76261,-100,4,2,1,50,0,1
77414,-83.3333333333333,4,2,1,50,0,1
78720,-76.9230769230769,4,2,1,50,0,0
96479,-200,4,2,1,100,0,0
98131,-83.3333333333333,4,2,1,50,0,0
98746,-83.3333333333333,4,2,1,50,0,0
107972,-133.333333333333,4,2,1,50,0,0
110893,-83.3333333333333,4,2,1,50,0,0
113430,-333.333333333333,4,2,1,50,0,0
114852,-133.333333333333,4,2,1,50,0,0
115621,-333.333333333333,4,2,1,50,0,0
117466,-133.333333333333,4,2,1,50,0,0
117927,-333.333333333333,4,2,1,50,0,0
119695,-133.333333333333,4,2,1,50,0,0
120541,-333.333333333333,4,2,1,50,0,0
122232,-133.333333333333,4,2,1,50,0,0
123001,-333.333333333333,4,2,1,50,0,0
124692,-133.333333333333,4,2,1,50,0,0
125499,-333.333333333333,4,2,1,50,0,0
127152,-133.333333333333,4,2,1,50,0,0
127767,-333.333333333333,4,2,1,50,0,0
129766,-133.333333333333,4,2,1,50,0,0
130419,-333.333333333333,4,2,1,50,0,0
132456,-83.3333333333333,4,2,1,50,0,0
132918,-83.3333333333333,4,2,1,50,0,1
147601,-83.3333333333333,4,2,1,50,0,0
151291,-100,4,2,1,50,0,0
154674,-83.3333333333333,4,2,1,100,0,0
155058,-83.3333333333333,4,2,1,50,0,1
155135,-83.3333333333333,4,2,1,50,0,0
157518,-83.3333333333333,4,2,1,50,0,1
157595,-83.3333333333333,4,2,1,50,0,0
158671,-83.3333333333333,4,2,1,50,0,0
160209,-83.3333333333333,4,2,1,50,0,0
162515,-100,4,2,1,50,0,0
164898,-83.3333333333333,4,2,1,50,0,1
172241,-100,4,2,1,50,0,1
173394,-83.3333333333333,4,2,1,50,0,1
174354,-83.3333333333333,4,2,1,100,0,0
174759,-83.3333333333333,4,2,1,50,0,0
183753,-133.333333333333,4,2,1,50,0,0
184061,-83.3333333333333,4,2,1,50,0,0

[HitObjects]
232,188,1230,5,0,0:0:0:0:
256,196,1883,1,0,0:0:0:0:
256,196,2460,1,4,0:0:0:0:
252,192,2767,1,8,0:0:0:0:
252,192,2921,1,8,0:0:0:0:
252,192,3075,1,8,0:0:0:0:
256,196,3382,1,0,0:0:0:0:
256,196,3536,1,0,0:0:0:0:
252,192,3690,1,8,0:0:0:0:
252,188,4305,1,0,0:0:0:0:
252,188,4612,1,0,0:0:0:0:
252,188,4920,1,0,0:0:0:0:
252,188,5535,1,8,0:0:0:0:
252,188,5842,1,0,0:0:0:0:
252,188,5996,1,0,0:0:0:0:
252,188,6150,1,8,0:0:0:0:
252,188,6765,1,0,0:0:0:0:
252,188,7072,1,0,0:0:0:0:
252,188,7380,1,0,0:0:0:0:
252,188,7687,1,0,0:0:0:0:
252,188,7841,1,0,0:0:0:0:
252,188,7995,1,8,0:0:0:0:
252,188,8148,1,0,0:0:0:0:
252,188,8302,1,0,0:0:0:0:
252,188,8610,1,8,0:0:0:0:
252,188,8917,1,8,0:0:0:0:
252,188,9225,1,0,0:0:0:0:
252,188,9532,1,0,0:0:0:0:
252,188,9840,1,0,0:0:0:0:
248,184,10147,1,8,0:0:0:0:
248,184,10301,1,8,0:0:0:0:
252,188,10455,1,0,0:0:0:0:
252,188,10762,1,0,0:0:0:0:
252,188,11108,1,8,0:0:0:0:
252,188,11377,1,0,0:0:0:0:
252,188,11992,1,4,0:0:0:0:
192,160,14762,5,8,0:0:0:0:
232,164,14915,1,0,0:0:0:0:
256,164,15069,1,0,0:0:0:0:
288,168,15223,1,8,0:0:0:0:
220,120,15377,1,0,0:0:0:0:
240,120,15530,1,0,0:0:0:0:
256,120,15684,1,8,0:0:0:0:
168,108,15838,1,0,0:0:0:0:
204,108,15992,1,0,0:0:0:0:
208,108,16145,1,8,0:0:0:0:
196,172,16299,1,0,0:0:0:0:
220,176,16453,1,0,0:0:0:0:
256,176,16607,1,8,0:0:0:0:
288,152,16760,1,0,0:0:0:0:
320,148,16914,1,0,0:0:0:0:
256,192,16991,1,0,0:0:0:0:
324,148,17068,1,0,0:0:0:0:
344,148,17222,1,8,0:0:0:0:
184,84,17375,1,0,0:0:0:0:
228,92,17529,1,0,0:0:0:0:
240,116,17683,1,8,0:0:0:0:
176,192,17837,1,0,0:0:0:0:
188,188,17990,1,0,0:0:0:0:
208,192,18144,1,8,0:0:0:0:
240,168,18298,1,0,0:0:0:0:
252,168,18452,1,0,0:0:0:0:
280,176,18605,1,8,0:0:0:0:
176,132,18759,1,0,0:0:0:0:
216,124,18913,1,0,0:0:0:0:
232,120,19067,1,8,0:0:0:0:
204,92,19220,1,0,0:0:0:0:
216,92,19374,1,0,0:0:0:0:
256,188,19451,1,0,0:0:0:0:
224,92,19528,1,0,0:0:0:0:
236,96,19682,1,0,0:0:0:0:
252,96,19835,1,0,0:0:0:0:
260,96,19989,1,8,0:0:0:0:
100,308,20143,1,0,0:0:0:0:
148,300,20297,1,0,0:0:0:0:
168,300,20450,1,0,0:0:0:0:
200,296,20604,1,8,0:0:0:0:
236,296,20758,1,0,0:0:0:0:
180,184,20912,1,0,0:0:0:0:
224,184,21065,1,0,0:0:0:0:
248,188,21219,1,8,0:0:0:0:
160,124,21373,1,0,0:0:0:0:
216,128,21527,1,0,0:0:0:0:
240,136,21680,1,0,0:0:0:0:
276,144,21834,1,8,0:0:0:0:
208,284,21988,1,0,0:0:0:0:
244,280,22142,1,0,0:0:0:0:
264,284,22295,1,0,0:0:0:0:
292,284,22449,1,8,0:0:0:0:
152,196,22603,1,0,0:0:0:0:
180,196,22757,1,0,0:0:0:0:
244,192,22910,1,0,0:0:0:0:
264,192,23064,1,8,0:0:0:0:
224,144,23218,1,0,0:0:0:0:
248,148,23372,1,8,0:0:0:0:
280,120,23423,1,8,0:0:0:0:
144,172,23525,1,8,0:0:0:0:
172,176,23679,1,0,0:0:0:0:
120,108,23833,1,8,0:0:0:0:
120,108,23910,1,8,0:0:0:0:
120,108,23987,1,8,0:0:0:0:
132,104,24140,1,8,0:0:0:0:
184,116,24294,1,8,0:0:0:0:
216,120,24448,1,8,0:0:0:0:
288,120,24602,1,12,0:0:0:0:
300,128,24755,1,0,0:0:0:0:
316,152,24909,1,0,0:0:0:0:
324,172,25063,1,8,0:0:0:0:
168,168,25217,1,0,0:0:0:0:
188,168,25371,1,0,0:0:0:0:
208,172,25524,1,8,0:0:0:0:
248,128,25678,1,0,0:0:0:0:
264,132,25832,1,0,0:0:0:0:
280,132,25986,1,8,0:0:0:0:
124,176,26139,1,0,0:0:0:0:
160,184,26293,1,0,0:0:0:0:
204,176,26447,1,8,0:0:0:0:
192,300,26601,1,0,0:0:0:0:
192,300,26754,1,0,0:0:0:0:
256,192,26831,1,0,0:0:0:0:
192,300,26908,1,0,0:0:0:0:
212,296,27062,1,8,0:0:0:0:
208,176,27216,1,0,0:0:0:0:
228,176,27369,1,0,0:0:0:0:
248,184,27523,1,8,0:0:0:0:
120,176,27677,1,0,0:0:0:0:
148,172,27831,1,0,0:0:0:0:
160,172,27984,1,8,0:0:0:0:
216,264,28138,1,0,0:0:0:0:
260,280,28292,1,0,0:0:0:0:
272,280,28446,1,8,0:0:0:0:
272,168,28599,1,0,0:0:0:0:
288,180,28753,1,0,0:0:0:0:
300,184,28907,1,8,0:0:0:0:
136,192,29061,1,0,0:0:0:0:
168,192,29214,1,0,0:0:0:0:
256,192,29291,1,0,0:0:0:0:
188,192,29368,1,0,0:0:0:0:
204,196,29522,1,8,0:0:0:0:
84,152,29676,1,0,0:0:0:0:
112,148,29829,1,0,0:0:0:0:
180,128,29983,1,0,0:0:0:0:
156,168,30137,1,8,0:0:0:0:
240,172,30291,1,0,0:0:0:0:
276,172,30444,1,0,0:0:0:0:
304,172,30598,1,0,0:0:0:0:
328,176,30752,1,8,0:0:0:0:
148,176,30906,1,0,0:0:0:0:
156,176,31059,1,0,0:0:0:0:
156,176,31213,1,0,0:0:0:0:
156,176,31367,1,8,0:0:0:0:
192,180,31521,1,0,0:0:0:0:
220,184,31674,1,8,0:0:0:0:
176,124,31828,1,8,0:0:0:0:
216,152,31982,1,0,0:0:0:0:
224,152,32136,1,0,0:0:0:0:
248,152,32289,1,8,0:0:0:0:
292,188,32443,1,0,0:0:0:0:
312,192,32597,1,8,0:0:0:0:
204,192,32751,1,0,0:0:0:0:
240,208,32904,1,0,0:0:0:0:
260,212,33058,1,8,0:0:0:0:
192,160,33212,1,0,0:0:0:0:
208,160,33366,1,0,0:0:0:0:
228,160,33519,1,8,0:0:0:0:
136,196,33673,1,0,0:0:0:0:
144,120,33827,1,8,0:0:0:0:
160,120,33904,1,8,0:0:0:0:
172,120,33981,1,8,0:0:0:0:
240,96,34134,1,8,0:0:0:0:
248,96,34211,1,8,0:0:0:0:
260,100,34288,1,8,0:0:0:0:
260,100,34365,1,8,0:0:0:0:
292,104,34442,1,12,0:0:0:0:
180,184,34749,1,0,0:0:0:0:
252,184,35057,1,0,0:0:0:0:
308,184,35364,1,0,0:0:0:0:
304,200,35672,1,0,0:0:0:0:
304,200,35979,1,0,0:0:0:0:
272,216,36287,1,0,0:0:0:0:
272,216,36594,1,0,0:0:0:0:
224,200,36902,1,0,0:0:0:0:
224,200,37209,1,0,0:0:0:0:
204,112,37517,1,0,0:0:0:0:
236,120,37824,1,0,0:0:0:0:
288,128,38132,1,0,0:0:0:0:
288,128,38439,1,0,0:0:0:0:
336,144,38747,1,0,0:0:0:0:
148,208,39054,1,0,0:0:0:0:
244,188,39245,1,0,0:0:0:0:
264,192,39322,1,0,0:0:0:0:
200,192,39398,1,0,0:0:0:0:
216,156,39669,1,0,0:0:0:0:
196,164,39977,1,0,0:0:0:0:
176,168,40284,1,0,0:0:0:0:
212,148,40592,1,0,0:0:0:0:
120,224,40899,1,0,0:0:0:0:
156,216,41207,1,0,0:0:0:0:
176,216,41514,1,0,0:0:0:0:
192,216,41822,1,0,0:0:0:0:
196,132,42129,1,0,0:0:0:0:
252,148,42437,1,0,0:0:0:0:
260,148,42744,1,0,0:0:0:0:
176,104,42898,1,12,0:0:0:0:
196,136,43974,1,0,0:0:0:0:
196,136,44051,1,0,0:0:0:0:
196,136,44128,1,0,0:0:0:0:
196,136,44205,1,0,0:0:0:0:
204,140,44282,1,12,0:0:0:0:
288,156,44589,1,8,0:0:0:0:
244,176,44741,1,0,0:0:0:0:
192,184,44897,1,0,0:0:0:0:
224,184,45051,1,0,0:0:0:0:
248,192,45203,1,0,0:0:0:0:
284,196,45358,1,8,0:0:0:0:
248,192,45510,1,8,0:0:0:0:
248,164,45666,1,0,0:0:0:0:
264,164,45819,1,8,0:0:0:0:
216,180,45971,1,0,0:0:0:0:
184,152,46127,1,0,0:0:0:0:
200,152,46281,1,0,0:0:0:0:
220,148,46433,1,8,0:0:0:0:
256,152,46759,1,0,0:0:0:0:
296,148,47067,1,8,0:0:0:0:
184,176,47219,1,0,0:0:0:0:
184,112,47375,1,0,0:0:0:0:
200,120,47529,1,0,0:0:0:0:
216,144,47681,1,0,0:0:0:0:
236,128,47836,1,8,0:0:0:0:
216,144,47988,1,8,0:0:0:0:
160,192,48144,1,0,0:0:0:0:
200,196,48297,1,8,0:0:0:0:
216,176,48449,1,0,0:0:0:0:
244,176,48605,1,0,0:0:0:0:
268,192,48759,1,0,0:0:0:0:
292,184,48912,1,8,0:0:0:0:
200,136,49219,1,0,0:0:0:0:
268,148,49527,1,8,0:0:0:0:
240,96,49834,1,0,0:0:0:0:
260,96,49987,1,0,0:0:0:0:
216,176,50141,1,0,0:0:0:0:
312,104,50295,1,8,0:0:0:0:
216,176,50449,1,8,0:0:0:0:
212,176,50602,1,0,0:0:0:0:
272,176,50756,1,8,0:0:0:0:
192,212,50909,1,0,0:0:0:0:
140,192,51064,1,0,0:0:0:0:
176,204,51218,1,0,0:0:0:0:
200,216,51372,1,8,0:0:0:0:
264,140,51680,1,0,0:0:0:0:
280,172,51987,1,8,0:0:0:0:
240,160,52295,1,0,0:0:0:0:
224,172,52449,1,0,0:0:0:0:
216,176,52601,1,0,0:0:0:0:
332,168,52756,1,8,0:0:0:0:
352,188,52910,1,8,0:0:0:0:
244,224,53064,1,0,0:0:0:0:
292,228,53218,1,8,0:0:0:0:
308,232,53371,1,0,0:0:0:0:
128,156,53507,1,8,0:0:0:0:
136,156,53584,1,8,0:0:0:0:
148,156,53661,1,8,0:0:0:0:
152,156,53738,1,8,0:0:0:0:
160,156,53813,1,0,0:0:0:0:
168,160,53890,1,0,0:0:0:0:
168,160,53967,1,0,0:0:0:0:
168,160,54043,1,0,0:0:0:0:
244,108,54122,1,8,0:0:0:0:
188,176,56292,1,8,0:0:0:0:
228,180,56368,1,8,0:0:0:0:
252,180,56445,1,0,0:0:0:0:
264,100,56599,1,8,0:0:0:0:
324,148,56753,1,0,0:0:0:0:
244,144,56828,1,0,0:0:0:0:
220,128,56907,1,0,0:0:0:0:
344,144,57060,1,8,0:0:0:0:
256,176,57214,1,0,0:0:0:0:
276,172,57291,1,0,0:0:0:0:
276,132,57368,1,0,0:0:0:0:
344,144,57522,1,8,0:0:0:0:
340,192,57675,1,0,0:0:0:0:
144,228,57983,1,0,0:0:0:0:
168,240,58137,1,0,0:0:0:0:
200,144,59042,1,4,0:0:0:0:
240,164,59386,1,8,0:0:0:0:
264,184,59694,1,0,0:0:0:0:
284,180,59848,1,0,0:0:0:0:
300,180,60002,1,8,0:0:0:0:
320,188,60155,1,0,0:0:0:0:
228,164,60309,1,0,0:0:0:0:
220,128,60462,1,0,0:0:0:0:
232,132,60616,1,8,0:0:0:0:
240,168,60770,1,0,0:0:0:0:
244,168,60923,1,0,0:0:0:0:
252,192,61077,1,0,0:0:0:0:
308,168,61231,1,8,0:0:0:0:
240,168,61385,1,0,0:0:0:0:
168,168,61539,1,0,0:0:0:0:
208,160,61847,1,8,0:0:0:0:
168,112,62154,1,0,0:0:0:0:
216,124,62308,1,0,0:0:0:0:
236,128,62462,1,8,0:0:0:0:
236,184,62616,1,0,0:0:0:0:
252,176,62769,1,0,0:0:0:0:
296,192,62923,1,0,0:0:0:0:
188,168,63077,1,8,0:0:0:0:
240,172,63230,1,0,0:0:0:0:
224,128,63384,1,0,0:0:0:0:
240,132,63538,1,0,0:0:0:0:
272,136,63692,1,8,0:0:0:0:
216,216,63845,1,0,0:0:0:0:
224,216,63922,1,0,0:0:0:0:
240,216,63999,1,4,0:0:0:0:
100,104,64307,1,8,0:0:0:0:
144,184,64460,1,0,0:0:0:0:
196,188,64614,1,0,0:0:0:0:
184,184,64768,1,0,0:0:0:0:
236,176,64922,1,8,0:0:0:0:
80,176,65075,1,0,0:0:0:0:
240,172,65229,1,0,0:0:0:0:
132,168,65383,1,0,0:0:0:0:
156,160,65537,1,8,0:0:0:0:
240,172,65690,1,0,0:0:0:0:
204,132,65844,1,0,0:0:0:0:
240,132,65998,1,0,0:0:0:0:
272,136,66152,1,8,0:0:0:0:
240,172,66305,1,0,0:0:0:0:
184,188,66459,1,0,0:0:0:0:
248,188,66767,1,8,0:0:0:0:
180,160,67074,1,0,0:0:0:0:
200,156,67228,1,0,0:0:0:0:
232,152,67382,1,8,0:0:0:0:
264,152,67535,1,0,0:0:0:0:
240,172,67689,1,0,0:0:0:0:
288,156,67843,1,0,0:0:0:0:
308,156,67997,1,8,0:0:0:0:
188,132,68304,1,0,0:0:0:0:
200,132,68458,1,0,0:0:0:0:
220,132,68612,1,8,0:0:0:0:
248,80,68765,1,8,0:0:0:0:
264,80,68842,1,8,0:0:0:0:
272,80,68919,1,4,0:0:0:0:
280,160,69227,1,8,0:0:0:0:
180,260,69534,1,0,0:0:0:0:
212,248,69688,1,0,0:0:0:0:
240,240,69842,1,8,0:0:0:0:
216,200,69995,1,0,0:0:0:0:
240,172,70149,1,0,0:0:0:0:
240,200,70303,1,0,0:0:0:0:
264,200,70457,1,8,0:0:0:0:
172,200,70764,1,0,0:0:0:0:
184,196,70918,1,0,0:0:0:0:
208,192,71072,1,8,0:0:0:0:
240,172,71225,1,0,0:0:0:0:
152,132,71381,1,0,0:0:0:0:
192,136,71535,1,0,0:0:0:0:
220,136,71689,1,8,0:0:0:0:
240,172,71840,1,0,0:0:0:0:
232,216,71996,1,0,0:0:0:0:
268,212,72150,1,0,0:0:0:0:
288,208,72304,1,8,0:0:0:0:
312,224,72457,1,0,0:0:0:0:
220,184,72765,1,0,0:0:0:0:
248,184,72919,1,8,0:0:0:0:
240,172,73070,1,0,0:0:0:0:
136,144,73226,1,0,0:0:0:0:
168,140,73380,1,0,0:0:0:0:
196,132,73534,1,8,0:0:0:0:
172,192,73687,1,0,0:0:0:0:
256,176,73764,1,0,0:0:0:0:
224,192,73841,1,0,0:0:0:0:
248,196,73995,1,0,0:0:0:0:
264,200,74149,1,0,0:0:0:0:
200,152,74302,1,0,0:0:0:0:
268,200,74456,1,8,0:0:0:0:
240,144,74610,1,0,0:0:0:0:
272,148,74764,1,0,0:0:0:0:
332,144,74917,1,0,0:0:0:0:
152,208,75071,1,0,0:0:0:0:
160,216,75225,1,0,0:0:0:0:
168,220,75379,1,0,0:0:0:0:
180,232,75533,1,0,0:0:0:0:
216,236,75686,1,8,0:0:0:0:
224,168,75840,1,0,0:0:0:0:
264,176,75994,1,8,0:0:0:0:
240,184,76147,1,0,0:0:0:0:
228,88,76301,1,12,0:0:0:0:
256,104,76378,1,8,0:0:0:0:
272,104,76455,1,8,0:0:0:0:
288,112,76532,1,8,0:0:0:0:
300,112,76609,1,0,0:0:0:0:
304,112,76686,1,0,0:0:0:0:
304,112,76763,1,8,0:0:0:0:
320,116,76839,1,8,0:0:0:0:
312,112,76916,1,8,0:0:0:0:
336,128,76993,1,8,0:0:0:0:
352,132,77070,1,0,0:0:0:0:
372,136,77147,1,0,0:0:0:0:
336,132,77224,1,8,0:0:0:0:
356,148,77301,1,8,0:0:0:0:
356,148,77378,1,0,0:0:0:0:
192,160,77685,1,0,0:0:0:0:
224,160,77762,1,0,0:0:0:0:
236,160,77839,1,8,0:0:0:0:
260,200,78146,1,8,0:0:0:0:
280,212,78300,1,8,0:0:0:0:
288,120,78761,1,12,0:0:0:0:
300,128,78914,1,0,0:0:0:0:
316,152,79068,1,0,0:0:0:0:
324,172,79222,1,8,0:0:0:0:
168,168,79376,1,0,0:0:0:0:
188,168,79530,1,0,0:0:0:0:
208,172,79683,1,8,0:0:0:0:
248,128,79837,1,0,0:0:0:0:
264,132,79991,1,0,0:0:0:0:
280,132,80145,1,8,0:0:0:0:
124,176,80298,1,0,0:0:0:0:
160,184,80452,1,0,0:0:0:0:
204,176,80606,1,8,0:0:0:0:
192,300,80760,1,0,0:0:0:0:
192,300,80913,1,0,0:0:0:0:
256,192,80990,1,0,0:0:0:0:
192,300,81067,1,0,0:0:0:0:
212,296,81221,1,8,0:0:0:0:
208,176,81375,1,0,0:0:0:0:
228,176,81528,1,0,0:0:0:0:
248,184,81682,1,8,0:0:0:0:
120,176,81836,1,0,0:0:0:0:
148,172,81990,1,0,0:0:0:0:
160,172,82143,1,8,0:0:0:0:
216,264,82297,1,0,0:0:0:0:
260,280,82451,1,0,0:0:0:0:
272,280,82605,1,8,0:0:0:0:
272,168,82758,1,0,0:0:0:0:
288,180,82912,1,0,0:0:0:0:
300,184,83066,1,8,0:0:0:0:
136,192,83220,1,0,0:0:0:0:
168,192,83373,1,0,0:0:0:0:
256,192,83450,1,0,0:0:0:0:
188,192,83527,1,0,0:0:0:0:
204,196,83681,1,0,0:0:0:0:
84,152,83835,1,0,0:0:0:0:
112,148,83988,1,8,0:0:0:0:
180,128,84142,1,0,0:0:0:0:
156,168,84296,1,0,0:0:0:0:
240,172,84450,1,0,0:0:0:0:
276,172,84603,1,8,0:0:0:0:
304,172,84757,1,0,0:0:0:0:
328,176,84911,1,0,0:0:0:0:
148,176,85065,1,0,0:0:0:0:
156,176,85218,1,8,0:0:0:0:
156,176,85372,1,0,0:0:0:0:
156,176,85526,1,0,0:0:0:0:
192,180,85680,1,0,0:0:0:0:
220,184,85833,1,8,0:0:0:0:
176,124,85987,1,0,0:0:0:0:
216,152,86141,1,0,0:0:0:0:
224,152,86295,1,0,0:0:0:0:
248,152,86448,1,8,0:0:0:0:
292,188,86602,1,0,0:0:0:0:
312,192,86756,1,0,0:0:0:0:
204,192,86910,1,0,0:0:0:0:
240,208,87063,1,8,0:0:0:0:
260,212,87217,1,0,0:0:0:0:
192,160,87371,1,8,0:0:0:0:
208,160,87525,1,0,0:0:0:0:
228,160,87678,1,8,0:0:0:0:
136,196,87832,1,0,0:0:0:0:
196,232,87909,1,8,0:0:0:0:
236,228,87986,1,8,0:0:0:0:
232,180,88140,1,0,0:0:0:0:
144,168,88293,1,8,0:0:0:0:
148,168,88370,1,8,0:0:0:0:
156,168,88447,1,8,0:0:0:0:
160,168,88524,1,8,0:0:0:0:
172,172,88601,1,12,0:0:0:0:
232,152,88774,1,0,0:0:0:0:
264,156,88927,1,0,0:0:0:0:
336,172,89081,1,0,0:0:0:0:
384,200,89235,1,4,0:0:0:0:
224,192,89523,1,0,0:0:0:0:
256,192,89677,1,0,0:0:0:0:
288,200,89831,1,0,0:0:0:0:
344,188,89985,1,0,0:0:0:0:
196,164,90464,1,4,0:0:0:0:
212,172,90600,1,0,0:0:0:0:
236,176,90753,1,0,0:0:0:0:
256,184,90907,1,0,0:0:0:0:
272,188,91061,1,0,0:0:0:0:
288,192,91215,1,0,0:0:0:0:
308,196,91368,1,0,0:0:0:0:
320,200,91522,1,0,0:0:0:0:
332,208,91676,1,4,0:0:0:0:
184,204,91983,1,0,0:0:0:0:
236,200,92137,1,0,0:0:0:0:
252,204,92291,1,0,0:0:0:0:
264,208,92445,1,0,0:0:0:0:
196,164,92944,1,4,0:0:0:0:
212,172,93060,1,0,0:0:0:0:
236,176,93213,1,0,0:0:0:0:
256,184,93367,1,0,0:0:0:0:
272,188,93521,1,0,0:0:0:0:
288,192,93675,1,0,0:0:0:0:
308,196,93828,1,0,0:0:0:0:
320,200,93982,1,0,0:0:0:0:
332,208,94136,1,4,0:0:0:0:
184,204,94443,1,0,0:0:0:0:
236,200,94597,1,0,0:0:0:0:
252,204,94751,1,0,0:0:0:0:
264,208,94905,1,0,0:0:0:0:
208,172,95366,1,4,0:0:0:0:
232,172,95520,1,0,0:0:0:0:
260,180,95673,1,0,0:0:0:0:
284,188,95827,1,0,0:0:0:0:
264,172,97211,1,8,0:0:0:0:
288,176,97365,1,0,0:0:0:0:
304,180,97518,1,0,0:0:0:0:
324,184,97672,1,8,0:0:0:0:
200,176,97826,1,0,0:0:0:0:
216,176,97980,1,0,0:0:0:0:
220,128,98133,1,8,0:0:0:0:
240,128,98210,1,8,0:0:0:0:
248,128,98287,1,8,0:0:0:0:
256,132,98364,1,8,0:0:0:0:
272,160,98479,1,4,0:0:0:0:
288,156,98748,1,8,0:0:0:0:
192,184,99056,1,0,0:0:0:0:
224,184,99210,1,0,0:0:0:0:
236,172,99362,1,0,0:0:0:0:
284,196,99517,1,8,0:0:0:0:
248,164,99825,1,8,0:0:0:0:
264,164,99978,1,8,0:0:0:0:
184,152,100286,1,0,0:0:0:0:
200,152,100440,1,0,0:0:0:0:
220,148,100593,1,8,0:0:0:0:
236,172,100746,1,0,0:0:0:0:
256,152,100901,1,0,0:0:0:0:
296,148,101208,1,8,0:0:0:0:
184,112,101516,1,0,0:0:0:0:
200,120,101670,1,0,0:0:0:0:
236,128,101977,1,8,0:0:0:0:
160,192,102285,1,0,0:0:0:0:
200,196,102438,1,8,0:0:0:0:
244,176,102746,1,0,0:0:0:0:
268,192,102900,1,0,0:0:0:0:
292,184,103053,1,8,0:0:0:0:
224,168,103206,1,0,0:0:0:0:
228,168,103283,1,0,0:0:0:0:
200,136,103361,1,0,0:0:0:0:
268,148,103668,1,8,0:0:0:0:
240,96,103976,1,0,0:0:0:0:
260,96,104130,1,0,0:0:0:0:
312,104,104437,1,8,0:0:0:0:
212,176,104745,1,0,0:0:0:0:
272,176,104899,1,8,0:0:0:0:
140,192,105206,1,0,0:0:0:0:
176,204,105360,1,0,0:0:0:0:
200,216,105514,1,8,0:0:0:0:
264,140,105821,1,0,0:0:0:0:
280,172,106129,1,8,0:0:0:0:
240,160,106436,1,0,0:0:0:0:
224,172,106590,1,0,0:0:0:0:
332,168,106897,1,8,0:0:0:0:
352,188,107051,1,8,0:0:0:0:
244,224,107205,1,0,0:0:0:0:
292,228,107359,1,8,0:0:0:0:
308,232,107512,1,0,0:0:0:0:
128,156,107666,1,8,0:0:0:0:
136,156,107743,1,8,0:0:0:0:
148,156,107820,1,8,0:0:0:0:
152,156,107897,1,8,0:0:0:0:
168,152,107974,1,8,0:0:0:0:
176,156,108050,1,8,0:0:0:0:
196,160,108127,1,8,0:0:0:0:
208,160,108204,1,8,0:0:0:0:
224,160,108281,1,8,0:0:0:0:
256,168,108435,1,0,0:0:0:0:
284,168,108589,1,8,0:0:0:0:
192,232,108741,1,0,0:0:0:0:
224,232,108895,1,8,0:0:0:0:
248,232,109049,1,0,0:0:0:0:
288,240,109202,1,0,0:0:0:0:
312,236,109356,1,8,0:0:0:0:
216,272,109510,1,0,0:0:0:0:
244,280,109664,1,8,0:0:0:0:
276,280,109819,1,8,0:0:0:0:
292,256,110011,1,0,0:0:0:0:
252,232,110164,1,8,0:0:0:0:
232,228,110241,1,8,0:0:0:0:
204,216,110318,1,0,0:0:0:0:
188,212,110395,1,0,0:0:0:0:
168,200,110472,1,8,0:0:0:0:
148,188,110549,1,8,0:0:0:0:
136,184,110626,1,8,0:0:0:0:
148,172,110703,1,8,0:0:0:0:
184,204,110778,1,0,0:0:0:0:
244,176,111087,1,0,0:0:0:0:
268,184,111356,1,0,0:0:0:0:
240,188,111510,1,0,0:0:0:0:
252,192,111664,1,0,0:0:0:0:
252,192,111817,1,0,0:0:0:0:
252,192,111971,1,8,0:0:0:0:
248,196,112048,1,8,0:0:0:0:
252,192,112125,1,8,0:0:0:0:
248,192,112202,1,8,0:0:0:0:
248,192,112279,1,8,0:0:0:0:
252,192,112355,1,8,0:0:0:0:
252,192,112432,1,8,0:0:0:0:
252,192,112509,1,8,0:0:0:0:
252,192,112586,1,8,0:0:0:0:
252,192,112663,1,8,0:0:0:0:
252,192,112740,1,8,0:0:0:0:
252,192,112817,1,8,0:0:0:0:
252,192,112894,1,8,0:0:0:0:
252,192,112970,1,8,0:0:0:0:
252,192,113047,1,8,0:0:0:0:
252,192,113124,1,8,0:0:0:0:
252,192,113240,1,4,0:0:0:0:
252,192,113701,1,4,0:0:0:0:
252,192,114162,1,4,0:0:0:0:
196,156,114623,1,4,0:0:0:0:
232,164,114931,1,0,0:0:0:0:
256,156,115085,1,4,0:0:0:0:
276,156,115238,1,0,0:0:0:0:
284,156,115392,1,0,0:0:0:0:
320,164,115546,1,0,0:0:0:0:
256,184,115700,1,4,0:0:0:0:
172,176,116161,1,4,0:0:0:0:
212,168,116622,1,4,0:0:0:0:
248,168,117083,1,4,0:0:0:0:
152,172,117391,1,0,0:0:0:0:
200,224,117545,1,0,0:0:0:0:
208,224,117583,1,0,0:0:0:0:
232,228,117660,1,0,0:0:0:0:
256,228,117737,1,0,0:0:0:0:
296,232,117814,1,0,0:0:0:0:
284,204,118160,1,4,0:0:0:0:
240,184,118621,1,4,0:0:0:0:
240,220,119082,1,4,0:0:0:0:
208,192,119543,1,4,0:0:0:0:
208,240,119812,1,0,0:0:0:0:
212,240,120005,1,8,0:0:0:0:
240,252,120158,1,0,0:0:0:0:
252,252,120312,1,8,0:0:0:0:
200,200,120620,1,4,0:0:0:0:
184,196,121081,1,4,0:0:0:0:
168,192,121542,1,4,0:0:0:0:
156,188,122003,1,4,0:0:0:0:
132,184,122311,1,0,0:0:0:0:
164,176,122465,1,0,0:0:0:0:
164,176,122618,1,0,0:0:0:0:
164,176,122772,1,0,0:0:0:0:
184,184,122926,1,0,0:0:0:0:
224,200,123080,1,4,0:0:0:0:
272,160,123541,1,4,0:0:0:0:
200,184,124002,1,4,0:0:0:0:
160,172,124463,1,4,0:0:0:0:
248,200,124771,1,0,0:0:0:0:
280,208,124925,1,8,0:0:0:0:
296,168,125232,1,0,0:0:0:0:
120,168,125463,1,0,0:0:0:0:
164,176,125540,1,4,0:0:0:0:
256,192,126001,1,4,0:0:0:0:
192,224,126462,1,4,0:0:0:0:
176,184,126923,1,4,0:0:0:0:
228,196,127231,1,0,0:0:0:0:
268,208,127385,1,8,0:0:0:0:
176,256,127538,1,0,0:0:0:0:
240,252,127692,1,8,0:0:0:0:
208,156,128000,1,4,0:0:0:0:
272,224,128461,1,4,0:0:0:0:
284,160,128922,1,4,0:0:0:0:
184,188,129383,1,4,0:0:0:0:
244,200,129691,1,0,0:0:0:0:
248,156,129845,1,8,0:0:0:0:
272,152,129883,1,8,0:0:0:0:
164,192,129998,1,0,0:0:0:0:
204,192,130075,1,0,0:0:0:0:
220,192,130152,1,0,0:0:0:0:
236,192,130229,1,0,0:0:0:0:
176,200,130306,1,0,0:0:0:0:
152,212,130383,1,0,0:0:0:0:
136,204,130460,1,4,0:0:0:0:
224,152,130921,1,4,0:0:0:0:
236,140,131382,1,4,0:0:0:0:
212,152,131843,1,4,0:0:0:0:
120,204,132151,1,0,0:0:0:0:
176,212,132305,1,8,0:0:0:0:
224,180,132612,1,8,0:0:0:0:
256,172,132766,1,8,0:0:0:0:
280,172,132920,1,0,0:0:0:0:
212,112,133227,1,8,0:0:0:0:
160,200,133534,1,0,0:0:0:0:
132,204,133688,1,0,0:0:0:0:
160,200,133841,1,8,0:0:0:0:
200,200,133996,1,8,0:0:0:0:
176,188,134149,1,8,0:0:0:0:
160,136,134303,1,0,0:0:0:0:
200,136,134457,1,8,0:0:0:0:
208,180,134765,1,0,0:0:0:0:
264,176,134918,1,0,0:0:0:0:
296,176,135072,1,8,0:0:0:0:
224,220,135380,1,0,0:0:0:0:
196,220,135687,1,8,0:0:0:0:
136,176,135995,1,0,0:0:0:0:
164,176,136148,1,0,0:0:0:0:
176,192,136301,1,8,0:0:0:0:
220,176,136456,1,8,0:0:0:0:
176,192,136609,1,8,0:0:0:0:
168,240,136763,1,0,0:0:0:0:
236,248,136917,1,8,0:0:0:0:
176,192,137070,1,0,0:0:0:0:
152,172,137225,1,0,0:0:0:0:
240,172,137378,1,0,0:0:0:0:
196,220,137532,1,8,0:0:0:0:
204,204,137685,1,8,0:0:0:0:
160,208,137762,1,8,0:0:0:0:
96,220,137840,1,0,0:0:0:0:
144,232,138147,1,8,0:0:0:0:
136,164,138455,1,0,0:0:0:0:
172,156,138609,1,0,0:0:0:0:
204,204,138761,1,8,0:0:0:0:
232,164,138916,1,8,0:0:0:0:
204,204,139069,1,8,0:0:0:0:
168,240,139224,1,0,0:0:0:0:
236,248,139378,1,8,0:0:0:0:
152,172,139686,1,0,0:0:0:0:
240,172,139839,1,0,0:0:0:0:
196,220,139993,1,8,0:0:0:0:
96,220,140301,1,0,0:0:0:0:
144,232,140608,1,8,0:0:0:0:
136,164,140916,1,0,0:0:0:0:
172,156,141070,1,0,0:0:0:0:
204,204,141221,1,8,0:0:0:0:
232,164,141377,1,8,0:0:0:0:
204,204,141529,1,8,0:0:0:0:
224,108,141684,1,0,0:0:0:0:
264,128,141837,1,8,0:0:0:0:
232,192,141990,1,0,0:0:0:0:
136,192,142145,1,0,0:0:0:0:
188,196,142299,1,0,0:0:0:0:
232,200,142452,1,8,0:0:0:0:
204,204,142605,1,8,0:0:0:0:
288,200,142682,1,8,0:0:0:0:
416,148,142760,1,4,0:0:0:0:
336,164,143067,1,8,0:0:0:0:
148,184,143375,1,0,0:0:0:0:
212,196,143529,1,0,0:0:0:0:
204,204,143682,1,8,0:0:0:0:
244,168,143836,1,8,0:0:0:0:
204,204,143989,1,8,0:0:0:0:
196,152,144144,1,0,0:0:0:0:
288,128,144297,1,8,0:0:0:0:
204,204,144450,1,8,0:0:0:0:
180,196,144605,1,0,0:0:0:0:
204,196,144759,1,0,0:0:0:0:
272,200,144912,1,8,0:0:0:0:
120,160,145220,1,0,0:0:0:0:
224,144,145527,1,8,0:0:0:0:
200,192,145835,1,0,0:0:0:0:
256,196,145989,1,0,0:0:0:0:
204,204,146142,1,8,0:0:0:0:
296,204,146296,1,8,0:0:0:0:
204,204,146449,1,8,0:0:0:0:
240,244,146604,1,0,0:0:0:0:
276,252,146757,1,8,0:0:0:0:
204,204,146910,1,8,0:0:0:0:
156,160,147065,1,0,0:0:0:0:
212,168,147219,1,0,0:0:0:0:
260,176,147372,1,0,0:0:0:0:
204,196,147448,1,0,0:0:0:0:
196,192,147525,1,0,0:0:0:0:
224,224,147680,1,8,0:0:0:0:
148,144,147834,1,0,0:0:0:0:
192,128,147987,1,8,0:0:0:0:
228,172,148141,1,0,0:0:0:0:
228,172,148295,1,8,0:0:0:0:
300,152,148449,1,0,0:0:0:0:
228,172,148602,1,8,0:0:0:0:
228,172,148756,1,0,0:0:0:0:
228,172,148910,1,8,0:0:0:0:
228,172,149064,1,0,0:0:0:0:
228,172,149217,1,8,0:0:0:0:
228,172,149371,1,0,0:0:0:0:
228,172,149525,1,8,0:0:0:0:
228,172,149679,1,0,0:0:0:0:
228,172,149832,1,8,0:0:0:0:
228,172,149986,1,0,0:0:0:0:
228,172,150140,1,8,0:0:0:0:
228,172,150294,1,0,0:0:0:0:
228,172,150447,1,8,0:0:0:0:
228,172,150601,1,0,0:0:0:0:
228,172,150755,1,8,0:0:0:0:
228,172,150909,1,0,0:0:0:0:
228,172,151062,1,8,0:0:0:0:
228,172,151216,1,0,0:0:0:0:
304,144,151370,1,8,0:0:0:0:
304,144,151447,1,8,0:0:0:0:
304,144,151524,1,8,0:0:0:0:
304,144,151601,1,8,0:0:0:0:
304,144,151677,1,8,0:0:0:0:
304,144,151754,1,8,0:0:0:0:
304,144,151831,1,8,0:0:0:0:
304,144,151908,1,8,0:0:0:0:
304,144,151985,1,8,0:0:0:0:
304,144,152062,1,8,0:0:0:0:
304,144,152139,1,8,0:0:0:0:
304,144,152216,1,8,0:0:0:0:
304,144,152292,1,8,0:0:0:0:
304,144,152369,1,8,0:0:0:0:
304,144,152446,1,8,0:0:0:0:
304,144,152523,1,8,0:0:0:0:
240,172,154752,1,8,0:0:0:0:
184,172,155060,1,4,0:0:0:0:
256,168,157520,1,4,0:0:0:0:
216,192,158750,1,4,0:0:0:0:
272,176,159057,1,8,0:0:0:0:
224,216,159211,1,0,0:0:0:0:
256,232,159365,1,0,0:0:0:0:
280,236,159519,1,0,0:0:0:0:
280,236,159596,1,0,0:0:0:0:
280,236,159672,1,0,0:0:0:0:
324,224,159980,1,4,0:0:0:0:
184,172,160287,1,8,0:0:0:0:
184,172,160441,1,8,0:0:0:0:
184,172,160595,1,8,0:0:0:0:
184,172,160749,1,8,0:0:0:0:
184,172,160902,1,8,0:0:0:0:
184,172,161056,1,8,0:0:0:0:
184,172,161210,1,8,0:0:0:0:
184,172,161364,1,8,0:0:0:0:
184,172,161517,1,8,0:0:0:0:
224,176,161671,1,8,0:0:0:0:
224,176,161825,1,8,0:0:0:0:
224,176,161979,1,8,0:0:0:0:
224,176,162132,1,8,0:0:0:0:
224,176,162286,1,8,0:0:0:0:
224,176,162440,1,8,0:0:0:0:
220,176,162594,1,8,0:0:0:0:
304,144,162671,1,0,0:0:0:0:
304,144,162748,1,0,0:0:0:0:
304,144,162824,1,0,0:0:0:0:
304,144,162901,1,0,0:0:0:0:
304,144,162978,1,0,0:0:0:0:
304,144,163055,1,0,0:0:0:0:
304,144,163132,1,0,0:0:0:0:
304,144,163209,1,0,0:0:0:0:
304,144,163286,1,0,0:0:0:0:
304,144,163363,1,0,0:0:0:0:
304,144,163439,1,0,0:0:0:0:
304,144,163516,1,0,0:0:0:0:
304,144,163593,1,0,0:0:0:0:
304,144,163670,1,8,0:0:0:0:
304,144,163747,1,0,0:0:0:0:
304,144,163824,1,8,0:0:0:0:
304,144,163901,1,0,0:0:0:0:
304,144,163978,1,8,0:0:0:0:
332,188,164131,1,0,0:0:0:0:
332,188,164208,1,0,0:0:0:0:
332,188,164285,1,8,0:0:0:0:
272,80,164900,1,0,0:0:0:0:
280,160,165208,1,8,0:0:0:0:
180,260,165515,1,0,0:0:0:0:
212,248,165669,1,0,0:0:0:0:
240,240,165823,1,8,0:0:0:0:
216,200,165976,1,0,0:0:0:0:
228,220,166129,1,0,0:0:0:0:
240,200,166284,1,0,0:0:0:0:
264,200,166438,1,8,0:0:0:0:
172,200,166745,1,0,0:0:0:0:
184,196,166899,1,0,0:0:0:0:
208,192,167053,1,8,0:0:0:0:
228,220,167206,1,0,0:0:0:0:
152,132,167360,1,0,0:0:0:0:
220,136,167668,1,8,0:0:0:0:
232,216,167975,1,0,0:0:0:0:
268,212,168129,1,0,0:0:0:0:
288,208,168283,1,8,0:0:0:0:
312,224,168436,1,0,0:0:0:0:
228,220,168590,1,0,0:0:0:0:
220,184,168744,1,0,0:0:0:0:
248,184,168898,1,8,0:0:0:0:
136,144,169205,1,0,0:0:0:0:
168,140,169359,1,0,0:0:0:0:
196,132,169513,1,8,0:0:0:0:
224,192,169820,1,0,0:0:0:0:
248,196,169974,1,0,0:0:0:0:
264,200,170128,1,0,0:0:0:0:
200,152,170281,1,0,0:0:0:0:
268,200,170435,1,8,0:0:0:0:
240,144,170589,1,0,0:0:0:0:
272,148,170743,1,0,0:0:0:0:
332,144,170896,1,0,0:0:0:0:
152,208,171050,1,0,0:0:0:0:
160,216,171204,1,0,0:0:0:0:
168,220,171358,1,0,0:0:0:0:
180,232,171512,1,0,0:0:0:0:
216,236,171665,1,8,0:0:0:0:
224,168,171819,1,0,0:0:0:0:
264,176,171973,1,8,0:0:0:0:
228,88,172282,1,12,0:0:0:0:
256,104,172359,1,8,0:0:0:0:
272,104,172436,1,8,0:0:0:0:
288,112,172513,1,8,0:0:0:0:
300,112,172590,1,0,0:0:0:0:
304,112,172667,1,0,0:0:0:0:
304,112,172744,1,8,0:0:0:0:
320,116,172820,1,8,0:0:0:0:
312,112,172897,1,8,0:0:0:0:
336,128,172974,1,8,0:0:0:0:
352,132,173051,1,0,0:0:0:0:
372,136,173128,1,0,0:0:0:0:
336,132,173205,1,8,0:0:0:0:
356,148,173282,1,8,0:0:0:0:
356,148,173359,1,0,0:0:0:0:
192,160,173666,1,0,0:0:0:0:
224,160,173743,1,0,0:0:0:0:
236,160,173820,1,8,0:0:0:0:
280,212,174433,1,8,0:0:0:0:
192,160,174758,1,8,0:0:0:0:
232,164,174911,1,0,0:0:0:0:
256,164,175065,1,0,0:0:0:0:
288,168,175219,1,8,0:0:0:0:
220,120,175373,1,0,0:0:0:0:
240,120,175526,1,0,0:0:0:0:
256,120,175680,1,8,0:0:0:0:
168,108,175834,1,0,0:0:0:0:
204,108,175988,1,0,0:0:0:0:
208,108,176141,1,8,0:0:0:0:
196,172,176295,1,0,0:0:0:0:
220,176,176449,1,0,0:0:0:0:
256,176,176603,1,8,0:0:0:0:
288,152,176756,1,0,0:0:0:0:
320,148,176910,1,0,0:0:0:0:
256,192,176987,1,0,0:0:0:0:
324,148,177064,1,0,0:0:0:0:
344,148,177218,1,8,0:0:0:0:
184,84,177371,1,0,0:0:0:0:
228,92,177525,1,0,0:0:0:0:
240,116,177679,1,8,0:0:0:0:
176,192,177833,1,0,0:0:0:0:
188,188,177986,1,0,0:0:0:0:
208,192,178140,1,8,0:0:0:0:
240,168,178294,1,0,0:0:0:0:
252,168,178448,1,0,0:0:0:0:
280,176,178601,1,8,0:0:0:0:
176,132,178755,1,0,0:0:0:0:
216,124,178909,1,0,0:0:0:0:
232,120,179063,1,8,0:0:0:0:
204,92,179216,1,0,0:0:0:0:
216,92,179370,1,0,0:0:0:0:
256,188,179447,1,0,0:0:0:0:
224,92,179524,1,0,0:0:0:0:
236,96,179678,1,0,0:0:0:0:
252,96,179831,1,0,0:0:0:0:
260,96,179985,1,8,0:0:0:0:
100,308,180139,1,0,0:0:0:0:
148,300,180293,1,0,0:0:0:0:
168,300,180446,1,0,0:0:0:0:
200,296,180600,1,8,0:0:0:0:
236,296,180754,1,0,0:0:0:0:
180,184,180908,1,0,0:0:0:0:
224,184,181061,1,0,0:0:0:0:
248,188,181215,1,8,0:0:0:0:
160,124,181369,1,0,0:0:0:0:
216,128,181523,1,0,0:0:0:0:
240,136,181676,1,0,0:0:0:0:
276,144,181830,1,8,0:0:0:0:
208,284,181984,1,0,0:0:0:0:
244,280,182138,1,0,0:0:0:0:
264,284,182291,1,0,0:0:0:0:
292,284,182445,1,8,0:0:0:0:
152,196,182599,1,0,0:0:0:0:
180,196,182753,1,0,0:0:0:0:
244,192,182906,1,0,0:0:0:0:
264,192,183060,1,8,0:0:0:0:
224,144,183214,1,0,0:0:0:0:
248,148,183368,1,8,0:0:0:0:
144,172,183521,1,0,0:0:0:0:
172,176,183675,1,8,0:0:0:0:
120,108,183829,1,8,0:0:0:0:
120,108,183906,1,8,0:0:0:0:
120,108,183983,1,8,0:0:0:0:
132,104,184136,1,8,0:0:0:0:
184,116,184290,1,8,0:0:0:0:
216,120,184444,1,8,0:0:0:0:
288,120,184598,1,12,0:0:0:0:
300,128,184751,1,0,0:0:0:0:
316,152,184905,1,0,0:0:0:0:
324,172,185059,1,8,0:0:0:0:
168,168,185213,1,0,0:0:0:0:
188,168,185367,1,0,0:0:0:0:
208,172,185520,1,8,0:0:0:0:
248,128,185674,1,0,0:0:0:0:
264,132,185828,1,0,0:0:0:0:
280,132,185982,1,8,0:0:0:0:
124,176,186135,1,0,0:0:0:0:
160,184,186289,1,0,0:0:0:0:
204,176,186443,1,8,0:0:0:0:
192,300,186597,1,0,0:0:0:0:
192,300,186750,1,0,0:0:0:0:
256,192,186827,1,0,0:0:0:0:
192,300,186904,1,0,0:0:0:0:
212,296,187058,1,8,0:0:0:0:
208,176,187212,1,0,0:0:0:0:
228,176,187365,1,0,0:0:0:0:
248,184,187519,1,8,0:0:0:0:
120,176,187673,1,0,0:0:0:0:
148,172,187827,1,0,0:0:0:0:
160,172,187980,1,8,0:0:0:0:
216,264,188134,1,0,0:0:0:0:
260,280,188288,1,0,0:0:0:0:
272,280,188442,1,8,0:0:0:0:
272,168,188595,1,0,0:0:0:0:
288,180,188749,1,0,0:0:0:0:
300,184,188903,1,8,0:0:0:0:
136,192,189057,1,0,0:0:0:0:
168,192,189210,1,0,0:0:0:0:
256,192,189287,1,0,0:0:0:0:
188,192,189364,1,0,0:0:0:0:
204,196,189518,1,8,0:0:0:0:
84,152,189672,1,0,0:0:0:0:
112,148,189825,1,0,0:0:0:0:
180,128,189979,1,0,0:0:0:0:
156,168,190133,1,8,0:0:0:0:
240,172,190287,1,0,0:0:0:0:
276,172,190440,1,0,0:0:0:0:
304,172,190594,1,0,0:0:0:0:
328,176,190748,1,8,0:0:0:0:
148,176,190902,1,0,0:0:0:0:
156,176,191055,1,0,0:0:0:0:
156,176,191209,1,0,0:0:0:0:
156,176,191363,1,8,0:0:0:0:
192,180,191517,1,0,0:0:0:0:
220,184,191670,1,8,0:0:0:0:
176,124,191824,1,8,0:0:0:0:
216,152,191978,1,0,0:0:0:0:
224,152,192132,1,0,0:0:0:0:
248,152,192285,1,8,0:0:0:0:
292,188,192439,1,0,0:0:0:0:
312,192,192593,1,8,0:0:0:0:
204,192,192747,1,0,0:0:0:0:
240,208,192900,1,0,0:0:0:0:
260,212,193054,1,8,0:0:0:0:
192,160,193208,1,0,0:0:0:0:
208,160,193362,1,0,0:0:0:0:
228,160,193515,1,8,0:0:0:0:
136,196,193669,1,0,0:0:0:0:
144,120,193824,1,8,0:0:0:0:
160,120,193901,1,0,0:0:0:0:
172,120,193978,1,0,0:0:0:0:
208,112,194054,1,0,0:0:0:0:
240,96,194131,1,8,0:0:0:0:
248,96,194208,1,0,0:0:0:0:
260,100,194285,1,8,0:0:0:0:
260,100,194362,1,0,0:0:0:0:
