osu file format v14

[General]
AudioFilename: audio.mp3
AudioLeadIn: 0
PreviewTime:52251
Countdown: 0
SampleSet: Soft
StackLeniency: 0.7
Mode: 0
LetterboxInBreaks: 0
WidescreenStoryboard: 1

[Editor]
Bookmarks:62751
DistanceSpacing: 1.2
BeatDivisor: 4
GridSize: 4
TimelineZoom: 1.8

[Metadata]
Title:No pain, No game (TV Size)
TitleUnicode:No pain, No game (TV Size)
Artist:nano
ArtistUnicode:ナノ
Creator:browiec
Version:Kuki's Extra
Source:ブトゥーム!
Tags:anime japanese rock jrock j-rock opening Btooom! Pikaqours reform kujinn kuki1537
BeatmapID:2468862
BeatmapSetID:1184314

[Difficulty]
HPDrainRate:5.5
CircleSize:4
OverallDifficulty:9.1
ApproachRate:9.3
SliderMultiplier:1.75
SliderTickRate:1

[Events]
//Background and Video events
0,0,"asdda2.jpg",0,0
//Break Periods
2,17636,20355
//Storyboard Layer 0 (Background)
//Storyboard Layer 1 (Fail)
//Storyboard Layer 2 (Pass)
//Storyboard Layer 3 (Foreground)
//Storyboard Layer 4 (Overlay)
//Storyboard Sound Samples

[TimingPoints]
1015,315.789473684211,4,2,1,50,1,0
1549,-166.666666666667,4,2,1,45,0,0
14278,-111.111111111111,4,2,1,70,0,0
17436,-111.111111111111,4,2,1,45,0,0
20909,-249.999999999999,4,2,1,45,0,0
22172,-111.111111111111,4,2,1,70,0,0
32593,-133.333333333333,4,2,1,60,0,0
47751,-166.666666666667,4,2,1,60,0,0
48383,-133.333333333333,4,2,1,60,0,0
50278,-133.333333333333,4,2,1,70,0,0
52330,-133.333333333333,4,2,1,45,0,0
52646,-100,4,2,1,75,0,0
66541,-133.333333333333,4,2,1,75,0,0
67804,-100,4,2,1,75,0,0
73015,-133.333333333333,4,2,1,45,0,0
74278,-133.333333333333,4,2,1,70,0,0
74909,-111.111111111111,4,2,1,70,0,0
76488,-250,4,2,1,70,0,0
77751,-111.111111111111,4,2,1,70,0,0

[Colours]
Combo1 : 215,0,5
Combo2 : 56,56,56
Combo3 : 232,232,232

[HitObjects]
86,103,1804,6,0,L|92:158,1,52.4999983978272,2|0,0:2|0:2,0:2:0:0:
54,220,2120,6,0,P|85:199|166:219,1,104.999996795654,2|0,0:2|0:2,0:2:0:0:
200,271,2593,1,2,0:2:0:0:
200,271,2751,2,0,L|195:337,1,52.4999983978272,2|0,0:2|0:2,0:2:0:0:
286,369,3067,2,0,L|282:316,1,52.4999983978272,2|0,0:2|0:2,0:2:0:0:
343,243,3383,6,0,P|369:278|449:291,2,104.999996795654,2|2|2,0:2|0:2|0:2,0:2:0:0:
414,162,4172,1,0,0:2:0:0:
414,162,4330,2,0,L|420:226,1,52.4999983978272,2|0,0:2|0:2,0:2:0:0:
327,158,4646,6,0,B|331:117|331:117|346:93|346:93|350:47,1,104.999996795654,2|0,0:2|0:2,0:2:0:0:
274,0,5120,1,2,0:2:0:0:
274,0,5278,2,0,P|245:21|211:21,1,52.4999983978272,2|0,0:2|0:2,0:2:0:0:
127,56,5593,2,0,P|152:62|171:79,1,52.4999983978272,2|0,0:2|0:2,0:2:0:0:
242,208,5909,6,0,L|249:100,2,104.999996795654,2|2|2,0:2|0:2|0:2,0:2:0:0:
160,239,6699,1,0,0:2:0:0:
160,239,6857,2,0,P|131:224|102:224,1,52.4999983978272,2|0,0:2|0:2,0:2:0:0:
64,292,7172,6,0,P|42:269|38:178,1,104.999996795654,2|2,0:2|0:2,0:2:0:0:
86,137,7646,2,0,B|47:116|47:116|-24:127,2,104.999996795654,2|0|0,0:2|0:2|0:2,0:2:0:0:
170,189,8436,1,0,0:2:0:0:
170,189,8593,6,0,L|175:249,1,52.4999983978272,0|0,0:2|0:2,0:2:0:0:
219,316,8909,2,0,P|253:330|287:326,1,52.4999983978272,2|0,0:2|0:2,0:2:0:0:
299,210,9225,2,0,P|269:232|256:263,1,52.4999983978272,2|0,0:2|0:2,0:2:0:0:
350,332,9541,2,0,P|345:295|324:268,1,52.4999983978272,2|0,0:2|0:2,0:2:0:0:
285,183,9857,6,0,B|401:191,1,104.999996795654,2|0,0:2|0:2,0:2:0:0:
462,149,10330,1,0,0:2:0:0:
462,149,10488,2,0,P|434:118|356:115,1,104.999996795654,2|0,0:2|0:2,0:2:0:0:
287,101,10962,1,0,0:2:0:0:
287,101,11120,6,0,L|293:41,1,52.4999983978272,0|0,0:2|0:0,0:2:0:0:
213,0,11436,2,0,L|207:52,1,52.4999983978272,0|0,0:2|0:2,0:0:0:0:
154,126,11751,2,0,P|120:134|93:128,1,52.4999983978272,2|0,0:2|0:2,0:2:0:0:
68,56,12067,2,0,P|102:48|129:54,1,52.4999983978272,2|0,0:2|0:2,0:2:0:0:
173,142,12383,6,0,L|164:250,1,104.999996795654,2|2,0:2|0:2,0:2:0:0:
114,302,12857,2,0,P|157:289|234:314,1,104.999996795654,2|2,0:2|0:2,0:2:0:0:
272,360,13330,1,2,0:2:0:0:
286,342,14278,5,10,3:2:0:0:
286,342,14357,1,0,3:2:0:0:
286,342,14436,2,0,L|291:291,1,39.3749987983704,0|0,3:2|3:2,0:2:0:0:
207,189,14593,2,0,L|210:228,3,39.3749987983704,2|0|0|0,3:2|3:2|3:2|3:2,0:2:0:0:
157,350,14909,5,14,0:2:0:0:
275,109,15067,1,0,3:2:0:0:
67,248,15225,1,2,3:2:0:0:
324,206,15383,5,10,0:2:0:0:
92,67,15541,1,0,3:2:0:0:
209,274,15699,1,2,3:2:0:0:
301,24,15857,5,14,0:2:0:0:
256,192,15936,12,2,17436,0:2:0:0:
100,149,20909,6,0,B|242:105|209:227|351:190,1,262.5,2|0,0:2|0:0,0:2:0:0:
389,172,22172,2,0,L|394:223,3,39.3749987983704,10|8|8|8,0:2|0:2|0:2|0:2,0:0:0:0:
328,356,22488,6,0,L|335:272,1,78.7499975967408,6|2,3:2|0:2,0:2:0:0:
156,129,22804,1,10,0:2:0:0:
246,308,22962,1,0,0:2:0:0:
298,111,23120,1,2,3:2:0:0:
160,281,23278,2,0,L|78:273,1,78.7499975967408,2|8,0:2|0:2,0:2:0:0:
58,104,23593,6,0,P|105:96|147:110,1,78.7499975967408,2|0,0:2|3:2,0:2:0:0:
288,207,23909,2,0,P|249:214|211:206,1,78.7499975967408,2|8,0:2|0:2,0:2:0:0:
116,20,24225,1,2,0:2:0:0:
298,111,24383,1,2,3:2:0:0:
97,178,24541,1,2,0:2:0:0:
261,32,24699,2,0,P|306:24|343:35,1,78.7499975967408,10|0,0:2|3:2,0:0:0:0:
386,105,24936,1,0,3:2:0:0:
386,105,25015,6,0,L|380:186,1,78.7499975967408,2|2,3:2|0:2,0:2:0:0:
468,350,25330,2,0,L|462:271,1,78.7499975967408,10|2,0:2|0:2,0:2:0:0:
299,150,25646,1,0,3:2:0:0:
383,317,25804,1,2,0:2:0:0:
465,145,25962,1,10,0:2:0:0:
291,259,26120,6,0,P|251:272|213:269,1,78.7499975967408,2|0,0:2|3:2,0:2:0:0:
150,70,26436,2,0,P|189:67|226:80,1,78.7499975967408,2|8,0:2|0:2,0:2:0:0:
382,216,26751,1,2,0:2:0:0:
338,26,26909,1,0,3:2:0:0:
237,188,27067,1,2,0:2:0:0:
237,188,27146,1,0,0:2:0:0:
237,188,27225,2,0,L|152:181,1,78.7499975967408,10|8,0:2|0:2,0:0:0:0:
84,220,27462,1,8,0:2:0:0:
84,220,27541,6,0,P|67:257|73:310,1,78.7499975967408,6|2,3:2|0:2,0:2:0:0:
283,281,27857,1,10,0:2:0:0:
225,79,28015,1,0,0:2:0:0:
156,273,28172,1,2,3:2:0:0:
318,124,28330,2,0,P|360:109|410:121,1,78.7499975967408,2|8,0:2|0:2,0:0:0:0:
372,276,28646,6,0,L|365:194,1,78.7499975967408,2|0,0:2|3:2,0:2:0:0:
483,49,28962,2,0,L|489:127,1,78.7499975967408,2|8,0:2|0:2,0:2:0:0:
460,280,29278,1,2,0:2:0:0:
326,95,29436,1,2,3:2:0:0:
512,212,29593,1,2,0:2:0:0:
283,281,29751,2,0,P|237:289|189:269,1,78.7499975967408,10|0,0:2|3:2,0:0:0:0:
150,220,29988,1,0,3:2:0:0:
150,220,30067,6,0,L|156:138,1,78.7499975967408,2|2,3:2|0:2,0:2:0:0:
320,16,30383,2,0,L|325:94,1,78.7499975967408,10|2,0:2|0:2,0:2:0:0:
267,260,30699,1,0,3:2:0:0:
218,50,30857,1,2,0:2:0:0:
337,218,31015,1,10,0:2:0:0:
409,19,31172,1,2,0:2:0:0:
406,259,31330,5,0,3:2:0:0:
205,79,31488,1,2,3:2:0:0:
438,166,31646,1,8,3:2:0:0:
187,238,31804,1,2,0:2:0:0:
367,34,31962,1,0,3:2:0:0:
367,34,32041,1,0,3:2:0:0:
367,34,32120,2,0,P|389:27|414:24,1,39.3749987983704,0|8,3:2|0:2,0:2:0:0:
297,172,32278,2,0,P|277:168|258:162,3,39.3749987983704,8|8|0|0,0:2|0:2|3:2|0:2,0:2:0:0:
174,52,32593,6,0,L|168:130,1,65.6250025033952,4|2,3:2|3:2,0:0:0:0:
65,252,32909,1,10,0:2:0:0:
19,95,33067,1,2,3:2:0:0:
127,192,33225,2,0,P|164:202|199:198,1,65.6250025033952,2|0,0:2|3:2,0:2:0:0:
295,250,33541,1,10,0:2:0:0:
309,345,33699,6,0,P|272:344|231:322,1,65.6250025033952,2|0,3:2|0:2,0:2:0:0:
370,190,34015,2,0,P|387:222|389:268,1,65.6250025033952,2|8,3:2|0:2,0:2:0:0:
205,214,34330,2,0,L|214:138,1,65.6250025033952,2|0,0:2|3:2,0:2:0:0:
359,48,34646,1,2,3:2:0:0:
293,168,34804,1,8,0:2:0:0:
235,42,34962,6,0,P|202:35|160:46,1,65.6250025033952,2|0,0:2|3:2,0:2:0:0:
55,178,35278,1,2,3:2:0:0:
203,118,35436,1,10,0:2:0:0:
48,58,35593,1,2,3:2:0:0:
144,181,35751,2,0,L|150:253,1,65.6250025033952,2|0,0:2|3:2,0:2:0:0:
91,361,36067,1,10,0:2:0:0:
234,241,36225,6,0,P|270:258|291:284,1,65.6250025033952,2|0,3:2|0:2,0:2:0:0:
370,384,36541,2,0,P|366:344|379:312,1,65.6250025033952,2|8,3:2|0:2,0:2:0:0:
426,195,36857,2,0,P|392:217|359:223,1,65.6250025033952,2|0,0:2|3:2,0:2:0:0:
240,123,37172,1,2,3:2:0:0:
287,276,37330,1,8,0:2:0:0:
368,137,37488,6,0,L|362:71,1,65.6250025033952,2|0,0:2|3:2,0:2:0:0:
189,53,37804,1,2,3:2:0:0:
298,187,37962,1,10,0:2:0:0:
263,14,38120,1,2,3:2:0:0:
155,151,38278,2,0,P|123:163|85:160,1,65.6250025033952,2|0,0:2|3:2,0:2:0:0:
0,92,38593,1,10,0:2:0:0:
108,15,38751,6,0,L|114:86,1,65.6250025033952,2|0,3:2|0:2,0:2:0:0:
3,183,39067,2,0,L|8:117,1,65.6250025033952,2|8,3:2|0:2,0:2:0:0:
192,59,39383,2,0,L|198:130,1,65.6250025033952,2|0,3:2|0:2,0:2:0:0:
87,227,39699,2,0,L|92:161,1,65.6250025033952,2|8,3:2|0:2,0:2:0:0:
281,107,40015,1,2,0:2:0:0:
167,264,40172,5,2,3:2:0:0:
334,185,40330,1,2,3:2:0:0:
178,85,40488,1,10,0:2:0:0:
261,264,40646,1,2,3:2:0:0:
373,107,40804,2,0,L|366:33,1,65.6250025033952,2|0,0:2|3:2,0:2:0:0:
236,153,41120,1,10,0:2:0:0:
352,290,41278,6,0,P|384:304|424:306,1,65.6250025033952,2|0,3:2|3:2,0:0:0:0:
512,123,41593,2,0,P|479:126|449:139,1,65.6250025033952,2|0,3:2|3:2,0:0:0:0:
331,300,41909,1,10,0:2:0:0:
331,300,41988,1,8,0:2:0:0:
331,300,42067,1,8,0:2:0:0:
387,83,42225,1,6,3:2:0:0:
499,258,42383,1,0,3:2:0:0:
296,134,42541,6,0,B|243:127|243:127|217:141|217:141|168:136,1,131.25000500679,6|0,3:2|3:2,0:2:0:0:
117,5,43015,2,0,P|123:38|115:72,1,65.6250025033952,0|0,3:2|0:2,0:2:0:0:
0,136,43330,2,0,P|34:127|100:189,1,131.25000500679,10|0,0:2|3:2,0:2:0:0:
13,325,43804,6,0,B|54:353|54:353|141:335,1,131.25000500679,6|8,3:2|0:2,0:2:0:0:
184,205,44278,1,0,3:2:0:0:
240,332,44436,1,2,0:2:0:0:
274,178,44593,2,0,P|306:163|398:198,1,131.25000500679,10|2,0:2|3:2,0:2:0:0:
501,267,45067,6,0,B|430:244|445:301|362:276,1,131.25000500679,6|10,3:2|0:2,0:2:0:0:
207,124,45541,1,2,3:2:0:0:
293,264,45699,1,2,3:2:0:0:
353,108,45857,2,0,B|407:101|407:101|432:115|432:115|495:109,1,131.25000500679,10|0,0:2|3:2,0:2:0:0:
392,191,46330,6,0,L|258:178,1,131.25000500679,6|8,3:2|0:2,0:2:0:0:
182,294,46804,2,0,P|192:260|188:223,1,65.6250025033952,2|0,3:2|3:2,0:2:0:0:
53,175,47120,2,0,L|124:170,1,65.6250025033952,10|0,0:2|3:2,0:0:0:0:
173,102,47357,1,0,3:2:0:0:
173,102,47436,2,0,L|238:106,1,65.6250025033952,2|0,3:2|3:2,0:0:0:0:
362,73,47751,6,0,L|357:127,1,52.4999983978272,6|0,3:2|0:2,0:2:0:0:
276,239,48067,2,0,L|272:187,1,52.4999983978272,0|0,3:2|0:2,0:2:0:0:
455,99,48383,6,0,L|448:166,1,65.6250025033952,2|0,3:2|0:2,0:2:0:0:
369,292,48699,2,0,L|363:224,1,65.6250025033952,0|0,3:2|0:2,0:2:0:0:
272,92,49015,5,10,3:2:0:0:
444,191,49172,1,8,0:2:0:0:
218,158,49330,1,8,3:2:0:0:
384,49,49488,1,8,0:2:0:0:
263,226,49646,2,0,P|225:238|185:234,1,65.6250025033952,2|0,3:2|3:2,0:0:0:0:
129,188,49883,1,0,3:2:0:0:
129,188,49962,2,0,P|91:176|51:180,1,65.6250025033952,0|2,3:2|3:2,0:2:0:0:
194,348,50278,5,14,0:2:0:0:
301,117,50436,1,0,3:2:0:0:
81,258,50593,1,0,3:2:0:0:
351,266,50751,5,8,0:2:0:0:
123,72,50909,1,0,3:2:0:0:
278,328,51067,1,2,3:2:0:0:
362,44,51225,5,8,0:2:0:0:
98,237,51383,1,10,0:2:0:0:
256,192,51462,12,2,52330,0:2:0:0:
24,214,52646,6,0,B|125:184|95:262|200:236,1,175,6|0,3:2|3:2,0:2:0:0:
364,150,53120,1,10,0:2:0:0:
174,60,53278,2,0,L|166:151,1,87.5,2|0,0:2|3:2,0:2:0:0:
365,299,53593,1,2,3:2:0:0:
267,124,53751,1,8,0:2:0:0:
193,323,53909,6,0,B|124:330|124:330|90:316|90:316|18:321,1,175,6|2,3:2|3:2,0:2:0:0:
88,127,54383,1,8,0:2:0:0:
253,259,54541,2,0,P|279:311|276:347,1,87.5,2|0,0:2|3:2,0:2:0:0:
138,237,54857,1,2,3:2:0:0:
341,170,55015,1,8,0:2:0:0:
225,26,55172,6,0,B|181:67|181:67|208:194,1,175,2|0,3:2|3:2,0:2:0:0:
365,299,55646,1,10,0:2:0:0:
376,92,55804,2,0,P|320:86|290:101,1,87.5,2|0,0:2|3:2,0:2:0:0:
151,262,56120,1,2,3:2:0:0:
341,170,56278,1,8,0:2:0:0:
164,70,56436,6,0,P|145:113|151:159,1,87.5,2|0,3:2|0:2,0:2:0:0:
308,260,56751,2,0,P|280:222|237:204,1,87.5,2|8,3:2|0:2,0:2:0:0:
71,289,57067,2,0,P|117:283|154:255,1,87.5,2|0,0:2|3:2,0:2:0:0:
256,107,57383,1,2,3:2:0:0:
222,318,57541,1,8,0:2:0:0:
346,138,57699,6,0,B|447:108|417:186|522:160,1,175,6|0,3:2|3:2,0:2:0:0:
388,328,58172,1,10,0:2:0:0:
248,194,58330,2,0,L|256:106,1,87.5,2|0,0:2|3:2,0:2:0:0:
422,33,58646,1,2,3:2:0:0:
340,243,58804,1,8,0:2:0:0:
294,33,58962,6,0,P|245:25|198:45,1,87.5,6|0,3:2|0:2,0:2:0:0:
64,254,59278,2,0,P|106:262|148:250,1,87.5,2|8,3:2|0:2,0:2:0:0:
112,9,59593,2,0,L|104:101,1,87.5,2|0,0:2|3:2,0:0:0:0:
198,319,59909,1,2,3:2:0:0:
255,106,60067,1,8,0:2:0:0:
326,342,60225,6,0,P|385:373|479:317,1,175,6|2,3:2|3:2,0:2:0:0:
366,99,60699,5,10,0:2:0:0:
220,303,60857,1,0,3:2:0:0:
306,27,61015,5,8,0:2:0:0:
396,289,61172,1,0,3:2:0:0:
166,81,61330,5,8,0:2:0:0:
441,196,61488,1,0,3:2:0:0:
137,265,61646,6,0,P|90:273|49:260,1,87.5,8|0,0:2|3:2,0:0:0:0:
83,60,61962,2,0,L|91:151,1,87.5,0|8,3:2|3:2,0:2:0:0:
95,183,62199,1,8,3:2:0:0:
95,183,62278,1,8,0:2:0:0:
252,215,62436,1,2,3:2:0:0:
270,190,62751,6,0,B|338:183|338:183|375:202|375:202|454:194,1,175,6|0,3:2|3:2,0:2:0:0:
325,33,63225,1,10,0:2:0:0:
191,146,63383,2,0,P|179:192|192:241,1,87.5,2|0,0:2|3:2,0:2:0:0:
397,115,63699,1,2,3:2:0:0:
316,286,63857,1,8,0:2:0:0:
267,98,64015,6,0,P|228:67|117:97,1,175,6|2,3:2|3:2,0:2:0:0:
35,286,64488,1,8,0:2:0:0:
198,233,64646,2,0,L|190:145,1,87.5,2|0,0:2|3:2,0:2:0:0:
2,69,64962,1,2,3:2:0:0:
105,230,65120,1,8,0:2:0:0:
153,32,65278,6,0,B|254:2|224:80|329:54,1,175,6|0,3:2|3:2,0:2:0:0:
509,140,65751,1,10,0:2:0:0:
339,226,65909,2,0,P|293:231|240:212,1,87.5,2|0,0:2|3:2,0:2:0:0:
432,68,66225,1,10,0:2:0:0:
432,68,66304,1,8,0:2:0:0:
432,68,66383,1,8,0:2:0:0:
430,290,66541,6,0,L|421:160,2,131.25000500679,2|2|2,3:2|3:2|3:2,0:2:0:0:
352,381,67488,1,2,3:2:0:0:
322,249,67804,6,0,L|222:238,1,87.5,6|0,3:2|0:2,0:2:0:0:
47,316,68120,1,10,0:2:0:0:
184,98,68278,1,10,3:2:0:0:
251,335,68436,1,8,0:2:0:0:
50,177,68593,1,8,3:2:0:0:
324,136,68751,1,8,0:2:0:0:
130,290,68909,1,8,3:2:0:0:
214,27,69067,1,8,0:2:0:0:
334,270,69225,6,0,L|434:281,1,87.5,8|8,3:2|0:2,0:0:0:0:
387,31,69541,1,10,0:2:0:0:
192,215,69699,1,8,0:2:0:0:
427,120,69857,1,10,0:2:0:0:
181,9,70015,1,8,0:2:0:0:
300,264,70172,1,10,0:2:0:0:
402,11,70330,1,0,3:2:0:0:
129,152,70488,6,0,L|40:144,1,87.5,14|0,0:2|3:2,0:0:0:0:
289,69,70804,1,0,3:2:0:0:
204,240,70962,2,0,L|115:248,1,87.5,8|2,0:2|3:2,0:0:0:0:
214,27,71278,1,0,3:2:0:0:
288,195,71436,6,0,P|298:242|291:281,1,87.5,12|0,0:2|0:0,0:2:0:0:
121,324,71751,1,0,3:2:0:0:
214,145,71909,1,8,0:2:0:0:
229,342,72067,2,0,P|277:368|325:363,1,87.5,0|0,3:2|3:2,0:0:0:0:
377,310,72304,1,8,0:2:0:0:
377,310,72383,2,0,L|382:252,3,43.75,10|8|8|8,3:2|0:2|0:2|0:2,0:2:0:0:
452,200,72699,2,0,L|441:69,1,131.25,10|0,3:2|0:2,0:2:0:0:
371,11,73015,6,0,P|331:7|266:67,1,131.25000500679,2|2,0:2|0:2,0:2:0:0:
316,139,73488,2,0,B|265:156|265:156|179:124,1,131.25000500679,2|2,0:2|0:2,0:2:0:0:
139,57,73962,1,2,0:2:0:0:
120,74,74909,5,10,3:2:0:0:
120,74,74988,1,0,3:2:0:0:
120,74,75067,2,0,L|116:125,1,39.3749987983704,0|0,3:2|3:2,0:2:0:0:
37,191,75225,2,0,L|42:237,3,39.3749987983704,2|0|0|0,3:2|3:2|3:2|3:2,0:2:0:0:
194,362,75541,5,14,0:2:0:0:
226,107,75699,1,0,3:2:0:0:
58,320,75857,1,2,3:2:0:0:
301,181,76015,5,10,0:2:0:0:
39,104,76172,1,0,3:2:0:0:
260,293,76330,1,2,3:2:0:0:
211,22,76488,6,0,P|169:43|182:186,1,210,14|0,0:2|3:2,0:2:0:0:
265,110,77593,1,8,0:2:0:0:
265,110,77672,1,8,0:2:0:0:
265,110,77751,2,0,L|200:104,3,39.3749987983704,8|8|8|8,3:2|0:2|0:2|0:2,0:2:0:0:
268,204,78067,6,0,L|355:196,1,78.7499975967408,6|2,3:2|0:2,0:2:0:0:
493,280,78383,1,10,0:2:0:0:
380,109,78541,1,0,0:2:0:0:
355,313,78699,1,2,3:2:0:0:
470,130,78857,2,0,P|470:84|449:45,1,78.7499975967408,2|8,0:2|0:2,0:2:0:0:
301,101,79172,6,0,L|388:109,1,78.7499975967408,2|0,0:2|3:2,0:2:0:0:
239,0,79488,2,0,L|160:7,1,78.7499975967408,2|8,0:2|0:2,0:2:0:0:
52,178,79804,1,2,0:2:0:0:
222,87,79962,1,2,3:2:0:0:
40,16,80120,1,2,0:2:0:0:
154,163,80278,2,0,L|162:244,1,78.7499975967408,10|0,0:2|3:2,0:0:0:0:
218,307,80515,1,0,3:2:0:0:
218,307,80593,6,0,P|259:322|304:315,1,78.7499975967408,2|2,3:2|0:2,0:2:0:0:
403,133,80909,2,0,L|416:241,1,78.7499975967408,10|2,0:2|0:2,0:2:0:0:
266,239,81225,1,0,3:2:0:0:
344,61,81383,1,2,0:2:0:0:
355,269,81541,1,10,0:2:0:0:
253,98,81699,6,0,L|172:106,1,78.7499975967408,2|0,0:2|3:2,0:2:0:0:
99,259,82015,2,0,P|118:223|121:176,1,78.7499975967408,2|8,0:2|0:2,0:2:0:0:
26,42,82330,2,0,P|47:76|86:102,1,78.7499975967408,2|0,0:2|3:2,0:0:0:0:
241,125,82646,1,10,0:2:0:0:
241,125,82725,1,8,0:2:0:0:
241,125,82804,2,0,L|246:171,3,39.3749987983704,10|8|8|8,0:2|0:2|0:2|0:2,0:2:0:0:
202,251,83120,6,0,L|286:260,1,78.7499975967408,6|2,3:2|0:2,0:2:0:0:
424,166,83436,2,0,L|345:174,1,78.7499975967408,10|0,0:2|0:2,0:2:0:0:
230,336,83751,1,2,3:2:0:0:
404,262,83909,1,2,0:2:0:0:
245,164,84067,1,8,0:2:0:0:
363,338,84225,6,0,P|403:348|445:339,1,78.7499975967408,2|0,0:2|3:2,0:2:0:0:
499,187,84541,2,0,L|492:277,1,78.7499975967408,2|8,0:2|0:2,0:2:0:0:
321,243,84857,1,2,0:2:0:0:
442,126,85015,2,0,P|460:88|457:42,1,78.7499975967408,2|0,3:2|3:2,0:0:0:0:
381,0,85251,1,0,3:2:0:0:
381,0,85330,2,0,L|289:7,1,78.7499975967408,2|0,3:2|3:2,0:0:0:0:
169,112,85646,6,0,P|155:153|168:212,1,78.7499975967408,14|2,0:2|3:2,0:2:0:0:
254,348,85962,1,2,3:2:0:0:
323,158,86120,2,0,L|231:165,1,78.7499975967408,10|0,0:2|3:2,0:0:0:0:
71,307,86436,5,10,0:2:0:0:
185,84,86593,1,2,3:2:0:0:
241,322,86751,5,10,0:2:0:0:
89,111,86909,1,0,3:2:0:0:
153,354,87067,5,10,0:2:0:0:
269,130,87225,1,0,3:2:0:0:
351,373,87383,5,10,0:2:0:0:
163,171,87541,1,0,3:2:0:0:
448,174,87699,5,8,0:2:0:0:
254,348,87857,1,8,0:2:0:0:
337,75,88015,1,8,0:2:0:0:
