osu file format v14

[General]
AudioFilename: audio.mp3
AudioLeadIn: 0
PreviewTime: -1
Countdown: 0
SampleSet: None
StackLeniency: 0.7
Mode: 0
LetterboxInBreaks: 0
WidescreenStoryboard: 0

[Editor]
DistanceSpacing: 0.8
BeatDivisor: 4
GridSize: 32
TimelineZoom: 1

[Metadata]
Title:Nevereverland (remix)
TitleUnicode:Nevereverland (remix)
Artist:nano
ArtistUnicode:nano
Creator:2lewd
Version:My Nevereverland
Source:nano's Remixes
Tags:dubstep, jrock
BeatmapID:1234267
BeatmapSetID:583231

[Difficulty]
HPDrainRate:6.5
CircleSize:4
OverallDifficulty:8
ApproachRate:9.3
SliderMultiplier:1.3
SliderTickRate:1

[Events]
//Background and Video events
0,0,"background.jpg",0,0
//Break Periods
2,25798,28644
//Storyboard Layer 0 (Background)
//Storyboard Layer 1 (Fail)
//Storyboard Layer 2 (Pass)
//Storyboard Layer 3 (Foreground)
//Storyboard Sound Samples

[TimingPoints]
3598,400,4,1,0,25,1,0
33030,272.727272727273,4,1,0,45,1,0
33030,-68.9655172413793,4,1,0,45,0,0
33575,272.727272727273,4,1,0,45,1,0

[HitObjects]
64,64,3579,5,0,0:0:0:0:
192,128,3995,1,0,0:0:0:0:
64,160,4398,1,0,0:0:0:0:
192,224,4798,1,0,0:0:0:0:
64,256,5198,1,0,0:0:0:0:
192,320,5598,1,0,0:0:0:0:
64,352,5998,1,0,0:0:0:0:
192,320,6398,1,0,0:0:0:0:
395,133,6798,6,0,P|427:69|427:5,1,130
342,11,7598,2,0,P|342:75|310:139,1,130
433,340,8398,6,0,P|401:244|401:212,1,130
324,223,9198,2,0,P|324:287|356:351,1,130
192,160,9998,5,0,0:0:0:0:
192,160,10398,1,0,0:0:0:0:
64,32,10798,1,0,0:0:0:0:
64,32,11198,1,0,0:0:0:0:
192,160,11598,1,0,0:0:0:0:
192,160,11998,1,0,0:0:0:0:
64,32,12398,1,0,0:0:0:0:
64,32,12798,1,0,0:0:0:0:
320,288,13198,6,0,P|352:224|352:224,1,65
448,288,13598,2,0,P|416:224|416:224,1,65
320,288,13998,6,0,P|352:352|352:352,1,65
448,288,14398,2,0,P|416:352|416:352,1,65
320,160,14798,6,0,P|352:224|352:224,1,65
449,160,15198,2,0,P|417:224|417:224,1,65
320,32,15598,6,0,P|352:96|352:96,1,65
447,33,15998,2,0,P|415:97|415:97,1,65
224,224,16398,5,0,0:0:0:0:
64,352,16798,2,0,B|33:322|33:322|62:305|62:305|16:279,2,130
224,224,17998,1,0,0:0:0:0:
160,64,18398,1,0,0:0:0:0:
32,192,18798,2,0,P|128:192|160:160,1,130
352,352,19598,6,0,B|321:322|321:322|348:308|348:308|302:267,1,130
479,160,20398,2,0,P|511:96|511:32,1,130
416,160,21198,2,0,P|416:256|448:288,1,130
352,160,21998,2,0,P|320:96|320:32,1,130
0,352,22798,5,0,0:0:0:0:
224,288,23198,1,0,0:0:0:0:
0,256,23598,1,0,0:0:0:0:
224,192,23998,1,0,0:0:0:0:
0,160,24398,1,0,0:0:0:0:
224,96,24798,1,0,0:0:0:0:
0,64,25198,1,0,0:0:0:0:
224,0,25598,1,0,0:0:0:0:
256,192,29198,12,0,32398,0:0:0:0:
352,128,33030,6,0,L|384:96,5,40.625
448,32,33439,1,0,0:0:0:0:
448,32,33575,2,0,P|486:122|459:216,1,188.500005752564
296,273,34120,2,0,P|314:212|320:192,1,65
160,150,34393,2,0,P|126:198|128:224,1,65
96,32,34665,6,0,B|236:76|236:76|224:128,1,195
55,182,35211,2,0,P|99:221|130:223,1,65
287,96,35484,2,0,B|314:286|314:286|224:256|273:352|177:347|177:347|130:304,1,390,0|0,0:3|0:3,0:3:0:0:
47,155,36575,5,0,0:0:0:0:
155,238,36711,1,0,0:0:0:0:
294,110,36847,2,0,P|343:28|425:77,1,188.500005752564
369,243,37393,1,0,0:0:0:0:
95,90,37665,2,0,B|95:124|118:137|118:137|137:142|137:142|105:185|105:185|151:186|151:186|128:230,1,195
