osu file format v14

[General]
AudioFilename: audio.mp3
AudioLeadIn: 0
PreviewTime: 110893
Countdown: 0
SampleSet: Normal
StackLeniency: 0.7
Mode: 1
LetterboxInBreaks: 0
WidescreenStoryboard: 0

[Editor]
DistanceSpacing: 1.3
BeatDivisor: 4
GridSize: 32
TimelineZoom: 2.699999

[Metadata]
Title:Nevereverland (Cut Ver.)
TitleUnicode:Nevereverland (Cut Ver.)
Artist:NANO
ArtistUnicode:ナノ
Creator:Erowdi
Version:Muzukashii
Source:アークIX
Tags:E_S_I_A [-E_S_I_A-] ESIA [-ESIA-] raynald ron [r] faputa naoki itou n neko short version ver english japanese j-rock jrock j rock arknine arkix ark ix nine opening op ending ed theme insert song anime ova
BeatmapID:3966864
BeatmapSetID:1921824

[Difficulty]
HPDrainRate:6
CircleSize:2
OverallDifficulty:5
ApproachRate:0
SliderMultiplier:1.4
SliderTickRate:1

[Events]
//Background and Video events
0,0,"bg (2)ear.jpg",0,60
//Break Periods
//Storyboard Layer 0 (Background)
//Storyboard Layer 1 (Fail)
//Storyboard Layer 2 (Pass)
//Storyboard Layer 3 (Foreground)
//Storyboard Layer 4 (Overlay)
//Storyboard Sound Samples

[TimingPoints]
925,400,4,1,0,25,1,0
925,-116.279069767442,4,1,0,25,0,0
20125,-116.279069767442,4,1,0,30,0,0
26525,-116.279069767442,4,1,0,35,0,0
40845,291.26213592233,4,1,0,60,1,0
40845,-120.481927710843,4,1,0,60,0,0
45505,-114.942528735632,4,1,0,60,0,0
49000,-111.111111111111,4,1,0,60,0,0
50165,-105.263157894737,4,1,0,82,0,1
62471,-105.263157894737,4,1,0,80,0,1
63545,-116.279069767442,4,1,0,74,0,1
63836,-120.481927710843,4,1,0,72,0,1
64145,-120.481927710843,4,1,0,55,0,0
82186,-120.481927710843,4,1,0,55,0,0
82331,-120.481927710843,4,1,0,55,0,0
82477,-120.481927710843,4,1,0,55,0,0
82622,-120.481927710843,4,1,0,55,0,0
82786,-120.481927710843,4,1,0,75,0,0
84825,291.26213592233,4,1,0,75,1,0
84825,-120.481927710843,4,1,0,75,0,0
89193,291.26213592233,4,1,0,75,1,0
89193,-120.481927710843,4,1,0,75,0,0
91524,291.26213592233,4,1,0,36,1,8
91524,-131.578947368421,4,1,0,36,0,8
100844,-126.582278481013,4,1,0,43,0,8
107834,-95.2380952380952,3,1,0,95,0,8
107835,291.26213592233,4,1,0,95,1,0
107835,-95.2380952380952,3,1,0,95,0,8
110901,-100,3,1,0,80,0,8
111330,291.26213592233,4,1,0,90,1,1
111330,-100,4,1,0,90,0,1
133465,-100,4,1,0,88,0,0
134630,-100,4,1,0,85,0,0

[HitObjects]
256,192,925,5,0,0:0:0:0:
256,192,1325,1,8,0:0:0:0:
256,192,1725,1,8,0:0:0:0:
256,192,2125,1,0,0:0:0:0:
256,192,2925,1,0,0:0:0:0:
256,192,3325,1,0,0:0:0:0:
256,192,3525,1,8,0:0:0:0:
256,192,3725,1,0,0:0:0:0:
256,192,4125,1,8,0:0:0:0:
256,192,4725,1,8,0:0:0:0:
256,192,4925,1,0,0:0:0:0:
256,192,5325,1,0,0:0:0:0:
256,192,6125,1,0,0:0:0:0:
256,192,6525,1,8,0:0:0:0:
256,192,7325,1,8,0:0:0:0:
256,192,7725,1,0,0:0:0:0:
256,192,8125,1,0,0:0:0:0:
256,192,8525,1,8,0:0:0:0:
256,192,9325,1,0,0:0:0:0:
256,192,9725,1,8,0:0:0:0:
256,192,10125,1,8,0:0:0:0:
256,192,10525,1,0,0:0:0:0:
256,192,10925,1,0,0:0:0:0:
256,192,11125,1,8,0:0:0:0:
256,192,11525,1,0,0:0:0:0:
256,192,11725,1,8,0:0:0:0:
256,192,12325,1,0,0:0:0:0:
256,192,12525,1,0,0:0:0:0:
256,192,12925,1,8,0:0:0:0:
256,192,13125,1,8,0:0:0:0:
256,192,13325,1,0,0:0:0:0:
256,192,13725,1,8,0:0:0:0:
256,192,14325,1,0,0:0:0:0:
256,192,14925,1,8,0:0:0:0:
256,192,15125,1,0,0:0:0:0:
256,192,15525,1,0,0:0:0:0:
256,192,16125,1,0,0:0:0:0:
256,192,16325,1,8,0:0:0:0:
256,192,16725,1,8,0:0:0:0:
256,192,16925,1,0,0:0:0:0:
256,192,17525,1,8,0:0:0:0:
256,192,18125,1,0,0:0:0:0:
256,192,18725,1,8,0:0:0:0:
256,192,18925,1,0,0:0:0:0:
256,192,19325,1,8,0:0:0:0:
256,192,19725,1,0,0:0:0:0:
256,192,20125,1,8,0:0:0:0:
256,192,20725,1,8,0:0:0:0:
256,192,21125,1,0,0:0:0:0:
256,192,21325,1,8,0:0:0:0:
256,192,21925,1,8,0:0:0:0:
256,192,22125,1,0,0:0:0:0:
256,192,22325,1,0,0:0:0:0:
256,192,22525,1,8,0:0:0:0:
256,192,22725,1,8,0:0:0:0:
256,192,22925,1,0,0:0:0:0:
256,192,23325,1,8,0:0:0:0:
256,192,23925,1,0,0:0:0:0:
256,192,24525,1,0,0:0:0:0:
256,192,24925,1,0,0:0:0:0:
256,192,25125,1,8,0:0:0:0:
256,192,25325,1,0,0:0:0:0:
256,192,25725,1,8,0:0:0:0:
256,192,26125,1,0,0:0:0:0:
256,192,26525,1,0,0:0:0:0:
256,192,26925,1,8,0:0:0:0:
256,192,27125,1,8,0:0:0:0:
256,192,27525,1,0,0:0:0:0:
256,192,27725,1,8,0:0:0:0:
256,192,27925,1,0,0:0:0:0:
256,192,28325,1,8,0:0:0:0:
256,192,28525,1,0,0:0:0:0:
256,192,28725,1,0,0:0:0:0:
256,192,28925,1,8,0:0:0:0:
256,192,29125,1,0,0:0:0:0:
256,192,29525,1,8,0:0:0:0:
256,192,29625,1,8,0:0:0:0:
256,192,29725,1,8,0:0:0:0:
256,192,30325,1,8,0:0:0:0:
256,192,30925,1,0,0:0:0:0:
256,192,31525,1,8,0:0:0:0:
256,192,31725,1,0,0:0:0:0:
256,192,31925,1,0,0:0:0:0:
256,192,32125,1,8,0:0:0:0:
256,192,32325,1,8,0:0:0:0:
256,192,32525,1,0,0:0:0:0:
256,192,32925,1,8,0:0:0:0:
256,192,33525,1,0,0:0:0:0:
256,192,34125,1,8,0:0:0:0:
256,192,34325,1,8,0:0:0:0:
256,192,34725,1,8,0:0:0:0:
256,192,34925,1,0,0:0:0:0:
256,192,35125,1,8,0:0:0:0:
256,192,35725,1,0,0:0:0:0:
256,192,36125,1,8,0:0:0:0:
256,192,36725,1,8,0:0:0:0:
256,192,37325,5,0,0:0:0:0:
256,192,37925,1,8,0:0:0:0:
256,192,38325,1,0,0:0:0:0:
256,192,38525,1,0,0:0:0:0:
256,192,38925,1,8,0:0:0:0:
256,192,39125,1,8,0:0:0:0:
256,192,39325,5,0,0:0:0:0:
256,192,39525,12,8,40725,0:0:0:0:
256,192,40845,5,4,0:0:0:0:
256,192,41281,1,0,0:0:0:0:
256,192,41427,1,8,0:0:0:0:
256,192,41573,1,0,0:0:0:0:
256,192,41864,1,8,0:0:0:0:
256,192,42155,1,8,0:0:0:0:
256,192,42738,1,8,0:0:0:0:
256,192,42883,1,0,0:0:0:0:
256,192,43029,1,8,0:0:0:0:
256,192,43320,1,0,0:0:0:0:
256,192,43466,1,8,0:0:0:0:
256,192,43611,1,0,0:0:0:0:
256,192,43903,1,8,0:0:0:0:
256,192,44194,1,0,0:0:0:0:
256,192,44485,1,8,0:0:0:0:
256,192,44631,1,0,0:0:0:0:
256,192,44922,1,8,0:0:0:0:
256,192,45068,1,8,0:0:0:0:
256,192,45213,1,0,0:0:0:0:
256,192,45359,1,8,0:0:0:0:
256,192,45505,1,4,0:0:0:0:
256,192,45942,1,4,0:0:0:0:
256,192,46378,1,4,0:0:0:0:
256,192,46815,1,12,0:0:0:0:
256,192,47252,1,8,0:0:0:0:
256,192,47398,1,8,0:0:0:0:
256,192,47544,1,0,0:0:0:0:
256,192,47689,1,0,0:0:0:0:
256,192,47835,1,12,0:0:0:0:
256,192,48126,1,8,0:0:0:0:
256,192,48272,1,0,0:0:0:0:
256,192,48563,1,0,0:0:0:0:
256,192,48709,1,8,0:0:0:0:
256,192,48854,1,0,0:0:0:0:
256,192,49000,1,0,0:0:0:0:
256,192,49073,1,0,0:0:0:0:
256,192,49145,1,0,0:0:0:0:
256,192,49291,1,8,0:0:0:0:
256,192,49437,1,8,0:0:0:0:
256,192,49582,1,0,0:0:0:0:
256,192,50165,1,4,0:0:0:0:
256,192,50456,1,0,0:0:0:0:
256,192,50747,1,8,0:0:0:0:
256,192,51039,1,0,0:0:0:0:
256,192,51184,1,8,0:0:0:0:
256,192,51476,1,0,0:0:0:0:
256,192,51621,1,8,0:0:0:0:
256,192,51767,1,8,0:0:0:0:
256,192,51912,1,0,0:0:0:0:
256,192,51985,1,0,0:0:0:0:
256,192,52058,1,0,0:0:0:0:
256,192,52204,1,8,0:0:0:0:
256,192,52495,1,4,0:0:0:0:
256,192,52786,1,8,0:0:0:0:
256,192,52932,1,0,0:0:0:0:
256,192,53078,1,8,0:0:0:0:
256,192,53369,1,0,0:0:0:0:
256,192,53514,1,8,0:0:0:0:
256,192,53806,1,8,0:0:0:0:
256,192,53951,1,0,0:0:0:0:
256,192,54097,1,0,0:0:0:0:
256,192,54243,1,8,0:0:0:0:
256,192,54315,1,8,0:0:0:0:
256,192,54388,1,8,0:0:0:0:
256,192,54534,1,0,0:0:0:0:
256,192,54679,1,8,0:0:0:0:
256,192,54825,1,4,0:0:0:0:
256,192,55116,1,8,0:0:0:0:
256,192,55408,1,0,0:0:0:0:
256,192,55699,1,8,0:0:0:0:
256,192,55844,1,8,0:0:0:0:
256,192,56136,1,0,0:0:0:0:
256,192,56281,1,8,0:0:0:0:
256,192,56427,1,8,0:0:0:0:
256,192,56573,1,0,0:0:0:0:
256,192,56718,1,0,0:0:0:0:
256,192,56864,1,8,0:0:0:0:
256,192,56937,1,8,0:0:0:0:
256,192,57010,1,8,0:0:0:0:
256,192,57155,1,4,0:0:0:0:
256,192,57446,1,8,0:0:0:0:
256,192,57592,1,0,0:0:0:0:
256,192,57738,1,8,0:0:0:0:
256,192,58029,1,0,0:0:0:0:
256,192,58175,1,8,0:0:0:0:
256,192,58320,1,8,0:0:0:0:
256,192,58466,1,0,0:0:0:0:
256,192,58539,1,0,0:0:0:0:
256,192,58611,1,0,0:0:0:0:
256,192,58757,1,0,0:0:0:0:
256,192,58903,1,8,0:0:0:0:
256,192,59194,1,0,0:0:0:0:
256,192,59340,1,8,0:0:0:0:
256,192,59485,1,4,0:0:0:0:
256,192,59922,1,0,0:0:0:0:
256,192,60068,1,8,0:0:0:0:
256,192,60359,1,4,0:0:0:0:
256,192,60796,1,0,0:0:0:0:
256,192,60942,1,8,0:0:0:0:
256,192,61087,1,0,0:0:0:0:
256,192,61233,1,0,0:0:0:0:
256,192,61306,1,0,0:0:0:0:
256,192,61378,1,0,0:0:0:0:
256,192,61524,1,0,0:0:0:0:
256,192,61670,1,8,0:0:0:0:
256,192,61815,1,4,0:0:0:0:
256,192,62107,1,8,0:0:0:0:
256,192,62252,1,8,0:0:0:0:
256,192,62544,1,0,0:0:0:0:
256,192,62689,1,8,0:0:0:0:
256,192,62835,1,8,0:0:0:0:
256,192,62980,1,0,0:0:0:0:
256,192,63126,1,8,0:0:0:0:
256,192,63271,1,0,0:0:0:0:
256,192,63417,1,8,0:0:0:0:
256,192,63854,1,0,0:0:0:0:
256,192,64145,1,4,0:0:0:0:
256,192,64437,1,8,0:0:0:0:
256,192,64728,1,0,0:0:0:0:
256,192,64874,1,0,0:0:0:0:
256,192,65019,1,8,0:0:0:0:
256,192,65165,1,0,0:0:0:0:
256,192,65456,1,0,0:0:0:0:
256,192,65602,1,8,0:0:0:0:
256,192,65893,1,8,0:0:0:0:
256,192,66039,1,0,0:0:0:0:
256,192,66184,1,0,0:0:0:0:
256,192,66476,1,8,0:0:0:0:
256,192,66767,1,0,0:0:0:0:
256,192,66912,1,8,0:0:0:0:
256,192,67204,1,8,0:0:0:0:
256,192,67349,1,0,0:0:0:0:
256,192,67495,1,0,0:0:0:0:
256,192,67786,1,0,0:0:0:0:
256,192,67932,1,8,0:0:0:0:
256,192,68223,1,8,0:0:0:0:
256,192,68514,1,0,0:0:0:0:
256,192,68806,1,0,0:0:0:0:
256,192,69097,1,8,0:0:0:0:
256,192,69388,1,8,0:0:0:0:
256,192,69534,1,8,0:0:0:0:
256,192,69679,1,0,0:0:0:0:
256,192,69825,1,0,0:0:0:0:
256,192,70116,1,0,0:0:0:0:
256,192,70262,1,8,0:0:0:0:
256,192,70553,1,0,0:0:0:0:
256,192,70699,1,8,0:0:0:0:
256,192,70844,1,0,0:0:0:0:
256,192,71136,1,8,0:0:0:0:
256,192,71427,1,8,0:0:0:0:
256,192,71573,1,0,0:0:0:0:
256,192,71864,1,0,0:0:0:0:
256,192,72010,1,8,0:0:0:0:
256,192,72155,5,0,0:0:0:0:
256,192,72446,1,0,0:0:0:0:
256,192,72592,1,8,0:0:0:0:
256,192,72883,1,8,0:0:0:0:
256,192,73175,1,0,0:0:0:0:
256,192,73466,1,4,0:0:0:0:
256,192,73757,1,8,0:0:0:0:
256,192,73903,1,0,0:0:0:0:
256,192,74048,1,8,0:0:0:0:
256,192,74194,1,0,0:0:0:0:
256,192,74485,1,8,0:0:0:0:
256,192,74777,1,0,0:0:0:0:
256,192,74922,1,8,0:0:0:0:
256,192,75213,1,0,0:0:0:0:
256,192,75359,1,0,0:0:0:0:
256,192,75505,1,8,0:0:0:0:
256,192,75796,1,0,0:0:0:0:
256,192,76087,1,8,0:0:0:0:
256,192,76378,1,8,0:0:0:0:
256,192,76524,1,0,0:0:0:0:
256,192,76670,1,8,0:0:0:0:
256,192,76815,1,0,0:0:0:0:
256,192,77107,1,0,0:0:0:0:
256,192,77252,1,8,0:0:0:0:
256,192,77544,1,0,0:0:0:0:
256,192,77689,1,0,0:0:0:0:
256,192,77835,1,8,0:0:0:0:
256,192,78126,1,8,0:0:0:0:
256,192,78417,1,8,0:0:0:0:
256,192,78709,5,0,0:0:0:0:
256,192,78854,1,0,0:0:0:0:
256,192,79000,1,8,0:0:0:0:
256,192,79145,1,0,0:0:0:0:
256,192,79437,1,0,0:0:0:0:
256,192,79582,1,8,0:0:0:0:
256,192,79874,1,0,0:0:0:0:
256,192,80019,1,0,0:0:0:0:
256,192,80165,1,0,0:0:0:0:
256,192,80456,5,12,0:0:0:0:
256,192,80747,1,0,0:0:0:0:
256,192,81039,1,8,0:0:0:0:
256,192,81184,1,0,0:0:0:0:
256,192,81330,1,0,0:0:0:0:
256,192,81621,1,8,0:0:0:0:
256,192,81912,1,0,0:0:0:0:
256,192,82204,5,8,0:0:0:0:
256,192,82349,1,8,0:0:0:0:
256,192,82495,1,0,0:0:0:0:
256,192,82641,1,8,0:0:0:0:
256,192,82786,5,4,0:0:0:0:
256,192,83223,1,8,0:0:0:0:
256,192,83369,1,8,0:0:0:0:
256,192,83660,1,8,0:0:0:0:
256,192,83806,1,0,0:0:0:0:
256,192,84097,1,8,0:0:0:0:
256,192,84243,1,0,0:0:0:0:
256,192,84388,1,0,0:0:0:0:
256,192,84534,1,8,0:0:0:0:
256,192,84825,1,4,0:0:0:0:
256,192,85261,1,0,0:0:0:0:
256,192,85407,1,8,0:0:0:0:
256,192,85698,1,8,0:0:0:0:
256,192,85844,1,0,0:0:0:0:
256,192,86135,1,8,0:0:0:0:
256,192,86281,1,0,0:0:0:0:
256,192,86426,1,0,0:0:0:0:
256,192,86572,1,8,0:0:0:0:
256,192,86718,1,0,0:0:0:0:
256,192,86863,1,8,0:0:0:0:
256,192,86936,1,8,0:0:0:0:
256,192,87009,1,8,0:0:0:0:
256,192,87155,1,4,0:0:0:0:
256,192,87591,1,0,0:0:0:0:
256,192,87737,1,8,0:0:0:0:
256,192,88028,1,0,0:0:0:0:
256,192,88174,1,0,0:0:0:0:
256,192,88465,1,0,0:0:0:0:
256,192,88611,1,8,0:0:0:0:
256,192,88757,1,8,0:0:0:0:
256,192,88902,1,4,0:0:0:0:
256,192,89193,1,12,0:0:0:0:
256,192,89629,1,0,0:0:0:0:
256,192,89775,1,8,0:0:0:0:
256,192,90066,1,8,0:0:0:0:
256,192,90212,1,8,0:0:0:0:
256,192,90503,1,8,0:0:0:0:
256,192,90649,1,4,0:0:0:0:
256,192,90940,1,0,0:0:0:0:
332,90,91086,1,0,0:0:0:0:
256,192,91231,1,8,0:0:0:0:
256,192,91377,1,8,0:0:0:0:
256,192,92106,1,0,0:0:0:0:
256,192,92397,1,0,0:0:0:0:
256,192,92543,1,8,0:0:0:0:
256,192,92834,1,0,0:0:0:0:
256,192,93125,1,0,0:0:0:0:
256,192,93562,1,8,0:0:0:0:
256,192,93854,1,0,0:0:0:0:
256,192,94145,1,8,0:0:0:0:
256,192,94290,1,8,0:0:0:0:
256,192,94436,1,0,0:0:0:0:
256,192,94727,1,0,0:0:0:0:
256,192,94873,1,8,0:0:0:0:
256,192,95164,1,0,0:0:0:0:
256,192,95456,1,8,0:0:0:0:
256,192,95892,1,0,0:0:0:0:
256,192,96184,1,8,0:0:0:0:
256,192,96621,1,8,0:0:0:0:
256,192,97057,1,0,0:0:0:0:
256,192,97640,1,8,0:0:0:0:
256,192,98223,1,0,0:0:0:0:
256,192,98514,1,8,0:0:0:0:
256,192,98951,1,0,0:0:0:0:
256,192,99388,1,8,0:0:0:0:
256,192,99824,1,0,0:0:0:0:
256,192,99970,1,8,0:0:0:0:
256,192,100261,1,8,0:0:0:0:
256,192,100553,1,0,0:0:0:0:
256,192,100844,1,0,0:0:0:0:
256,192,101426,1,0,0:0:0:0:
256,192,101718,1,0,0:0:0:0:
256,192,101863,1,8,0:0:0:0:
256,192,102155,1,0,0:0:0:0:
256,192,102446,1,8,0:0:0:0:
256,192,102737,1,8,0:0:0:0:
256,192,102883,1,0,0:0:0:0:
256,192,103174,1,8,0:0:0:0:
256,192,103611,1,0,0:0:0:0:
256,192,103757,1,8,0:0:0:0:
256,192,104048,1,8,0:0:0:0:
256,192,104193,1,0,0:0:0:0:
256,192,104485,1,0,0:0:0:0:
256,192,104776,1,8,0:0:0:0:
256,192,105213,1,0,0:0:0:0:
256,192,105504,1,8,0:0:0:0:
256,192,106087,1,0,0:0:0:0:
256,192,106669,5,8,0:0:0:0:
256,192,107252,1,0,0:0:0:0:
256,192,107835,5,4,0:0:0:0:
256,192,108126,1,12,0:0:0:0:
256,192,108271,1,4,0:0:0:0:
256,192,108708,1,4,0:0:0:0:
256,192,108854,1,4,0:0:0:0:
256,192,109000,1,4,0:0:0:0:
256,192,109145,1,4,0:0:0:0:
256,192,109582,1,12,0:0:0:0:
256,192,109873,1,4,0:0:0:0:
256,192,110019,1,12,0:0:0:0:
256,192,111330,1,4,0:0:0:0:
256,192,111621,1,0,0:0:0:0:
256,192,111766,1,8,0:0:0:0:
256,192,112058,1,0,0:0:0:0:
256,192,112130,1,0,0:0:0:0:
256,192,112203,1,0,0:0:0:0:
256,192,112349,1,0,0:0:0:0:
256,192,112495,1,8,0:0:0:0:
256,192,112640,1,8,0:0:0:0:
256,192,112786,1,0,0:0:0:0:
256,192,112931,1,0,0:0:0:0:
256,192,113223,1,0,0:0:0:0:
256,192,113368,1,8,0:0:0:0:
256,192,113514,1,0,0:0:0:0:
256,192,113660,1,8,0:0:0:0:
256,192,113732,1,8,0:0:0:0:
256,192,113805,1,8,0:0:0:0:
256,192,113951,1,0,0:0:0:0:
256,192,114096,1,0,0:0:0:0:
256,192,114388,1,0,0:0:0:0:
256,192,114533,1,8,0:0:0:0:
256,192,114825,1,0,0:0:0:0:
256,192,114970,1,0,0:0:0:0:
256,192,115116,1,8,0:0:0:0:
256,192,115262,1,8,0:0:0:0:
256,192,115553,1,8,0:0:0:0:
256,192,115698,1,0,0:0:0:0:
256,192,115990,1,4,0:0:0:0:
256,192,116281,1,8,0:0:0:0:
256,192,116572,1,0,0:0:0:0:
256,192,116863,1,8,0:0:0:0:
256,192,117009,1,0,0:0:0:0:
256,192,117155,1,8,0:0:0:0:
256,192,117446,1,0,0:0:0:0:
256,192,117737,1,0,0:0:0:0:
256,192,117883,1,0,0:0:0:0:
256,192,118029,1,8,0:0:0:0:
256,192,118174,1,0,0:0:0:0:
256,192,118320,1,0,0:0:0:0:
256,192,118611,1,8,0:0:0:0:
256,192,118757,1,0,0:0:0:0:
256,192,119048,1,0,0:0:0:0:
256,192,119194,1,0,0:0:0:0:
256,192,119339,1,8,0:0:0:0:
256,192,119630,1,8,0:0:0:0:
256,192,120067,1,0,0:0:0:0:
256,192,120140,1,0,0:0:0:0:
256,192,120213,1,0,0:0:0:0:
256,192,120359,1,8,0:0:0:0:
256,192,120504,1,8,0:0:0:0:
256,192,120650,1,4,0:0:0:0:
256,192,120941,1,0,0:0:0:0:
256,192,121087,1,8,0:0:0:0:
256,192,121378,1,8,0:0:0:0:
256,192,121524,1,0,0:0:0:0:
256,192,121596,1,0,0:0:0:0:
256,192,121669,1,0,0:0:0:0:
256,192,121815,1,8,0:0:0:0:
256,192,122106,1,0,0:0:0:0:
256,192,122252,1,8,0:0:0:0:
256,192,122543,1,0,0:0:0:0:
256,192,122689,1,0,0:0:0:0:
256,192,122834,1,8,0:0:0:0:
256,192,122980,1,8,0:0:0:0:
256,192,123563,1,0,0:0:0:0:
256,192,123708,1,0,0:0:0:0:
256,192,123854,1,8,0:0:0:0:
256,192,123999,1,0,0:0:0:0:
256,192,124291,1,0,0:0:0:0:
256,192,124436,1,8,0:0:0:0:
256,192,124582,1,0,0:0:0:0:
256,192,124873,1,8,0:0:0:0:
256,192,124946,1,8,0:0:0:0:
256,192,125019,1,8,0:0:0:0:
256,192,125164,1,0,0:0:0:0:
256,192,125310,1,12,0:0:0:0:
256,192,125456,1,0,0:0:0:0:
256,192,125601,1,8,0:0:0:0:
256,192,125747,1,0,0:0:0:0:
256,192,125893,1,8,0:0:0:0:
256,192,126184,1,8,0:0:0:0:
256,192,126330,1,0,0:0:0:0:
256,192,126475,1,8,0:0:0:0:
256,192,126621,1,0,0:0:0:0:
256,192,126766,1,8,0:0:0:0:
256,192,127058,1,0,0:0:0:0:
256,192,127203,1,0,0:0:0:0:
256,192,127349,1,8,0:0:0:0:
256,192,127640,1,0,0:0:0:0:
256,192,127931,1,0,0:0:0:0:
256,192,128077,1,8,0:0:0:0:
256,192,128368,1,0,0:0:0:0:
256,192,128660,1,0,0:0:0:0:
256,192,128951,1,8,0:0:0:0:
256,192,129096,1,0,0:0:0:0:
256,192,129242,1,0,0:0:0:0:
256,192,129388,1,8,0:0:0:0:
256,192,129679,1,0,0:0:0:0:
256,192,129752,1,0,0:0:0:0:
256,192,129825,1,0,0:0:0:0:
256,192,129970,1,12,0:0:0:0:
256,192,130262,1,0,0:0:0:0:
256,192,130407,1,8,0:0:0:0:
256,192,130553,1,8,0:0:0:0:
256,192,130844,1,8,0:0:0:0:
256,192,130990,1,0,0:0:0:0:
256,192,131281,1,0,0:0:0:0:
256,192,131427,1,8,0:0:0:0:
256,192,131572,1,8,0:0:0:0:
256,192,131718,1,0,0:0:0:0:
256,192,131863,1,0,0:0:0:0:
256,192,132009,1,8,0:0:0:0:
256,192,132155,1,8,0:0:0:0:
256,192,132300,1,0,0:0:0:0:
256,192,132592,1,0,0:0:0:0:
256,192,132737,1,8,0:0:0:0:
256,192,132883,1,8,0:0:0:0:
256,192,132956,1,8,0:0:0:0:
256,192,133029,1,8,0:0:0:0:
256,192,133174,1,0,0:0:0:0:
256,192,133320,1,0,0:0:0:0:
256,192,133465,1,12,0:0:0:0:
256,192,133611,8,8,134485,0:0:0:0:
256,192,134630,5,4,0:0:0:0:
