osu file format v14

[General]
AudioFilename: audio.mp3
AudioLeadIn: 0
PreviewTime: 110893
Countdown: 0
SampleSet: Normal
StackLeniency: 0.7
Mode: 1
LetterboxInBreaks: 0
WidescreenStoryboard: 1

[Editor]
Bookmarks: 40854,64154,82795,91533,107843
DistanceSpacing: 1.3
BeatDivisor: 4
GridSize: 32
TimelineZoom: 2.099999

[Metadata]
Title:Nevereverland (Cut Ver.)
TitleUnicode:Nevereverland (Cut Ver.)
Artist:NANO
ArtistUnicode:ナノ
Creator:Erowdi
Version:[-E S I A-] & Erowdi's Futsuu
Source:アークIX
Tags:E_S_I_A [-E_S_I_A-] ESIA [-ESIA-] raynald ron [r] faputa naoki itou n neko short version ver english japanese j-rock jrock j rock arknine arkix ark ix nine opening op ending ed theme insert song anime ova
BeatmapID:3967218
BeatmapSetID:1921824

[Difficulty]
HPDrainRate:7
CircleSize:2
OverallDifficulty:4
ApproachRate:0
SliderMultiplier:1.4
SliderTickRate:1

[Events]
//Background and Video events
0,0,"bg (2)ear.jpg",0,60
//Break Periods
//Storyboard Layer 0 (Background)
//Storyboard Layer 1 (Fail)
//Storyboard Layer 2 (Pass)
//Storyboard Layer 3 (Foreground)
//Storyboard Layer 4 (Overlay)
//Storyboard Sound Samples

[TimingPoints]
925,400,4,1,0,25,1,0
925,-88.2352941176471,4,1,0,25,0,0
20125,-88.2352941176471,4,1,0,30,0,0
26525,-88.2352941176471,4,1,0,35,0,0
40845,291.26213592233,4,1,0,60,1,0
40845,-121.176470588235,4,1,0,60,0,0
50165,-121.176470588235,4,1,0,82,0,1
62980,-121.176470588235,4,1,0,80,0,1
63272,-121.176470588235,4,1,0,78,0,1
63417,-121.176470588235,4,1,0,76,0,1
63563,-121.176470588235,4,1,0,74,0,1
64145,-121.176470588235,4,1,0,55,0,0
82786,-121.176470588235,4,1,0,75,0,0
84825,291.26213592233,4,1,0,75,1,0
84825,-120.481927710843,3,1,0,75,0,8
89193,291.26213592233,4,1,0,75,1,0
89193,-120.481927710843,4,1,0,75,0,8
91524,291.26213592233,4,1,0,36,1,8
91524,-121.176470588235,4,1,0,36,0,8
100844,-120.481927710843,4,1,0,43,0,8
107835,291.26213592233,4,1,0,95,1,0
107835,-121.176470588235,3,1,0,95,0,8
111330,291.26213592233,4,1,0,90,1,1
111330,-121.176470588235,4,1,0,90,0,1
133465,-121.176470588235,4,1,0,88,0,0
134630,-121.176470588235,4,1,0,85,0,0

[HitObjects]
160,258,925,5,8,0:0:0:0:
276,221,1725,1,0,0:0:0:0:
276,221,2125,1,0,0:0:0:0:
276,221,2925,1,0,0:0:0:0:
276,221,3325,1,8,0:0:0:0:
363,202,3525,1,8,0:0:0:0:
276,221,3725,1,0,0:0:0:0:
267,214,4125,1,8,0:0:0:0:
203,233,4925,1,0,0:0:0:0:
203,233,5325,1,0,0:0:0:0:
296,162,6125,1,0,0:0:0:0:
470,182,6525,1,8,0:0:0:0:
257,209,7325,1,8,0:0:0:0:
131,195,8125,1,0,0:0:0:0:
257,209,8525,1,8,0:0:0:0:
184,231,9325,1,0,0:0:0:0:
291,165,9725,1,8,0:0:0:0:
272,179,10125,1,8,0:0:0:0:
184,232,10525,1,0,0:0:0:0:
275,212,10925,1,8,0:0:0:0:
275,212,11125,1,8,0:0:0:0:
213,281,11725,1,0,0:0:0:0:
375,190,12525,1,0,0:0:0:0:
224,206,12925,1,8,0:0:0:0:
224,206,13125,1,8,0:0:0:0:
312,202,13325,1,0,0:0:0:0:
231,198,13725,1,8,0:0:0:0:
278,142,14325,1,0,0:0:0:0:
267,204,14925,1,8,0:0:0:0:
248,235,15125,1,8,0:0:0:0:
239,219,15525,1,0,0:0:0:0:
289,201,16525,1,0,0:0:0:0:
377,186,16925,1,8,0:0:0:0:
408,232,17325,1,0,0:0:0:0:
300,232,17525,1,8,0:0:0:0:
278,237,17925,1,8,0:0:0:0:
335,206,18325,1,0,0:0:0:0:
313,156,18925,1,0,0:0:0:0:
310,204,19325,1,8,0:0:0:0:
305,228,19725,1,0,0:0:0:0:
344,228,20125,1,8,0:0:0:0:
262,243,20725,1,8,0:0:0:0:
247,196,21325,1,0,0:0:0:0:
247,196,21525,1,0,0:0:0:0:
306,162,21925,1,8,0:0:0:0:
241,259,22125,1,0,0:0:0:0:
292,227,22525,1,8,0:0:0:0:
292,227,22925,1,0,0:0:0:0:
292,227,23125,1,0,0:0:0:0:
262,211,23325,1,8,0:0:0:0:
187,228,23725,1,8,0:0:0:0:
351,176,23925,1,0,0:0:0:0:
281,201,24325,1,0,0:0:0:0:
269,168,24725,1,8,0:0:0:0:
267,149,25325,1,0,0:0:0:0:
351,163,25725,1,8,0:0:0:0:
351,163,26125,1,8,0:0:0:0:
242,176,26325,1,8,0:0:0:0:
376,192,26525,1,0,0:0:0:0:
300,222,26925,1,8,0:0:0:0:
236,206,27325,1,0,0:0:0:0:
219,187,27525,1,8,0:0:0:0:
292,201,27925,1,8,0:0:0:0:
218,246,28325,1,0,0:0:0:0:
243,239,28525,1,0,0:0:0:0:
259,253,28925,1,8,0:0:0:0:
197,259,29725,1,0,0:0:0:0:
250,252,30125,1,8,0:0:0:0:
250,252,30525,1,8,0:0:0:0:
192,184,30725,1,0,0:0:0:0:
231,216,31125,1,0,0:0:0:0:
329,184,31525,1,8,0:0:0:0:
170,231,31725,1,0,0:0:0:0:
296,172,32125,1,8,0:0:0:0:
307,177,32525,1,8,0:0:0:0:
374,158,32925,1,0,0:0:0:0:
332,192,33525,1,8,0:0:0:0:
233,262,34125,1,0,0:0:0:0:
233,262,34325,1,0,0:0:0:0:
268,221,34925,1,8,0:0:0:0:
293,205,35125,1,0,0:0:0:0:
233,262,35725,1,0,0:0:0:0:
296,210,36125,1,8,0:0:0:0:
317,193,36525,1,8,0:0:0:0:
295,248,36725,1,0,0:0:0:0:
232,203,37125,1,0,0:0:0:0:
256,208,37525,1,8,0:0:0:0:
337,185,38125,1,0,0:0:0:0:
213,183,38525,1,8,0:0:0:0:
213,183,38925,1,8,0:0:0:0:
337,183,39325,5,0,0:0:0:0:
256,192,40845,5,4,0:0:0:0:
256,192,41427,1,0,0:0:0:0:
256,192,41718,1,0,0:0:0:0:
256,192,41864,1,8,0:0:0:0:
256,192,42155,1,8,0:0:0:0:
256,192,42883,1,8,0:0:0:0:
256,192,43029,1,0,0:0:0:0:
256,192,43320,1,0,0:0:0:0:
256,192,43466,1,8,0:0:0:0:
256,192,43611,1,0,0:0:0:0:
256,192,43903,1,8,0:0:0:0:
256,192,44194,1,0,0:0:0:0:
256,192,44631,1,0,0:0:0:0:
256,192,44777,1,0,0:0:0:0:
256,192,44922,1,8,0:0:0:0:
256,192,45505,1,4,0:0:0:0:
256,192,45942,1,4,0:0:0:0:
256,192,46378,1,4,0:0:0:0:
256,192,46815,1,12,0:0:0:0:
256,192,47252,1,8,0:0:0:0:
256,192,47544,1,0,0:0:0:0:
256,192,47835,1,12,0:0:0:0:
256,192,48272,1,0,0:0:0:0:
256,192,48563,1,0,0:0:0:0:
256,192,49000,1,0,0:0:0:0:
256,192,49145,1,0,0:0:0:0:
256,192,49291,1,8,0:0:0:0:
256,192,49437,1,8,0:0:0:0:
256,192,49582,1,0,0:0:0:0:
256,192,50165,1,4,0:0:0:0:
256,192,50747,1,8,0:0:0:0:
256,192,51039,1,0,0:0:0:0:
256,192,51184,1,8,0:0:0:0:
256,192,51621,1,0,0:0:0:0:
256,192,51912,1,8,0:0:0:0:
256,192,52058,1,0,0:0:0:0:
256,192,52204,1,8,0:0:0:0:
256,192,52495,1,4,0:0:0:0:
256,192,52786,1,8,0:0:0:0:
256,192,53078,1,8,0:0:0:0:
256,192,53369,1,0,0:0:0:0:
256,192,53514,1,8,0:0:0:0:
256,192,53951,1,0,0:0:0:0:
256,192,54243,1,8,0:0:0:0:
256,192,54388,1,0,0:0:0:0:
256,192,54534,1,0,0:0:0:0:
256,192,54825,1,4,0:0:0:0:
256,192,55408,1,8,0:0:0:0:
256,192,55699,1,0,0:0:0:0:
256,192,55844,1,0,0:0:0:0:
256,192,56281,1,8,0:0:0:0:
256,192,56573,1,0,0:0:0:0:
256,192,56864,1,0,0:0:0:0:
256,192,57010,1,8,0:0:0:0:
256,192,57155,1,4,0:0:0:0:
256,192,57446,1,0,0:0:0:0:
256,192,57738,1,8,0:0:0:0:
256,192,58029,1,0,0:0:0:0:
256,192,58175,1,8,0:0:0:0:
256,192,58466,1,0,0:0:0:0:
256,192,58611,1,0,0:0:0:0:
256,192,58903,1,8,0:0:0:0:
256,192,59048,1,8,0:0:0:0:
256,192,59194,1,0,0:0:0:0:
256,192,59485,5,4,0:0:0:0:
256,192,59922,1,8,0:0:0:0:
256,192,60359,1,4,0:0:0:0:
256,192,60942,1,8,0:0:0:0:
256,192,61233,1,8,0:0:0:0:
256,192,61815,1,0,0:0:0:0:
256,192,62107,1,8,0:0:0:0:
256,192,62252,1,8,0:0:0:0:
256,192,62398,1,0,0:0:0:0:
256,192,62689,5,0,0:0:0:0:
256,192,62980,1,8,0:0:0:0:
256,192,63272,1,8,0:0:0:0:
256,192,63417,1,0,0:0:0:0:
256,192,63563,5,0,0:0:0:0:
256,192,64145,5,4,0:0:0:0:
266,263,64437,1,0,0:0:0:0:
225,261,65019,1,8,0:0:0:0:
154,203,65165,1,0,0:0:0:0:
135,206,65456,1,0,0:0:0:0:
267,255,65602,1,8,0:0:0:0:
234,248,65893,1,0,0:0:0:0:
188,249,66184,1,8,0:0:0:0:
188,249,66330,1,8,0:0:0:0:
226,219,66476,1,0,0:0:0:0:
182,237,66767,1,0,0:0:0:0:
334,231,66912,1,8,0:0:0:0:
202,246,67204,1,8,0:0:0:0:
162,240,67495,1,0,0:0:0:0:
252,245,67932,1,8,0:0:0:0:
187,201,68223,1,8,0:0:0:0:
242,248,68514,1,0,0:0:0:0:
218,224,68806,1,8,0:0:0:0:
240,205,69097,1,8,0:0:0:0:
204,201,69679,1,0,0:0:0:0:
260,259,69825,1,8,0:0:0:0:
240,205,70116,1,8,0:0:0:0:
184,205,70262,1,0,0:0:0:0:
437,215,70553,1,8,0:0:0:0:
239,224,70844,1,0,0:0:0:0:
239,224,70990,1,0,0:0:0:0:
438,197,71136,1,8,0:0:0:0:
255,201,71427,1,8,0:0:0:0:
417,226,71573,1,0,0:0:0:0:
257,216,71864,1,0,0:0:0:0:
255,201,72155,1,8,0:0:0:0:
273,238,72592,1,0,0:0:0:0:
281,199,72883,1,8,0:0:0:0:
282,199,73175,1,8,0:0:0:0:
203,219,73466,1,4,0:0:0:0:
259,175,73757,1,8,0:0:0:0:
291,186,74048,1,0,0:0:0:0:
197,189,74194,1,0,0:0:0:0:
293,184,74485,1,8,0:0:0:0:
253,195,74777,1,0,0:0:0:0:
301,149,75068,1,8,0:0:0:0:
298,160,75796,1,0,0:0:0:0:
287,213,76087,1,8,0:0:0:0:
263,226,76378,1,0,0:0:0:0:
263,226,76670,1,0,0:0:0:0:
378,193,76815,1,8,0:0:0:0:
309,173,77107,1,0,0:0:0:0:
255,179,77398,1,8,0:0:0:0:
255,179,77689,1,0,0:0:0:0:
296,163,77835,1,0,0:0:0:0:
248,185,78126,1,8,0:0:0:0:
237,200,78417,1,8,0:0:0:0:
286,237,79000,1,0,0:0:0:0:
281,224,79145,1,8,0:0:0:0:
216,236,79437,1,8,0:0:0:0:
354,193,79582,1,0,0:0:0:0:
285,245,79874,1,8,0:0:0:0:
410,219,80165,1,8,0:0:0:0:
269,209,80456,1,4,0:0:0:0:
245,246,80747,1,0,0:0:0:0:
361,225,80893,1,8,0:0:0:0:
214,201,81184,1,8,0:0:0:0:
354,227,81476,5,0,0:0:0:0:
361,192,81912,5,0,0:0:0:0:
183,223,82204,1,8,0:0:0:0:
183,223,82495,1,8,0:0:0:0:
256,192,82786,5,4,0:0:0:0:
256,192,83369,1,8,0:0:0:0:
256,192,83660,1,0,0:0:0:0:
256,192,83806,1,0,0:0:0:0:
256,192,84243,1,8,0:0:0:0:
256,192,84534,1,0,0:0:0:0:
256,192,84825,1,4,0:0:0:0:
256,192,85261,1,0,0:0:0:0:
256,192,85407,1,8,0:0:0:0:
256,192,85698,1,0,0:0:0:0:
256,192,85844,1,0,0:0:0:0:
256,192,86281,1,8,0:0:0:0:
256,192,86572,1,0,0:0:0:0:
256,192,86718,1,0,0:0:0:0:
256,192,86863,1,8,0:0:0:0:
256,192,87009,1,8,0:0:0:0:
256,192,87155,1,4,0:0:0:0:
256,192,87737,1,0,0:0:0:0:
256,192,88028,1,0,0:0:0:0:
256,192,88174,1,8,0:0:0:0:
256,192,88611,1,8,0:0:0:0:
256,192,88902,1,4,0:0:0:0:
256,192,89193,5,4,0:0:0:0:
256,192,89629,1,0,0:0:0:0:
256,192,89775,1,8,0:0:0:0:
256,192,90066,1,8,0:0:0:0:
256,192,90212,1,8,0:0:0:0:
256,192,90649,1,8,0:0:0:0:
256,192,90940,5,0,0:0:0:0:
256,192,91086,5,0,0:0:0:0:
256,192,91231,1,8,0:0:0:0:
256,192,91377,1,8,0:0:0:0:
333,253,92106,1,0,0:0:0:0:
237,244,92689,1,8,0:0:0:0:
208,281,93125,1,8,0:0:0:0:
260,261,93562,1,0,0:0:0:0:
288,192,93854,1,8,0:0:0:0:
260,261,94436,1,0,0:0:0:0:
273,185,94727,1,0,0:0:0:0:
231,245,95019,1,8,0:0:0:0:
244,234,95456,1,8,0:0:0:0:
244,234,95892,1,8,0:0:0:0:
264,196,96184,1,0,0:0:0:0:
207,288,96621,1,8,0:0:0:0:
207,288,97057,1,0,0:0:0:0:
266,160,97640,1,8,0:0:0:0:
203,235,98514,1,8,0:0:0:0:
284,240,98951,1,0,0:0:0:0:
378,230,99388,1,8,0:0:0:0:
250,236,99970,1,0,0:0:0:0:
228,251,100261,5,8,0:0:0:0:
228,251,100553,1,8,0:0:0:0:
229,228,100844,1,0,0:0:0:0:
238,240,101426,5,8,0:0:0:0:
171,259,101718,1,0,0:0:0:0:
171,259,101863,1,0,0:0:0:0:
198,246,102155,1,0,0:0:0:0:
180,248,102446,1,8,0:0:0:0:
180,248,102883,1,8,0:0:0:0:
304,223,103174,1,0,0:0:0:0:
200,267,103757,1,8,0:0:0:0:
200,267,104048,1,8,0:0:0:0:
195,205,104193,1,0,0:0:0:0:
185,205,104485,1,0,0:0:0:0:
157,181,104776,1,8,0:0:0:0:
178,276,105213,1,8,0:0:0:0:
260,206,105504,1,0,0:0:0:0:
209,216,106087,5,0,0:0:0:0:
188,259,106669,1,8,0:0:0:0:
320,225,107252,1,8,0:0:0:0:
256,192,107835,5,4,0:0:0:0:
256,192,108126,1,12,0:0:0:0:
256,192,108271,1,4,0:0:0:0:
256,192,108708,1,12,0:0:0:0:
256,192,109000,1,12,0:0:0:0:
256,192,109145,1,4,0:0:0:0:
256,192,109582,1,12,0:0:0:0:
256,192,109873,1,4,0:0:0:0:
256,192,110019,1,12,0:0:0:0:
256,192,111330,1,4,0:0:0:0:
256,192,111621,1,8,0:0:0:0:
256,192,111766,1,8,0:0:0:0:
256,192,112203,1,0,0:0:0:0:
256,192,112495,1,8,0:0:0:0:
256,192,112640,1,8,0:0:0:0:
256,192,112786,1,0,0:0:0:0:
256,192,112931,1,0,0:0:0:0:
256,192,113368,1,0,0:0:0:0:
256,192,113660,1,8,0:0:0:0:
256,192,113805,1,0,0:0:0:0:
256,192,113951,1,8,0:0:0:0:
256,192,114096,1,0,0:0:0:0:
256,192,114533,1,0,0:0:0:0:
256,192,114825,1,8,0:0:0:0:
256,192,114970,1,0,0:0:0:0:
256,192,115116,1,0,0:0:0:0:
256,192,115262,1,8,0:0:0:0:
256,192,115990,1,4,0:0:0:0:
256,192,116281,1,8,0:0:0:0:
256,192,116572,1,0,0:0:0:0:
256,192,116863,1,0,0:0:0:0:
256,192,117009,1,8,0:0:0:0:
256,192,117155,1,0,0:0:0:0:
256,192,117446,1,0,0:0:0:0:
256,192,117737,1,0,0:0:0:0:
256,192,117883,1,0,0:0:0:0:
256,192,118029,1,8,0:0:0:0:
256,192,118320,1,0,0:0:0:0:
256,192,118757,1,8,0:0:0:0:
256,192,119048,1,0,0:0:0:0:
256,192,119339,1,8,0:0:0:0:
256,192,119630,1,0,0:0:0:0:
256,192,119776,1,8,0:0:0:0:
256,192,120067,1,0,0:0:0:0:
256,192,120650,1,4,0:0:0:0:
256,192,121087,1,8,0:0:0:0:
256,192,121378,1,0,0:0:0:0:
256,192,121524,1,8,0:0:0:0:
256,192,121815,1,0,0:0:0:0:
256,192,121961,1,0,0:0:0:0:
256,192,122106,1,8,0:0:0:0:
256,192,122252,1,0,0:0:0:0:
256,192,122543,1,0,0:0:0:0:
256,192,122689,1,8,0:0:0:0:
256,192,122980,1,0,0:0:0:0:
256,192,123563,1,0,0:0:0:0:
256,192,123854,1,8,0:0:0:0:
256,192,123999,1,0,0:0:0:0:
256,192,124436,1,0,0:0:0:0:
256,192,124728,1,0,0:0:0:0:
256,192,124873,1,0,0:0:0:0:
256,192,125310,1,8,0:0:0:0:
256,192,125456,1,0,0:0:0:0:
256,192,125601,1,8,0:0:0:0:
256,192,125893,1,8,0:0:0:0:
256,192,126184,1,8,0:0:0:0:
256,192,126330,1,0,0:0:0:0:
256,192,126475,1,8,0:0:0:0:
256,192,126766,1,8,0:0:0:0:
256,192,127058,1,0,0:0:0:0:
256,192,127203,1,0,0:0:0:0:
256,192,127349,1,8,0:0:0:0:
256,192,127640,1,0,0:0:0:0:
256,192,128077,1,8,0:0:0:0:
256,192,128368,1,0,0:0:0:0:
256,192,128514,1,8,0:0:0:0:
256,192,128660,1,0,0:0:0:0:
256,192,128951,1,0,0:0:0:0:
256,192,129096,1,0,0:0:0:0:
256,192,129679,1,0,0:0:0:0:
256,192,129970,1,12,0:0:0:0:
256,192,130262,1,0,0:0:0:0:
256,192,130553,1,8,0:0:0:0:
256,192,130698,1,0,0:0:0:0:
256,192,130844,1,0,0:0:0:0:
256,192,131135,1,0,0:0:0:0:
256,192,131427,1,0,0:0:0:0:
256,192,131718,1,8,0:0:0:0:
256,192,131863,1,8,0:0:0:0:
256,192,132009,1,0,0:0:0:0:
256,192,132300,5,0,0:0:0:0:
256,192,132883,5,8,0:0:0:0:
256,192,133029,1,8,0:0:0:0:
256,192,133174,1,0,0:0:0:0:
256,192,133320,1,0,0:0:0:0:
256,192,133465,5,12,0:0:0:0:
256,192,134630,5,4,0:0:0:0:
