osu file format v14

[General]
AudioFilename: unchainyourlife.mp3
AudioLeadIn: 0
PreviewTime: 57812
Countdown: 0
SampleSet: Soft
StackLeniency: 0.2
Mode: 0
LetterboxInBreaks: 0
WidescreenStoryboard: 0

[Editor]
Bookmarks: 8164,18269,28523,38637,48743,63585,213047
DistanceSpacing: 0.2
BeatDivisor: 4
GridSize: 32
TimelineZoom: 2.6

[Metadata]
Title:MY LIBERATION
TitleUnicode:MY LIBERATION
Artist:nano
ArtistUnicode:ナノ
Creator:Irohas
Version:Reviving
Source:チェインクロニクル~ヘクセイタスの閃~
Tags:mugiwarasekai karia paraiso album chain chronicle hekuseitasu haecceitas no hikari op cut ver
BeatmapID:1200112
BeatmapSetID:566537

[Difficulty]
HPDrainRate:7
CircleSize:4
OverallDifficulty:8
ApproachRate:9.2
SliderMultiplier:1.7
SliderTickRate:1

[Events]
//Background and Video events
0,0,"unbreakdestiny.jpg",0,0
//Break Periods
//Storyboard Layer 0 (Background)
//Storyboard Layer 1 (Fail)
//Storyboard Layer 2 (Pass)
//Storyboard Layer 3 (Foreground)
//Storyboard Sound Samples

[TimingPoints]
734,315.789473684211,4,2,1,30,1,0
734,-142.857142857143,4,2,1,30,0,0
2312,-142.857142857143,4,2,1,30,0,0
2628,-142.857142857143,4,2,1,30,0,0
5312,-200,4,2,1,30,0,0
5786,-100,4,2,1,20,0,0
6418,-100,4,2,1,30,0,0
6734,-100,4,2,1,40,0,0
7049,-100,4,2,1,50,0,0
7365,-100,4,2,1,5,0,0
7681,-166.666666666667,4,2,1,20,0,0
8155,-100,4,2,1,50,0,0
28523,-133.333333333333,4,2,1,30,0,0
36418,-133.333333333333,4,2,1,35,0,0
36734,-133.333333333333,4,2,1,40,0,0
37049,-133.333333333333,4,2,1,45,0,0
37365,-133.333333333333,4,2,1,47,0,0
37681,-133.333333333333,4,2,1,50,0,0
38628,-100,4,2,1,50,0,0
40918,-100,4,2,1,5,0,0
40997,-100,4,2,1,50,0,0
41234,-100,4,2,1,5,0,0
41312,-100,4,2,1,50,0,0
41707,-100,4,2,1,5,0,0
41786,-100,4,2,1,50,0,0
43444,-100,4,2,1,5,0,0
43523,-100,4,2,1,50,0,0
48734,-166.666666666667,4,2,1,30,0,0
53786,-117.647058823529,4,2,1,50,0,0
56312,-111.111111111111,4,2,1,50,0,0
57891,-111.111111111111,4,2,1,30,0,0
58128,-111.111111111111,4,2,1,5,0,0
58207,-111.111111111111,4,2,1,30,0,0
58444,-111.111111111111,4,2,1,5,0,0
58523,-111.111111111111,4,2,1,40,0,0
58681,-100,4,2,1,60,0,1
66497,-100,4,2,1,5,0,1
66576,-100,4,2,1,60,0,1
68155,-100,4,2,1,60,0,0
68391,-100,4,2,1,5,0,0
68470,-100,4,2,1,50,0,0
68707,-100,4,2,1,5,0,0
68786,-100,4,2,1,60,0,1
76602,-100,4,2,1,5,0,1
76681,-100,4,2,1,60,0,1
78497,-100,4,2,1,5,0,1
78576,-100,4,2,1,60,0,1
78812,-100,4,2,1,5,0,1
78891,-111.111111111111,4,2,1,60,0,1
81339,-111.111111111111,4,2,1,5,0,1
81418,-111.111111111111,4,2,1,60,0,1
82760,-100,4,2,1,5,0,0
83944,-100,4,2,1,50,0,0

[Colours]
Combo1 : 255,186,145
Combo2 : 255,249,117
Combo3 : 203,225,162

[HitObjects]
85,144,734,5,2,0:0:0:0:
85,144,1049,6,0,P|89:196|97:282,2,118.999996368408,0|2|0,0:0|0:0|0:0,0:0:0:0:
140,71,1839,1,0,0:0:0:0:
208,130,1997,6,0,P|252:125|289:121,1,59.4999981842042
371,72,2312,2,0,P|365:128|357:210,1,118.999996368408,2|2,0:0|0:0,0:0:0:0:
414,305,2786,1,2,0:0:0:0:
417,322,3102,6,0,P|371:283|305:299,1,118.999996368408,2|0,0:0|0:0,0:0:0:0:
232,322,3576,1,2,0:0:0:0:
232,322,4049,2,0,P|188:328|150:335,2,59.4999981842042,0|2|0,0:0|0:0|0:0,0:0:0:0:
292,239,4523,6,0,P|313:181|279:126,1,118.999996368408,0|2,0:0|0:0,0:0:0:0:
90,179,4997,1,2,0:0:0:0:
90,179,5312,6,0,P|153:185|227:194,1,127.5,2|0,0:0|0:0,0:0:0:0:
256,192,5865,12,0,7365,0:0:0:0:
72,162,7681,5,4,0:3:0:0:
72,166,7839,1,4,0:3:0:0:
72,170,7997,1,4,0:3:0:0:
71,174,8155,6,0,P|140:184|205:107,1,170,4|6,0:0|0:3,0:0:0:0:
351,227,8628,2,0,P|303:222|262:218,1,85,10|2,0:0|0:0,0:0:0:0:
365,140,8944,1,4,0:3:0:0:
296,310,9102,1,6,0:3:0:0:
458,186,9260,2,0,P|453:130|449:85,1,85,10|6,0:0|0:3,0:0:0:0:
266,218,9576,5,2,0:3:0:0:
456,350,9734,2,0,P|408:345|367:341,1,85,6|10,0:3|0:0,0:0:0:0:
185,185,10049,1,4,0:3:0:0:
296,310,10207,1,6,0:3:0:0:
288,135,10365,1,6,0:3:0:0:
186,298,10523,1,10,0:0:0:0:
411,279,10681,6,0,P|364:220|259:235,1,170,4|4,0:3|0:3,0:0:0:0:
370,363,11155,2,0,P|420:357|469:352,1,85,10|2,0:0|0:0,0:0:0:0:
359,166,11470,1,6,0:3:0:0:
401,274,11628,1,6,0:3:0:0:
243,362,11786,2,0,P|248:306|253:261,1,85,10|6,0:0|0:3,0:0:0:0:
368,111,12102,5,2,0:3:0:0:
401,274,12260,1,6,0:3:0:0:
273,156,12418,1,8,0:0:0:0:
444,185,12576,1,6,0:3:0:0:
322,324,12734,6,0,P|274:319|223:313,1,85,2|2,0:1|0:1,0:0:0:0:
45,204,13049,1,8,0:0:0:0:
148,371,13207,6,0,P|142:313|130:194,1,170,4|6,0:0|0:3,0:0:0:0:
277,71,13681,2,0,P|272:115|268:155,1,85,10|2,0:0|0:0,0:0:0:0:
364,335,13997,1,4,0:3:0:0:
422,187,14155,1,6,0:3:0:0:
364,335,14312,2,0,P|357:293|349:251,1,85,10|6,0:0|0:3,0:0:0:0:
268,155,14628,5,4,0:3:0:0:
132,329,14786,2,0,P|199:344|271:273,1,170,6|4,0:3|0:3,0:0:0:0:
195,111,15260,1,6,0:3:0:0:
181,239,15418,1,6,0:3:0:0:
286,61,15576,1,8,0:0:0:0:
100,129,15734,6,0,P|143:134|184:139,1,85,6|2,0:3|0:0,0:0:0:0:
361,201,16049,1,6,0:3:0:0:
286,61,16207,1,8,0:0:0:0:
361,201,16365,2,0,P|367:159|376:116,1,85,2|6,0:3|0:3,0:0:0:0:
468,296,16681,1,6,0:3:0:0:
311,313,16839,1,10,0:0:0:0:
458,204,16997,1,2,0:0:0:0:
395,370,17155,5,6,0:3:0:0:
281,168,17312,1,6,0:3:0:0:
387,252,17470,1,8,0:0:0:0:
213,354,17628,5,10,0:3:0:0:
213,354,17707,1,8,0:0:0:0:
213,354,17786,1,8,0:0:0:0:
79,246,17944,1,8,0:0:0:0:
79,246,18023,1,8,0:0:0:0:
79,246,18102,1,8,0:0:0:0:
79,246,18181,1,8,0:0:0:0:
79,246,18260,6,0,P|164:250|258:255,1,170,4|6,0:0|0:3,0:0:0:0:
341,133,18734,2,0,P|298:138|257:143,1,85,10|2,0:0|0:0,0:0:0:0:
440,24,19049,1,4,0:3:0:0:
490,161,19207,1,6,0:3:0:0:
440,24,19365,2,0,P|432:65|426:107,1,85,10|6,0:0|0:3,0:0:0:0:
295,53,19681,5,2,0:0:0:0:
433,230,19839,2,0,P|390:224|348:219,1,85,6|10,0:3|0:0,0:0:0:0:
140,69,20155,1,4,0:3:0:0:
220,201,20312,1,6,0:3:0:0:
220,13,20470,1,6,0:3:0:0:
111,163,20628,1,10,0:0:0:0:
387,100,20786,6,0,P|302:104|207:110,1,170,4|4,0:3|0:3,0:0:0:0:
87,7,21260,2,0,P|94:48|100:90,1,85,10|2,0:0|0:3,0:0:0:0:
200,290,21576,1,6,0:3:0:0:
220,199,21734,1,6,0:3:0:0:
40,173,21891,2,0,P|47:214|53:256,1,85,10|6,0:0|0:3,0:0:0:0:
287,278,22207,5,2,0:3:0:0:
127,244,22365,1,6,0:3:0:0:
188,367,22523,1,8,0:0:0:0:
220,199,22681,1,6,0:3:0:0:
25,334,22839,6,0,P|67:328|109:323,1,85,2|2,0:1|0:1,0:0:0:0:
220,199,23155,1,8,0:0:0:0:
295,379,23312,6,0,P|301:321|314:201,1,170,4|6,0:0|0:3,0:0:0:0:
484,314,23786,2,0,P|432:320|386:326,1,85,10|2,0:0|0:0,0:0:0:0:
220,199,24102,1,4,0:3:0:0:
155,340,24260,1,6,0:3:0:0:
220,199,24418,2,0,P|227:240|233:282,1,85,10|6,0:0|0:3,0:0:0:0:
316,111,24734,5,2,0:0:0:0:
464,241,24891,2,0,B|407:254|369:214|369:214|333:192|293:201,1,170,6|4,0:3|0:3,0:0:0:0:
207,18,25365,1,6,0:3:0:0:
316,111,25523,1,6,0:3:0:0:
144,190,25681,1,8,0:0:0:0:
316,111,25839,6,0,P|273:105|231:101,1,85,6|2,0:3|0:0,0:0:0:0:
144,190,26155,1,6,0:3:0:0:
70,44,26312,2,0,P|62:85|56:127,1,85,8|2,0:0|0:3,0:0:0:0:
122,309,26628,1,6,0:3:0:0:
122,309,26786,1,2,0:0:0:0:
11,232,26944,1,8,0:0:0:0:
163,171,27102,1,6,0:3:0:0:
130,331,27260,5,6,0:3:0:0:
65,142,27418,1,2,0:0:0:0:
130,331,27576,5,10,0:0:0:0:
249,185,27734,1,2,0:0:0:0:
91,235,27891,1,8,0:0:0:0:
228,356,28049,1,4,0:3:0:0:
234,360,28128,1,4,0:3:0:0:
240,364,28207,5,4,0:3:0:0:
278,377,28285,1,4,0:3:0:0:
320,368,28364,1,4,0:3:0:0:
353,343,28443,1,4,0:3:0:0:
364,305,28523,6,0,P|358:234|350:156,1,127.500004863739,4|2,0:0|0:0,0:0:0:0:
389,102,28997,1,0,0:0:0:0:
320,48,29155,2,0,P|290:36|245:41,1,63.7500024318696
192,95,29470,2,0,P|152:92|112:90,1,63.7500024318696,2|0,0:0|0:0,0:0:0:0:
32,210,29786,6,0,P|91:219|146:170,2,127.500004863739,2|2|2,0:1|0:0|0:1,0:0:0:0:
202,276,30576,2,0,P|233:272|265:269,1,63.7500024318696,8|2,0:3|0:0,0:0:0:0:
141,179,30891,2,0,P|172:175|204:172,1,63.7500024318696,8|0,0:3|0:0,0:0:0:0:
107,94,31207,5,8,0:3:0:0:
204,7,31365,2,0,P|200:45|196:85,1,63.7500024318696,2|0,0:0|0:0,0:0:0:0:
313,190,31681,2,0,P|310:129|306:63,1,127.500004863739,0|2,0:0|0:0,0:0:0:0:
210,140,32155,1,0,0:0:0:0:
272,280,32312,6,0,B|321:285|321:285|360:274|360:274|418:280,2,127.500004863739,2|2|2,0:1|0:0|0:1,0:0:0:0:
141,124,33102,2,0,P|183:129|215:140,1,63.7500024318696,8|2,0:3|0:0,0:0:0:0:
77,228,33418,2,0,P|117:214|150:213,1,63.7500024318696,8|0,0:3|0:0,0:0:0:0:
16,318,33734,5,8,0:3:0:0:
127,368,33891,2,0,P|123:336|120:304,1,63.7500024318696,2|0,0:0|0:0,0:0:0:0:
210,181,34207,2,0,P|242:154|335:163,1,127.500004863739,0|2,0:0|0:0,0:0:0:0:
404,216,34681,1,0,0:0:0:0:
296,353,34839,6,0,B|279:318|279:318|281:259|285:208,2,127.500004863739,2|2|2,0:1|0:0|0:1,0:0:0:0:
438,291,35628,2,0,P|406:287|374:284,1,63.7500024318696,8|0,0:3|0:0,0:0:0:0:
484,202,35944,2,0,P|452:198|420:195,1,63.7500024318696,2|0,0:1|0:0,0:0:0:0:
512,106,36260,5,8,0:3:0:0:
398,37,36418,2,0,P|402:75|406:115,1,63.7500024318696,2|0,0:0|0:0,0:0:0:0:
307,208,36734,2,0,P|310:176|313:144,1,63.7500024318696
271,51,37049,2,0,P|242:36|211:33,1,63.7500024318696,2|0,0:0|0:0,0:0:0:0:
79,132,37365,6,0,P|117:125|155:119,1,63.7500024318696,2|0,0:0|0:0,0:0:0:0:
307,208,37681,2,0,P|269:201|231:195,1,63.7500024318696,2|0,0:0|0:0,0:0:0:0:
99,301,37997,5,2,0:1:0:0:
99,305,38312,1,2,0:1:0:0:
99,310,38628,6,0,P|165:331|242:267,1,170,4|8,0:0|0:0,0:0:0:0:
386,362,39102,2,0,P|338:357|297:353,1,85,2|4,0:3|0:3,0:0:0:0:
161,248,39418,1,10,0:0:0:0:
256,132,39576,2,0,P|261:180|265:220,1,85,6|4,0:3|0:3,0:0:0:0:
203,56,39891,5,2,0:3:0:0:
351,146,40049,1,4,0:3:0:0:
161,248,40207,2,0,P|113:243|72:239,1,85,10|0,0:0|0:0,0:0:0:0:
177,148,40523,1,6,0:3:0:0:
256,323,40681,2,0,P|322:344|390:301,1,127.5,8|0,0:0|0:0,0:0:0:0:
428,266,40997,6,0,P|423:223|411:134,1,127.5,4|4,0:0|0:3,0:0:0:0:
362,69,41312,2,4,P|339:60|307:61,1,42.5,6|6,0:3|0:3,0:3:0:0:
201,179,41470,2,0,P|264:192|324:123,1,127.5,10|0,0:0|0:0,0:0:0:0:
362,69,41786,1,6,0:3:0:0:
319,256,41944,1,8,0:0:0:0:
244,101,42102,1,6,0:3:0:0:
413,167,42260,1,6,0:3:0:0:
244,101,42418,6,0,P|201:105|159:109,1,85,2|4,0:3|0:3,0:0:0:0:
19,202,42734,2,0,P|61:206|103:210,1,85,10|0,0:0|0:0,0:0:0:0:
285,291,43049,1,6,0:3:0:0:
244,101,43207,2,0,P|234:163|225:227,1,127.5,10|0,0:0|0:0,0:0:0:0:
155,328,43523,6,0,P|175:287|286:292,1,170,4|4,0:0|0:3,0:0:0:0:
392,367,43997,2,0,P|396:324|401:283,1,85,10|0,0:0|0:3,0:0:0:0:
357,97,44312,1,6,0:3:0:0:
512,185,44470,2,0,P|469:189|427:193,1,85,10|0,0:0|0:0,0:0:0:0:
250,156,44786,1,6,0:3:0:0:
347,12,44944,6,0,P|351:54|356:96,1,85,10|6,0:0|0:3,0:0:0:0:
240,240,45260,2,0,P|244:197|249:155,1,85,10|0,0:0|0:3,0:0:0:0:
353,314,45576,1,4,0:3:0:0:
222,356,45734,1,10,0:0:0:0:
337,214,45891,1,4,0:3:0:0:
222,356,46049,6,0,B|153:361|153:361|116:340|116:340|54:342,1,170,4|4,0:0|0:3,0:0:0:0:
0,208,46523,2,0,P|43:212|85:216,1,85,8|0,0:0|0:0,0:0:0:0:
196,80,46839,2,0,P|153:84|111:88,1,85,4|8,0:3|0:0,0:0:0:0:
271,196,47155,1,6,0:3:0:0:
343,52,47312,1,4,0:3:0:0:
271,196,47470,6,0,P|275:153|280:111,1,85,10|4,0:0|0:3,0:0:0:0:
434,256,47786,2,0,P|430:213|425:171,1,85,8|0,0:0|0:0,0:0:0:0:
383,101,48023,1,4,0:3:0:0:
387,81,48102,1,8,0:0:0:0:
302,271,48260,5,8,0:0:0:0:
260,279,48338,1,8,0:0:0:0:
221,264,48417,1,8,0:0:0:0:
191,234,48496,1,8,0:0:0:0:
154,214,48575,1,8,0:0:0:0:
113,219,48654,1,8,0:0:0:0:
87,244,48734,6,0,P|92:288|103:366,1,101.999996887207,4|2,0:0|0:0,0:0:0:0:
225,213,49207,1,2,0:0:0:0:
225,213,49681,2,0,P|222:250|220:284,2,50.9999984436036,2|2|0,0:3|0:0|0:0,0:0:0:0:
180,128,50155,5,2,0:0:0:0:
180,128,50470,1,0,0:0:0:0:
336,70,50628,2,0,P|330:109|321:184,1,101.999996887207,4|8,0:3|0:3,0:0:0:0:
436,12,51260,6,0,P|441:62|447:113,1,101.999996887207,8|2,0:3|0:3,0:0:0:0:
382,249,51734,1,2,0:0:0:0:
382,249,52207,2,0,P|414:245|448:242,2,50.9999984436036,2|2|0,0:0|0:0|0:0,0:0:0:0:
303,315,52681,5,2,0:0:0:0:
303,315,52997,2,0,P|305:333|310:354,2,25.4999992218018,2|2|2,0:0|0:0|0:0,0:0:0:0:
186,339,53312,2,0,P|184:357|179:378,2,25.4999992218018,2|2|2,0:0|0:0|0:0,0:0:0:0:
186,339,53786,6,0,P|155:334|102:326,1,72.2500013780594,4|0,0:3|0:0,0:0:0:0:
306,239,54102,2,0,P|295:289|287:332,1,72.2500013780594,4|0,0:3|0:0,0:0:0:0:
166,157,54418,2,0,P|177:207|185:250,1,72.2500013780594,4|0,0:3|0:0,0:0:0:0:
384,154,54734,2,0,P|348:148|312:142,1,72.2500013780594,8|0,0:3|0:0,0:0:0:0:
174,41,55049,6,0,P|209:46|245:52,1,72.2500013780594,4|0,0:3|0:0,0:0:0:0:
65,98,55365,2,0,P|72:62|80:27,1,72.2500013780594,4|0,0:3|0:0,0:0:0:0:
110,185,55681,2,0,P|71:190|38:195,1,72.2500013780594,4|0,0:3|0:0,0:0:0:0:
172,61,55997,2,0,P|207:66|250:74,1,72.2500013780594,8|0,0:3|0:0,0:0:0:0:
238,265,56312,5,6,0:0:0:0:
197,165,56470,1,0,0:0:0:0:
161,347,56628,5,8,0:0:0:0:
308,191,56786,1,0,0:0:0:0:
123,231,56944,5,8,0:0:0:0:
323,324,57102,1,8,0:0:0:0:
85,308,57260,1,8,0:0:0:0:
372,248,57418,1,8,0:0:0:0:
370,269,57891,6,0,P|374:211|383:135,1,114.749996498108
351,106,58207,6,0,P|357:163|361:220,1,114.749996498108
370,269,58523,6,4,P|374:229|378:204,1,38.2499988327027,2|2,0:0|0:0,0:3:0:0:
432,82,58681,6,0,P|392:32|281:52,1,170,4|2,0:0|0:0,0:0:0:0:
428,176,59155,2,0,P|476:170|517:167,1,85,8|2,0:0|0:0,0:0:0:0:
321,255,59470,1,6,0:3:0:0:
351,106,59628,1,0,0:3:0:0:
321,255,59786,2,0,P|271:248|232:243,1,85,10|2,0:0|0:0,0:0:0:0:
71,338,60102,6,0,P|13:301|32:202,1,170,6|8,0:3|0:0,0:0:0:0:
167,321,60576,2,0,P|217:314|256:309,1,85,6|0,0:3|0:0,0:0:0:0:
179,131,60891,1,6,0:3:0:0:
91,259,61049,1,8,0:0:0:0:
179,131,61207,6,0,P|188:183|195:236,1,85,6|4,0:3|0:3,0:0:0:0:
324,56,61523,2,0,P|315:108|308:161,1,85,2|10,0:3|0:0,0:0:0:0:
328,293,61839,1,2,0:0:0:0:
481,215,61997,2,0,P|438:220|396:226,1,85,6|0,0:3|0:0,0:0:0:0:
189,367,62312,1,10,0:0:0:0:
191,205,62470,1,2,0:3:0:0:
328,293,62628,5,6,0:3:0:0:
166,196,62786,1,4,0:3:0:0:
295,379,62944,1,8,0:0:0:0:
284,184,63102,1,6,0:3:0:0:
131,298,63260,2,0,P|176:288|217:282,1,85,4|2,0:3|0:0,0:0:0:0:
373,183,63576,2,0,P|331:173|289:167,1,85,8|2,0:0|0:0,0:0:0:0:
54,151,63891,6,0,P|128:165|188:84,1,170,4|8,0:3|0:0,0:0:0:0:
144,11,64365,1,2,0:0:0:0:
271,121,64523,2,0,P|313:117|361:112,1,85,6|0,0:3|0:0,0:0:0:0:
469,241,64839,2,0,P|427:237|379:232,1,85,8|0,0:0|0:0,0:0:0:0:
208,204,65155,5,6,0:3:0:0:
273,346,65312,1,6,0:3:0:0:
277,353,65391,1,4,0:3:0:0:
282,359,65470,2,0,P|287:304|294:257,1,85,8|2,0:0|0:0,0:0:0:0:
203,100,65786,1,6,0:3:0:0:
392,152,65944,2,0,P|349:156|307:160,1,85,2|8,0:3|0:0,0:0:0:0:
139,300,66260,6,0,P|74:309|26:262,1,127.5,6|0,0:3|0:0,0:0:0:0:
42,188,66576,2,4,P|66:172|90:165,1,42.5,6|4,0:3|0:3,0:3:0:0:
223,291,66734,2,0,P|180:295|138:299,1,85,10|6,0:0|0:3,0:0:0:0:
370,214,67049,1,6,0:3:0:0:
297,366,67207,1,4,0:3:0:0:
269,193,67365,5,10,0:0:0:0:
392,323,67523,1,6,0:3:0:0:
421,129,67681,5,14,0:0:0:0:
314,283,67839,1,8,0:0:0:0:
314,283,67918,1,8,0:0:0:0:
314,283,67997,1,8,0:0:0:0:
496,227,68155,6,0,P|444:221|358:213,1,127.5,6|0,0:3|0:0,0:0:0:0:
269,193,68470,6,0,P|338:189|327:124,1,127.5,6|0,0:3|0:0,0:0:0:0:
190,39,68786,6,0,B|179:103|179:103|189:144|189:144|180:224,1,170,4|6,0:0|0:3,0:0:0:0:
69,270,69260,2,0,P|64:226|60:182,1,85,8|2,0:0|0:0,0:0:0:0:
186,303,69576,1,6,0:3:0:0:
59,378,69734,1,0,0:3:0:0:
186,303,69891,2,0,P|231:299|275:294,1,85,10|2,0:0|0:0,0:0:0:0:
389,122,70207,6,0,P|380:178|361:299,1,170,6|8,0:3|0:0,0:0:0:0:
488,356,70681,2,0,P|483:312|476:262,1,85,6|4,0:3|0:3,0:0:0:0:
280,167,70997,1,6,0:3:0:0:
389,122,71155,1,8,0:0:0:0:
292,280,71312,6,0,P|247:275|203:271,1,85,6|6,0:3|0:3,0:0:0:0:
63,173,71628,2,0,P|108:168|147:164,1,85,2|8,0:3|0:0,0:0:0:0:
278,88,71944,1,2,0:0:0:0:
292,280,72102,2,0,P|297:236|304:186,1,85,6|6,0:3|0:3,0:0:0:0:
136,51,72418,1,10,0:0:0:0:
148,164,72576,1,2,0:3:0:0:
230,15,72734,5,6,0:3:0:0:
71,117,72891,1,0,0:3:0:0:
243,7,73049,1,8,0:0:0:0:
232,196,73207,1,2,0:0:0:0:
71,117,73365,2,0,P|113:112|155:108,1,85,4|6,0:3|0:3,0:0:0:0:
316,204,73681,2,0,P|273:199|231:195,1,85,10|6,0:0|0:3,0:0:0:0:
54,323,73997,6,0,P|94:273|205:293,1,170,4|10,0:3|0:0,0:0:0:0:
355,365,74470,1,6,0:3:0:0:
316,204,74628,2,0,P|310:246|305:288,1,85,6|4,0:3|0:3,0:0:0:0:
433,128,74944,2,0,P|438:170|443:212,1,85,8|2,0:0|0:3,0:0:0:0:
329,86,75260,6,0,P|289:36|178:56,1,170,4|8,0:3|0:0,0:0:0:0:
316,204,75734,1,2,0:0:0:0:
161,142,75891,2,0,P|204:137|246:133,1,85,6|6,0:3|0:3,0:0:0:0:
190,43,76207,1,8,0:0:0:0:
132,234,76365,6,4,P|60:250|13:205,1,127.5,6|4,0:3|0:0,0:0:0:0:
88,104,76681,2,4,P|79:147|79:163,1,42.5,6|6,0:3|0:3,0:3:0:0:
142,318,76839,2,0,P|137:275|131:233,1,85,10|4,0:0|0:3,0:0:0:0:
290,131,77155,1,6,0:3:0:0:
272,273,77312,1,6,0:3:0:0:
161,141,77470,1,10,0:0:0:0:
351,218,77628,1,2,0:0:0:0:
209,368,77786,5,10,0:0:0:0:
235,192,77944,1,8,0:0:0:0:
235,192,78023,1,8,0:0:0:0:
235,192,78102,1,8,0:0:0:0:
402,291,78260,6,0,P|342:309|287:280,1,127.5,10|0,0:3|0:0,0:0:0:0:
416,304,78576,6,0,P|369:346|307:342,1,127.5,10|0,0:3|0:0,0:0:0:0:
430,319,78891,6,0,P|435:235|441:158,1,152.999995330811,4|0,0:0|0:0,0:0:0:0:
269,84,79365,2,0,P|275:158|340:129,2,152.999995330811,6|8|6,0:3|0:0|0:3,0:0:0:0:
361,40,80155,1,2,0:0:0:0:
361,40,80312,6,2,P|407:45|450:50,1,76.4999976654053,2|6,0:3|0:3,0:3:0:0:
512,151,80628,2,4,P|477:155|439:160,1,76.4999976654053,6|0,0:3|0:3,0:3:0:0:
279,297,80944,5,10,0:0:0:0:
353,129,81102,2,0,P|349:174|345:250,1,114.749996498108,6|0,0:3|0:0,0:0:0:0:
394,349,81418,6,0,P|370:302|262:313,1,152.999995330811,6|4,0:3|0:3,0:0:0:0:
172,376,81891,1,8,0:0:0:0:
190,278,82049,1,4,0:3:0:0:
37,321,82207,5,8,0:0:0:0:
18,218,82365,1,4,0:3:0:0:
190,278,82523,5,8,0:0:0:0:
8,210,82681,2,0,P|38:205|64:203,1,38.2499988327027,8|0,0:0|0:0,0:0:0:0:
163,121,83944,6,0,P|214:57|295:62,1,170,4|6,0:0|0:3,0:0:0:0:
182,222,84418,2,0,P|139:217|97:213,1,85,10|2,0:0|0:0,0:0:0:0:
281,294,84734,1,4,0:3:0:0:
251,130,84892,1,6,0:3:0:0:
281,294,85049,2,0,P|331:287|370:282,1,85,10|6,0:0|0:3,0:0:0:0:
473,185,85365,5,2,0:0:0:0:
391,43,85523,2,0,P|396:84|401:127,1,85,6|8,0:3|0:0,0:0:0:0:
186,54,85839,1,2,0:3:0:0:
265,196,85997,1,6,0:3:0:0:
289,35,86155,1,2,0:0:0:0:
168,156,86312,1,10,0:0:0:0:
345,241,86470,6,0,P|279:289|201:262,1,170,4|6,0:0|0:3,0:0:0:0:
68,339,86944,2,0,P|110:343|152:347,1,85,10|2,0:0|0:0,0:0:0:0:
265,196,87260,1,6,0:3:0:0:
157,152,87418,1,2,0:3:0:0:
269,292,87576,2,0,P|311:287|353:283,1,85,10|2,0:0|0:0,0:0:0:0:
472,148,87891,6,0,P|462:222|450:332,1,170,6|8,0:3|0:0,0:0:0:0:
265,187,88365,1,8,0:3:0:0:
267,178,88444,1,4,0:3:0:0:
270,170,88523,1,8,0:3:0:0:
359,244,88681,5,4,0:3:0:0:
216,303,88839,1,4,0:3:0:0:
336,384,88997,1,4,0:3:0:0:
