osu file format v14

[General]
AudioFilename: unchainyourlife.mp3
AudioLeadIn: 0
PreviewTime: 57812
Countdown: 0
SampleSet: Soft
StackLeniency: 0.5
Mode: 0
LetterboxInBreaks: 0
WidescreenStoryboard: 0

[Editor]
DistanceSpacing: 0.7
BeatDivisor: 4
GridSize: 32
TimelineZoom: 2.6

[Metadata]
Title:MY LIBERATION
TitleUnicode:MY LIBERATION
Artist:nano
ArtistUnicode:ナノ
Creator:Irohas
Version:Karia's Insane
Source:チェインクロニクル~ヘクセイタスの閃~
Tags:mugiwarasekai karia paraiso album chain chronicle hekuseitasu haecceitas no hikari op cut ver
BeatmapID:1204670
BeatmapSetID:566537

[Difficulty]
HPDrainRate:6
CircleSize:4
OverallDifficulty:7
ApproachRate:9
SliderMultiplier:1.68
SliderTickRate:1

[Events]
//Background and Video events
0,0,"unbreakdestiny.jpg",0,0
//Break Periods
//Storyboard Layer 0 (Background)
//Storyboard Layer 1 (Fail)
//Storyboard Layer 2 (Pass)
//Storyboard Layer 3 (Foreground)
//Storyboard Sound Samples

[TimingPoints]
734,315.789473684211,4,2,1,30,1,0
734,-166.666666666667,4,2,1,30,0,0
2312,-142.857142857143,4,2,1,30,0,0
2549,-142.857142857143,4,2,1,5,0,0
2628,-142.857142857143,4,2,1,30,0,0
5234,-142.857142857143,4,2,1,5,0,0
5312,-200,4,2,1,30,0,0
5786,-100,4,2,1,20,0,0
6418,-100,4,2,1,30,0,0
6734,-100,4,2,1,40,0,0
7049,-100,4,2,1,50,0,0
7365,-100,4,2,1,60,0,0
7681,-100,4,2,1,30,0,0
8155,-100,4,2,1,60,0,1
8234,-100,4,2,1,60,0,0
18260,-100,4,2,1,60,0,1
18339,-100,4,2,1,60,0,0
28523,-133.333333333333,4,2,1,40,0,0
36734,-125,4,2,1,45,0,0
37049,-117.647058823529,4,2,1,50,0,0
37365,-111.111111111111,4,2,1,55,0,0
37681,-105.263157894737,4,2,1,60,0,0
37997,-105.263157894737,4,2,1,45,0,0
38628,-100,4,2,1,60,0,0
48734,-142.857142857143,4,2,1,40,0,0
53786,-117.647058823529,4,2,1,50,0,0
55049,-105.263157894737,4,2,1,50,0,0
56312,-100,4,2,1,55,0,0
56944,-100,4,2,1,60,0,0
58681,-100,4,2,1,70,0,1
58918,-100,4,2,1,5,0,1
58997,-100,4,2,1,70,0,1
64128,-100,4,2,1,5,0,1
64207,-100,4,2,1,70,0,1
68155,-100,4,2,1,60,0,0
68312,-100,4,2,1,5,0,0
68470,-100,4,2,1,60,0,0
68628,-100,4,2,1,5,0,0
68786,-100,4,2,1,70,0,1
69023,-100,4,2,1,5,0,1
69102,-100,4,2,1,70,0,1
74234,-100,4,2,1,5,0,1
74312,-100,4,2,1,70,0,1
78418,-100,4,2,1,5,0,1
78576,-100,4,2,1,70,0,1
78734,-100,4,2,1,5,0,1
78891,-117.647058823529,4,2,1,60,0,1
82839,-117.647058823529,4,2,1,50,0,0
83944,-100,4,2,1,60,0,1
84023,-100,4,2,1,60,0,0

[Colours]
Combo1 : 255,186,145
Combo2 : 255,249,117
Combo3 : 203,225,162

[HitObjects]
60,171,734,5,2,0:0:0:0:
70,159,1049,6,0,P|66:111|62:54,2,100.799996923828
143,214,1839,1,0,0:0:0:0:
212,154,1997,6,0,P|256:149|333:138,2,100.799996923828
377,182,2786,1,2,0:0:0:0:
393,177,3102,6,0,B|443:100|397:26|397:26|354:55|381:111,1,235.199992822266,2|0,0:0|0:0,0:0:0:0:
373,90,4049,2,0,P|336:82|301:80,2,58.7999982055665
275,187,4523,6,0,P|334:181|392:177,1,117.599996411133
433,326,4997,2,0,P|451:287|439:246,1,88.1999973083497
439,246,5312,6,0,P|376:252|313:259,1,126
256,192,5865,12,0,7681,0:0:0:0:
488,253,8155,6,0,P|435:202|333:254,1,168,4|4,0:0|0:3,0:0:0:0:
239,325,8628,1,8,0:0:0:0:
267,169,8786,2,0,L|278:260,1,84,2|4,0:0|0:3,0:0:0:0:
277,252,9102,1,4,0:3:0:0:
311,101,9260,2,0,P|271:86|217:104,1,84,10|4,0:0|0:3,0:0:0:0:
385,163,9576,5,0,0:0:0:0:
394,79,9734,2,0,P|389:121|385:163,1,84,2|8,0:0|0:0,0:0:0:0:
277,252,10049,1,4,0:3:0:0:
172,155,10207,2,0,P|124:144|93:158,1,84,4|4,0:3|0:3,0:0:0:0:
231,94,10523,1,8,0:0:0:0:
48,63,10681,6,0,P|55:150|63:258,1,168,4|4,0:3|0:3,0:0:0:0:
211,289,11155,2,0,P|168:294|125:300,1,84,8|0,0:0|0:0,0:0:0:0:
298,329,11470,1,4,0:3:0:0:
179,217,11628,1,4,0:3:0:0:
348,169,11786,2,0,P|342:224|338:270,1,84,8|4,0:0|0:3,0:0:0:0:
241,93,12102,6,0,P|245:134|249:176,1,84,4|4,0:3|0:3,0:0:0:0:
407,116,12418,1,8,0:0:0:0:
249,176,12576,1,4,0:3:0:0:
419,231,12734,5,2,0:1:0:0:
419,231,12891,2,0,L|410:322,1,84,2|8,0:1|0:0,0:0:0:0:
203,356,13207,6,0,B|253:361|279:328|279:328|298:364|360:368,1,168,4|4,0:0|0:3,0:0:0:0:
217,275,13681,2,0,P|199:238|210:187,1,84,10|0,0:0|0:0,0:0:0:0:
347,285,13997,1,4,0:3:0:0:
374,153,14155,1,4,0:3:0:0:
502,242,14312,2,0,P|460:235|419:231,1,84,10|4,0:0|0:3,0:0:0:0:
266,182,14628,5,4,0:3:0:0:
419,231,14786,2,0,P|377:235|319:240,1,84,2|8,0:0|0:0,0:0:0:0:
223,353,15102,1,4,0:3:0:0:
266,182,15260,1,4,0:3:0:0:
223,353,15418,2,0,B|205:313|205:313|218:268,1,84,2|8,0:0|0:0,0:0:0:0:
97,121,15734,6,0,P|103:187|113:311,1,168,4|4,0:3|0:3,0:0:0:0:
183,140,16207,2,0,P|220:120|265:129,1,84,8|0,0:0|0:0,0:0:0:0:
357,262,16523,1,4,0:3:0:0:
234,195,16681,1,4,0:3:0:0:
400,126,16839,1,8,0:0:0:0:
313,195,16997,1,0,0:0:0:0:
493,191,17155,6,0,L|403:204,1,84,4|4,0:3|0:3,0:0:0:0:
312,56,17470,2,0,L|319:139,1,84,8|8,0:0|0:0,0:0:0:0:
319,139,17707,1,8,0:0:0:0:
319,139,17786,1,8,0:0:0:0:
147,237,17944,1,8,0:0:0:0:
147,237,18023,1,8,0:0:0:0:
147,237,18102,1,8,0:0:0:0:
147,237,18181,1,8,0:0:0:0:
147,237,18260,6,0,B|186:268|186:268|312:244,1,168,4|4,0:0|0:3,0:0:0:0:
434,332,18734,1,8,0:0:0:0:
396,177,18892,2,0,L|386:261,1,84,2|4,0:0|0:3,0:0:0:0:
386,261,19208,1,4,0:3:0:0:
242,174,19366,2,0,P|280:156|338:173,1,84,10|4,0:0|0:3,0:0:0:0:
167,230,19682,5,0,0:0:0:0:
155,146,19840,2,0,L|161:188|167:230,1,84,2|8,0:0|0:0,0:0:0:0:
320,161,20155,1,4,0:3:0:0:
260,326,20313,2,0,P|263:286|270:216,1,84,4|4,0:3|0:3,0:0:0:0:
170,359,20629,1,8,0:0:0:0:
349,367,20786,6,0,L|265:360|181:353,1,168,4|4,0:3|0:3,0:0:0:0:
28,311,21260,2,0,P|64:294|112:300,1,84,8|0,0:0|0:0,0:0:0:0:
226,194,21575,1,4,0:3:0:0:
181,353,21733,1,4,0:3:0:0:
226,194,21891,2,0,P|231:247|236:295,1,84,8|4,0:0|0:3,0:0:0:0:
128,131,22207,6,0,P|123:175|119:219,1,84,4|4,0:3|0:3,0:0:0:0:
66,52,22523,1,8,0:0:0:0:
208,108,22681,1,4,0:3:0:0:
36,159,22839,5,2,0:1:0:0:
36,159,22997,2,0,L|45:249,1,84,2|8,0:1|0:0,0:0:0:0:
211,341,23312,6,0,P|149:292|77:325,1,168,4|4,0:0|0:3,0:0:0:0:
246,248,23786,2,0,P|283:229|328:237,1,84,10|0,0:0|0:0,0:0:0:0:
421,363,24102,1,4,0:3:0:0:
297,304,24260,1,4,0:3:0:0:
427,199,24418,2,0,P|421:241|416:283,1,84,10|4,0:0|0:3,0:0:0:0:
246,248,24733,5,4,0:3:0:0:
416,283,24891,2,0,L|374:288|332:293,1,84,2|8,0:0|0:0,0:0:0:0:
208,180,25207,1,4,0:3:0:0:
258,349,25365,1,4,0:3:0:0:
208,180,25523,2,0,B|192:220|192:220|206:266,1,84,2|8,0:0|0:0,0:0:0:0:
47,328,25839,6,0,P|92:330|134:334,2,84,4|0|4,0:3|0:0|0:3,0:0:0:0:
118,172,26312,2,0,P|113:218|107:271,1,84,8|0,0:0|0:0,0:0:0:0:
64,103,26628,1,4,0:3:0:0:
108,255,26786,1,2,0:1:0:0:
179,110,26944,1,8,0:0:0:0:
24,184,27102,1,2,0:1:0:0:
122,41,27260,5,4,0:3:0:0:
154,184,27418,1,2,0:1:0:0:
122,41,27576,1,8,0:0:0:0:
154,184,27734,1,2,0:1:0:0:
295,89,27891,1,8,0:0:0:0:
165,110,28049,2,0,L|208:120,5,42,2|4|4|4|4|4,0:1|0:3|0:3|0:3|0:3|0:3,0:0:0:0:
268,173,28523,5,4,0:0:0:0:
275,185,28839,2,0,L|353:178,1,63.0000024032594
423,114,29155,2,0,L|416:250,1,126.000004806519
339,314,29628,1,0,0:0:0:0:
339,314,29786,6,0,P|281:306|206:298,2,126.000004806519,2|0|2,0:1|0:0|0:1,0:0:0:0:
416,239,30576,2,0,P|418:275|421:313,1,63.0000024032594,4|0,0:3|0:0,0:0:0:0:
337,232,30891,6,0,P|339:200|348:90,1,126.000004806519,4|4,0:3|0:3,0:0:0:0:
264,38,31365,2,0,P|296:31|332:31,1,63.0000024032594
262,119,31681,2,0,P|200:111|136:105,1,126.000004806519
50,170,32155,1,0,0:0:0:0:
50,170,32312,6,0,P|47:107|42:24,2,126.000004806519,2|2|2,0:1|0:0|0:1,0:0:0:0:
125,249,33102,2,0,P|129:217|132:186,1,63.0000024032594,4|0,0:3|0:0,0:0:0:0:
65,296,33418,6,0,P|113:326|186:294,1,126.000004806519,4|4,0:3|0:3,0:0:0:0:
253,234,33891,1,0,0:0:0:0:
253,234,34049,2,0,B|263:331|263:331|307:299,1,126.000004806519
397,261,34523,2,0,L|364:257|331:253,1,63.0000024032594
284,159,34839,6,0,P|345:151|424:142,2,126.000004806519,2|0|2,0:1|0:0|0:1,0:0:0:0:
196,98,35628,2,0,P|200:130|203:164,1,63.0000024032594,4|0,0:3|0:0,0:0:0:0:
107,233,35944,6,0,P|77:187|109:112,2,126.000004806519,4|4|0,0:3|0:3|0:0,0:0:0:0:
186,325,36734,6,0,L|192:257,1,67.2,2|0,0:0|0:0,0:0:0:0:
260,162,37049,6,0,L|267:239,1,71.4000013618469,2|0,0:0|0:0,0:0:0:0:
331,343,37365,6,0,L|338:264,1,75.5999976928712,2|0,0:0|0:0,0:0:0:0:
390,132,37681,6,0,L|397:219,1,79.7999978691102,2|0,0:0|0:0,0:0:0:0:
462,363,37997,5,2,0:1:0:0:
462,363,38312,1,2,0:1:0:0:
122,278,38628,6,0,P|188:270|294:257,1,168,4|8,0:0|0:0,0:0:0:0:
297,253,39023,1,4,0:3:0:0:
304,248,39102,2,0,P|299:296|295:335,1,84,4|4,0:3|0:3,0:0:0:0:
247,172,39418,1,8,0:0:0:0:
379,270,39576,2,0,P|421:276|462:252,1,84,4|4,0:3|0:3,0:0:0:0:
359,98,39891,6,0,P|354:139|348:196,1,84,0|4,0:0|0:3,0:0:0:0:
259,339,40207,2,0,P|254:298|248:241,1,84,8|0,0:0|0:0,0:0:0:0:
425,214,40523,1,4,0:3:0:0:
249,255,40681,2,0,P|290:259|343:269,1,84,8|0,0:0|0:0,0:0:0:0:
203,162,40997,6,0,P|150:167|27:179,1,168,4|4,0:0|0:3,0:0:0:0:
9,253,41391,1,4,0:3:0:0:
9,253,41470,2,0,P|43:271|97:254,1,84,8|0,0:0|0:0,0:0:0:0:
203,162,41786,1,4,0:3:0:0:
155,331,41944,1,8,0:0:0:0:
203,162,42102,2,0,P|209:213|214:264,1,84,4|4,0:3|0:3,0:0:0:0:
310,94,42418,6,0,P|304:145|299:196,1,84,0|4,0:0|0:3,0:0:0:0:
152,94,42734,2,0,P|190:77|241:87,1,84,8|0,0:0|0:0,0:0:0:0:
100,179,43049,1,4,0:3:0:0:
42,35,43207,2,0,P|37:94|33:135,1,84,8|0,0:0|0:0,0:0:0:0:
4,300,43523,6,0,B|41:266|41:266|179:299,1,168,4|4,0:0|0:3,0:0:0:0:
316,226,43997,2,0,P|273:231|226:238,1,84,8|4,0:0|0:3,0:0:0:0:
387,143,44312,1,4,0:3:0:0:
387,143,44470,2,0,P|391:184|396:226,1,84,8|4,0:0|0:3,0:0:0:0:
450,366,44786,1,4,0:3:0:0:
396,226,44944,6,0,P|392:268|388:313,1,84,0|4,0:0|0:3,0:0:0:0:
223,351,45260,2,0,P|266:355|312:361,1,84,8|4,0:0|0:3,0:0:0:0:
164,278,45576,1,4,0:3:0:0:
306,360,45734,1,8,0:0:0:0:
248,204,45891,1,4,0:3:0:0:
118,352,46049,6,0,P|78:288|135:197,1,168,4|4,0:0|0:3,0:0:0:0:
260,120,46523,2,0,P|253:162|248:204,1,84,8|0,0:0|0:0,0:0:0:0:
89,137,46839,2,0,P|132:131|172:126,1,84,4|8,0:3|0:0,0:0:0:0:
331,214,47155,2,0,P|289:208|248:203,1,84,4|4,0:3|0:3,0:0:0:0:
409,97,47470,6,0,P|423:138|407:184,1,84,2|4,0:0|0:3,0:0:0:0:
337,357,47786,2,0,P|297:287|331:214,1,168,8|4,0:0|0:3,0:0:0:0:
172,125,48260,5,8,0:0:0:0:
177,153,48338,1,8,0:0:0:0:
182,181,48417,1,8,0:0:0:0:
186,210,48496,1,8,0:0:0:0:
191,238,48575,1,8,0:0:0:0:
194,267,48654,1,8,0:0:0:0:
198,296,48734,6,0,P|252:292|377:282,1,176.399994616699,0|2,0:0|0:0,0:0:0:0:
491,150,49681,2,0,B|441:156|415:135|415:135|389:151|389:151|361:136|312:144,1,176.399994616699,2|0,0:0|0:0,0:0:0:0:
194,23,50628,2,0,P|163:71|182:125,1,117.599996411133,0|8,0:0|0:3,0:0:0:0:
182,125,51260,6,0,P|116:71|28:129,1,176.399994616699,8|2,0:3|0:0,0:0:0:0:
0,275,52207,2,0,B|50:281|76:260|76:260|102:276|102:276|130:261|179:269,1,176.399994616699,2|0,0:0|0:0,0:0:0:0:
267,329,52997,2,0,L|264:362,2,29.3999991027832
348,289,53312,2,0,L|351:323,2,29.3999991027832
285,168,53786,6,0,P|280:203|276:240,1,71.4000013618469,4|0,0:3|0:0,0:0:0:0:
213,111,54102,2,0,P|208:146|204:183,1,71.4000013618469,4|0,0:3|0:0,0:0:0:0:
118,275,54418,2,0,P|153:270|190:266,1,71.4000013618469,4|0,0:3|0:0,0:0:0:0:
82,361,54734,2,0,P|117:356|154:352,1,71.4000013618469,8|0,0:0|0:0,0:0:0:0:
16,224,55049,6,0,P|12:261|6:326,1,79.7999978691102,4|0,0:3|0:0,0:0:0:0:
88,118,55365,2,0,P|91:157|96:197,1,79.7999978691102,4|0,0:3|0:0,0:0:0:0:
197,285,55681,2,0,P|158:280|104:273,1,79.7999978691102,4|0,0:3|0:0,0:0:0:0:
304,193,55997,2,0,L|264:198|224:203,1,79.7999978691102,8|0,0:0|0:0,0:0:0:0:
375,271,56312,5,12,0:0:0:0:
375,271,56470,1,4,0:3:0:0:
420,126,56628,1,8,0:0:0:0:
420,126,56786,1,4,0:3:0:0:
256,158,56944,5,8,0:0:0:0:
432,211,57102,1,8,0:0:0:0:
256,158,57260,1,8,0:0:0:0:
432,211,57418,1,8,0:0:0:0:
424,102,58681,6,0,P|453:142|423:217,1,126,4|0,0:0|0:0,0:0:0:0:
351,243,58997,2,0,P|357:184|361:135,1,84,0|8,0:0|0:0,0:0:0:0:
285,295,59312,1,0,0:0:0:0:
159,201,59470,2,0,P|196:180|251:195,1,84,4|0,0:3|0:0,0:0:0:0:
102,266,59786,1,8,0:0:0:0:
235,185,59944,1,0,0:0:0:0:
70,91,60102,6,0,P|81:174|94:270,1,168,4|8,0:3|0:0,0:0:0:0:
235,185,60576,2,0,P|228:238|223:281,1,84,0|4,0:0|0:3,0:0:0:0:
179,131,60891,1,0,0:0:0:0:
329,191,61049,1,8,0:0:0:0:
266,31,61207,6,0,P|276:82|284:131,1,84,0|4,0:0|0:3,0:0:0:0:
449,120,61523,2,0,P|410:104|370:113,1,84,0|8,0:0|0:0,0:0:0:0:
235,185,61839,1,0,0:0:0:0:
370,113,61997,2,0,P|366:159|363:207,1,84,4|0,0:3|0:0,0:0:0:0:
424,344,62312,1,8,0:0:0:0:
488,206,62470,1,0,0:0:0:0:
348,312,62628,6,0,P|403:265|505:321,1,168,4|8,0:3|0:0,0:0:0:0:
312,218,63102,2,0,P|274:202|223:215,1,84,0|4,0:0|0:3,0:0:0:0:
97,311,63418,2,0,P|137:318|176:302,1,84,0|8,0:0|0:0,0:0:0:0:
7,205,63734,1,0,0:0:0:0:
7,205,63891,6,0,P|16:285|25:364,1,126,4|0,0:3|0:0,0:0:0:0:
97,311,64207,2,0,P|110:273|96:220,1,84,8|0,0:0|0:0,0:0:0:0:
173,82,64523,2,0,P|160:117|172:170,1,84,4|0,0:3|0:0,0:0:0:0:
289,285,64839,2,0,P|247:289|205:296,1,84,8|0,0:0|0:0,0:0:0:0:
390,295,65155,5,4,0:3:0:0:
347,128,65312,1,0,0:0:0:0:
347,128,65391,1,0,0:0:0:0:
347,128,65470,2,0,P|337:194|331:238,1,84,8|0,0:0|0:0,0:0:0:0:
226,83,65786,1,4,0:3:0:0:
226,83,65944,2,0,P|235:132|241:170,1,84,0|8,0:0|0:0,0:0:0:0:
132,296,66260,6,0,P|136:253|140:204,1,84,0|4,0:0|0:3,0:0:0:0:
37,82,66576,1,0,0:0:0:0:
37,82,66655,1,0,0:0:0:0:
37,82,66734,2,0,P|46:131|52:169,1,84,8|0,0:0|0:0,0:0:0:0:
171,25,67049,2,0,P|130:14|81:38,1,84,4|0,0:3|0:0,0:0:0:0:
261,103,67365,1,8,0:0:0:0:
261,103,67523,1,0,0:3:0:0:
96,197,67681,5,8,0:0:0:0:
181,39,67839,1,8,0:0:0:0:
181,39,67918,1,8,0:0:0:0:
181,39,67997,1,8,0:0:0:0:
303,190,68155,6,0,P|257:185|190:178,1,84,4|0,0:3|0:0,0:0:0:0:
386,181,68470,2,0,P|344:185|303:190,1,84,4|0,0:3|0:0,0:0:0:0:
106,240,68786,6,0,B|259:262,1,126,4|0,0:0|0:0,0:0:0:0:
211,333,69102,2,0,P|169:347|126:338,1,84,0|8,0:0|0:0,0:0:0:0:
16,279,69418,1,0,0:0:0:0:
182,224,69576,2,0,P|194:186|182:142,1,84,4|0,0:3|0:0,0:0:0:0:
22,100,69891,1,8,0:0:0:0:
98,228,70049,1,0,0:0:0:0:
170,67,70207,6,0,P|243:21|323:67,1,168,4|8,0:3|0:0,0:0:0:0:
418,150,70681,2,0,P|370:142|329:137,1,84,0|4,0:0|0:3,0:0:0:0:
496,82,70996,1,0,0:0:0:0:
449,245,71154,1,8,0:0:0:0:
496,82,71312,6,0,P|503:137|508:191,1,84,0|4,0:0|0:3,0:0:0:0:
440,328,71628,2,0,P|445:286|449:245,1,84,0|8,0:0|0:0,0:0:0:0:
364,99,71944,1,0,0:0:0:0:
254,238,72102,2,0,P|296:233|339:228,1,84,4|0,0:3|0:0,0:0:0:0:
188,155,72417,1,8,0:0:0:0:
188,155,72575,1,0,0:0:0:0:
110,331,72733,6,0,B|103:268|103:268|121:230|121:230|115:155,1,168,4|8,0:3|0:0,0:0:0:0:
234,89,73207,2,0,P|196:73|145:86,1,84,0|4,0:0|0:3,0:0:0:0:
271,200,73523,2,0,P|311:207|350:191,1,84,0|8,0:0|0:0,0:0:0:0:
462,61,73839,1,0,0:0:0:0:
462,61,73997,6,0,P|453:141|446:222,1,126,4|0,0:3|0:0,0:0:0:0:
404,248,74312,2,0,P|446:264|491:248,1,84,8|0,0:0|0:0,0:0:0:0:
362,112,74628,2,0,P|320:96|275:112,1,84,4|0,0:3|0:0,0:0:0:0:
165,225,74944,2,0,P|207:241|252:225,1,84,8|0,0:0|0:0,0:0:0:0:
96,155,75260,5,4,0:3:0:0:
146,309,75417,1,0,0:0:0:0:
255,148,75576,2,0,P|245:214|239:258,1,84,8|0,0:0|0:0,0:0:0:0:
156,75,75891,1,4,0:3:0:0:
156,75,76049,2,0,P|162:116|168:158,1,84,0|8,0:0|0:0,0:0:0:0:
315,69,76365,6,0,P|280:50|225:63,1,84,0|4,0:0|0:3,0:0:0:0:
377,174,76681,1,0,0:0:0:0:
377,174,76760,1,0,0:0:0:0:
377,174,76839,2,0,P|381:131|388:84,1,84,8|0,0:0|0:0,0:0:0:0:
297,224,77155,2,0,P|303:274|306:327,1,84,4|0,0:3|0:0,0:0:0:0:
228,162,77470,1,8,0:0:0:0:
228,162,77628,1,0,0:3:0:0:
380,251,77786,5,8,0:0:0:0:
212,304,77944,1,8,0:0:0:0:
212,304,78023,1,8,0:0:0:0:
212,304,78102,1,8,0:0:0:0:
305,140,78260,6,0,L|301:182|297:224,1,84,4|0,0:3|0:0,0:0:0:0:
297,56,78576,2,0,L|301:98|305:140,1,84,4|0,0:3|0:0,0:0:0:0:
163,63,78891,6,0,P|219:22|299:62,1,142.800002723694,4|4,0:0|0:3,0:0:0:0:
164,147,79365,2,0,P|103:138|18:128,1,142.800002723694,4|8,0:3|0:0,0:0:0:0:
45,252,79839,1,4,0:3:0:0:
45,252,79997,2,0,P|90:244|128:241,1,71.4000013618469,0|4,0:0|0:3,0:0:0:0:
235,196,80312,6,4,P|230:240|225:287,1,71.4000013618469,0|4,0:0|0:3,0:3:0:0:
167,379,80628,2,4,P|163:343|159:308,1,71.4000013618469,4|0,0:3|0:0,0:3:0:0:
308,335,80944,1,8,0:0:0:0:
308,335,81102,2,0,P|269:339|223:346,1,71.4000013618469,4|0,0:3|0:0,0:0:0:0:
326,259,81418,6,0,P|393:266|499:276,1,142.800002723694,4|4,0:3|0:3,0:0:0:0:
395,121,81891,2,0,P|391:163|388:198,1,71.4000013618469,8|4,0:0|0:3,0:0:0:0:
331,50,82207,5,8,0:0:0:0:
482,123,82365,1,8,0:0:0:0:
331,50,82523,1,8,0:0:0:0:
388,192,82681,1,8,0:0:0:0:
449,26,82839,5,0,0:0:0:0:
227,103,83944,6,0,P|310:113|394:120,1,168,4|4,0:0|0:3,0:0:0:0:
281,225,84418,1,8,0:0:0:0:
219,112,84576,2,0,P|182:96|129:114,1,84,2|4,0:0|0:3,0:0:0:0:
17,187,84892,1,4,0:3:0:0:
59,48,85050,2,0,P|66:100|74:152,1,84,10|4,0:0|0:3,0:0:0:0:
188,199,85366,5,0,0:0:0:0:
104,205,85524,2,0,P|146:201|188:199,1,84,2|8,0:0|0:0,0:0:0:0:
104,322,85839,1,4,0:3:0:0:
236,266,85997,2,0,P|227:315|219:362,1,84,4|4,0:3|0:3,0:0:0:0:
188,199,86313,1,8,0:0:0:0:
349,259,86470,6,0,P|298:265|244:272,2,84,4|0|4,0:0|0:0|0:3,0:0:0:0:
412,126,86944,2,0,P|428:169|413:210,1,84,8|0,0:0|0:0,0:0:0:0:
272,160,87260,1,4,0:3:0:0:
412,126,87418,1,4,0:3:0:0:
272,160,87576,2,0,P|316:164|361:170,1,84,8|0,0:0|0:0,0:0:0:0:
226,96,87891,6,0,P|184:101|142:105,1,84,0|4,0:0|0:3,0:0:0:0:
312,4,88207,2,0,P|308:48|304:95,1,84,8|4,0:0|0:3,0:0:0:0:
304,87,88444,1,4,0:3:0:0:
304,87,88523,5,4,0:3:0:0:
150,36,88681,1,4,0:3:0:0:
188,197,88839,1,4,0:3:0:0:
241,21,88997,1,4,0:3:0:0:
