osu file format v14

[General]
AudioFilename: unchainyourlife.mp3
AudioLeadIn: 0
PreviewTime: 57812
Countdown: 0
SampleSet: Soft
StackLeniency: 0.3
Mode: 0
LetterboxInBreaks: 0
WidescreenStoryboard: 0

[Editor]
Bookmarks: 8164,18269,28523,38637,48743,213047
DistanceSpacing: 1.3
BeatDivisor: 4
GridSize: 16
TimelineZoom: 2.6

[Metadata]
Title:MY LIBERATION
TitleUnicode:MY LIBERATION
Artist:nano
ArtistUnicode:ナノ
Creator:Irohas
Version:Hard
Source:チェインクロニクル~ヘクセイタスの閃~
Tags:mugiwarasekai karia paraiso album chain chronicle hekuseitasu haecceitas no hikari op cut ver
BeatmapID:1201330
BeatmapSetID:566537

[Difficulty]
HPDrainRate:5
CircleSize:4
OverallDifficulty:5
ApproachRate:8
SliderMultiplier:1.4
SliderTickRate:1

[Events]
//Background and Video events
0,0,"unbreakdestiny.jpg",0,0
//Break Periods
//Storyboard Layer 0 (Background)
//Storyboard Layer 1 (Fail)
//Storyboard Layer 2 (Pass)
//Storyboard Layer 3 (Foreground)
//Storyboard Sound Samples

[TimingPoints]
734,315.789473684211,4,2,1,30,1,0
734,-142.857142857143,4,2,1,30,0,0
2312,-142.857142857143,4,2,1,30,0,0
2549,-142.857142857143,4,2,1,5,0,0
2628,-142.857142857143,4,2,1,30,0,0
5786,-100,4,2,1,20,0,0
6418,-100,4,2,1,30,0,0
6734,-100,4,2,1,40,0,0
7049,-100,4,2,1,50,0,0
7365,-100,4,2,1,5,0,0
7681,-166.666666666667,4,2,1,20,0,0
8155,-100,4,2,1,50,0,0
28523,-125,4,2,1,30,0,0
38628,-100,4,2,1,50,0,0
40918,-100,4,2,1,5,0,0
40997,-100,4,2,1,50,0,0
41234,-100,4,2,1,5,0,0
41312,-100,4,2,1,50,0,0
41707,-100,4,2,1,5,0,0
41786,-100,4,2,1,50,0,0
43444,-100,4,2,1,5,0,0
43523,-100,4,2,1,50,0,0
48734,-166.666666666667,4,2,1,30,0,0
53786,-117.647058823529,4,2,1,50,0,0
56312,-111.111111111111,4,2,1,50,0,0
58681,-100,4,2,1,60,0,1
68155,-100,4,2,1,60,0,0
68786,-100,4,2,1,60,0,1
78260,-100,4,2,1,60,0,1
78891,-125,4,2,1,60,0,1
81418,-111.111111111111,4,2,1,60,0,1
82839,-100,4,2,1,50,0,0
83944,-100,4,2,1,50,0,0

[Colours]
Combo1 : 255,186,145
Combo2 : 255,249,117
Combo3 : 203,225,162

[HitObjects]
83,128,734,6,0,P|90:183|96:243,1,97.9999970092774,2|0,0:0|0:0,0:0:0:0:
238,68,1365,2,0,P|231:123|225:183,1,97.9999970092774,2|0,0:0|0:0,0:0:0:0:
189,234,1839,1,0,0:0:0:0:
237,295,1997,2,0,P|278:287|338:287,2,97.9999970092774,0|2|2,0:0|0:0|0:0,0:0:0:0:
175,343,2786,1,2,0:0:0:0:
175,343,3102,6,0,P|134:335|74:335,1,97.9999970092774,2|0,0:0|0:0,0:0:0:0:
27,274,3576,1,2,0:0:0:0:
27,274,4049,2,0,P|31:236|36:203,2,48.9999985046387,0|2|0,0:0|0:0|0:0,0:0:0:0:
77,334,4523,6,0,P|126:334|175:343,1,97.9999970092774,0|2,0:0|0:0,0:0:0:0:
231,295,4997,2,0,P|264:285|292:287,1,48.9999985046387,2|0,0:0|0:0,0:0:0:0:
345,315,5312,1,2,0:0:0:0:
256,192,5786,12,4,7681,0:3:0:0:
73,125,8155,6,0,P|101:86|198:85,1,140,4|6,0:0|0:3,0:0:0:0:
264,126,8628,2,0,P|306:121|343:118,1,70,10|2,0:0|0:0,0:0:0:0:
424,110,8944,2,4,P|415:155|411:200,1,70,4|6,0:3|0:3,0:0:0:0:
362,256,9260,1,10,0:0:0:0:
421,346,9418,6,0,P|389:309|292:317,1,140,6|6,0:3|0:3,0:0:0:0:
220,347,9891,2,4,P|224:312|228:277,1,70,10|4,0:0|0:3,0:0:0:0:
131,217,10207,2,4,P|134:252|136:287,1,70,6|6,0:3|0:3,0:0:0:0:
39,243,10523,1,10,0:0:0:0:
60,126,10681,6,0,P|92:163|189:155,1,140,4|4,0:3|0:3,0:0:0:0:
200,74,11155,2,0,P|234:57|279:54,1,70,10|2,0:0|0:0,0:0:0:0:
341,103,11470,1,6,0:3:0:0:
425,69,11628,1,6,0:3:0:0:
479,142,11786,2,0,P|476:185|473:228,1,70,10|6,0:0|0:3,0:0:0:0:
341,103,12102,6,0,P|346:158|353:251,1,140,2|8,0:3|0:0,0:0:0:0:
403,318,12576,1,6,0:3:0:0:
322,360,12734,2,4,P|280:356|238:352,1,70,2|2,0:1|0:1,0:0:0:0:
190,286,13049,1,8,0:0:0:0:
147,376,13207,6,0,P|141:306|135:236,1,140,4|6,0:0|0:3,0:0:0:0:
168,151,13681,2,4,P|203:135|246:137,1,70,10|2,0:0|0:0,0:0:0:0:
311,183,13997,2,4,P|354:177|396:173,1,70,4|6,0:3|0:3,0:0:0:0:
463,210,14312,1,10,0:0:0:0:
446,327,14470,6,4,B|393:333|393:333|356:318|356:318|290:326,1,140,6|6,0:3|0:3,0:0:0:0:
229,367,14944,2,0,P|190:360|145:357,1,70,8|4,0:0|0:3,0:0:0:0:
146,266,15260,2,4,P|106:269|62:278,1,70,6|6,0:3|0:3,0:0:0:0:
2,220,15576,1,8,0:0:0:0:
65,89,15734,6,0,P|102:58|197:82,1,140,6|6,0:3|0:3,0:0:0:0:
274,44,16207,2,0,P|271:87|267:132,1,70,8|2,0:0|0:3,0:0:0:0:
205,180,16523,1,6,0:3:0:0:
239,264,16681,1,6,0:3:0:0:
176,330,16839,2,4,P|142:323|106:321,1,70,10|2,0:0|0:0,0:0:0:0:
263,360,17155,6,0,P|328:379|385:342,1,140,6|8,0:3|0:0,0:0:0:0:
432,264,17628,2,8,P|452:283|465:300,2,35,10|8|8,0:3|0:0|0:0,0:0:0:0:
422,172,17944,2,8,P|449:176|469:182,3,35,8|8|8|8,0:0|0:0|0:0|0:0,0:0:0:0:
488,211,18260,6,0,P|481:157|469:61,1,140,4|6,0:0|0:3,0:0:0:0:
392,23,18734,2,0,P|356:15|315:21,1,70,10|2,0:0|0:0,0:0:0:0:
253,76,19049,2,4,P|210:71|167:69,1,70,4|6,0:3|0:3,0:0:0:0:
97,101,19365,1,10,0:0:0:0:
37,27,19523,6,4,P|62:69|43:161,1,140,6|6,0:3|0:3,0:0:0:0:
53,246,19997,2,0,P|90:236|132:234,1,70,10|4,0:0|0:3,0:0:0:0:
210,212,20312,2,4,P|200:256|192:306,1,70,6|6,0:3|0:3,0:0:0:0:
128,342,20628,1,10,0:0:0:0:
249,375,20786,6,4,P|327:367|399:361,1,140,4|4,0:3|0:3,0:0:0:0:
467,314,21260,2,4,P|460:279|452:245,1,70,10|2,0:0|0:3,0:0:0:0:
385,183,21576,1,6,0:3:0:0:
377,94,21734,1,6,0:3:0:0:
437,26,21891,2,0,P|474:16|516:16,1,70,10|6,0:0|0:3,0:0:0:0:
377,94,22207,6,0,P|311:89|230:87,1,140,2|8,0:3|0:0,0:0:0:0:
153,50,22681,1,6,0:3:0:0:
92,117,22839,2,4,P|99:151|106:185,1,70,2|2,0:1|0:1,0:0:0:0:
165,255,23155,1,8,0:0:0:0:
89,328,23312,6,0,P|146:291|211:310,1,140,4|6,0:0|0:3,0:0:0:0:
281,369,23786,2,4,P|324:364|367:362,1,70,10|2,0:0|0:0,0:0:0:0:
417,299,24102,2,4,P|410:264|402:230,1,70,4|6,0:3|0:3,0:0:0:0:
463,162,24418,1,10,0:0:0:0:
349,117,24576,6,4,B|296:123|296:123|259:108|259:108|193:116,1,140,6|6,0:3|0:3,0:0:0:0:
140,58,25049,2,0,P|131:100|125:140,1,70,8|4,0:0|0:3,0:0:0:0:
35,119,25365,2,0,P|40:161|48:201,1,70,6|6,0:3|0:3,0:0:0:0:
0,268,25681,1,8,0:0:0:0:
90,337,25839,6,4,P|146:330|241:321,1,140,6|6,0:3|0:3,0:0:0:0:
269,240,26312,2,0,P|305:228|348:230,1,70,8|2,0:0|0:3,0:0:0:0:
421,263,26628,1,6,0:3:0:0:
458,180,26786,1,2,0:0:0:0:
396,114,26944,2,0,P|401:79|409:45,1,70,8|6,0:0|0:3,0:0:0:0:
273,28,27260,6,0,P|282:96|290:166,1,140,6|10,0:3|0:0,0:0:0:0:
269,256,27734,1,2,0:0:0:0:
197,310,27891,2,4,P|163:305|150:303,3,35,8|0|4|4,0:0|0:0|0:3|0:3,0:0:0:0:
132,269,28207,2,4,P|114:271|97:274,3,35,4|4|4|4,0:3|0:3|0:3|0:3,0:0:0:0:
60,252,28523,6,0,P|68:182|74:124,2,112,4|2|0,0:0|0:0|0:0,0:0:0:0:
88,330,29312,1,0,0:0:0:0:
153,282,29470,2,0,P|187:277|226:277,1,56,2|0,0:0|0:0,0:0:0:0:
274,329,29786,6,0,P|307:350|392:320,2,112,2|2|2,0:1|0:0|0:1,0:0:0:0:
208,276,30576,1,8,0:3:0:0:
208,276,30891,6,0,P|214:220|220:164,1,112,8|8,0:3|0:3,0:0:0:0:
278,102,31365,2,0,P|314:88|351:89,1,56,2|0,0:0|0:0,0:0:0:0:
407,121,31681,2,0,P|403:162|398:196,1,56,0|0,0:0|0:0,0:0:0:0:
449,245,31997,1,2,0:0:0:0:
389,303,32155,1,0,0:0:0:0:
389,303,32312,6,0,B|344:306|344:306|310:294|310:294|260:295,2,112,2|2|2,0:1|0:0|0:1,0:0:0:0:
449,245,33102,1,8,0:3:0:0:
449,245,33418,6,0,P|463:190|441:130,1,112,8|8,0:3|0:3,0:0:0:0:
372,100,33891,2,0,P|331:106|300:112,1,56,2|0,0:0|0:0,0:0:0:0:
245,62,34207,2,0,P|209:48|172:49,1,56,0|0,0:0|0:0,0:0:0:0:
124,97,34523,2,0,P|127:124|129:152,1,56,2|0,0:0|0:0,0:0:0:0:
186,215,34839,6,0,P|182:270|178:332,2,112,2|2|2,0:1|0:0|0:1,0:0:0:0:
236,147,35628,1,8,0:3:0:0:
236,147,35944,6,0,P|281:114|343:123,1,112,2|8,0:1|0:3,0:0:0:0:
415,95,36418,2,0,P|412:135|407:162,1,56,2|0,0:0|0:0,0:0:0:0:
486,185,36734,2,0,P|463:218|445:239,1,56,0|0,0:0|0:0,0:0:0:0:
490,305,37049,2,0,P|450:312|423:314,1,56,2|0,0:0|0:0,0:0:0:0:
356,347,37365,6,0,P|353:312|349:268,1,56,2|0,0:0|0:0,0:0:0:0:
269,313,37681,2,0,P|264:274|261:245,1,56,2|0,0:0|0:0,0:0:0:0:
180,279,37997,5,2,0:1:0:0:
180,279,38312,1,2,0:1:0:0:
180,279,38628,6,0,P|176:221|171:132,1,140,4|8,0:0|0:0,0:0:0:0:
222,62,39102,2,0,P|257:27|346:33,1,140,2|10,0:3|0:0,0:0:0:0:
452,102,39576,1,6,0:3:0:0:
452,102,39891,6,0,P|448:145|445:190,1,70,2|4,0:3|0:3,0:0:0:0:
375,230,40207,2,0,P|379:273|382:318,1,70,10|0,0:0|0:0,0:0:0:0:
341,382,40523,1,6,0:3:0:0:
254,292,40681,2,0,P|206:274|151:293,1,105,8|0,0:0|0:0,0:0:0:0:
126,324,40997,6,0,P|130:264|137:159,1,140,4|6,0:0|0:3,0:0:0:0:
92,64,41470,2,0,P|122:105|210:94,1,140,10|6,0:0|0:3,0:0:0:0:
270,17,41944,1,8,0:0:0:0:
344,72,42102,2,0,P|340:115|337:160,1,70,6|6,0:3|0:3,0:0:0:0:
392,215,42418,6,0,P|431:210|472:207,1,70,2|4,0:3|0:3,0:0:0:0:
344,296,42734,2,0,P|305:291|264:288,1,70,10|0,0:0|0:0,0:0:0:0:
195,334,43049,1,6,0:3:0:0:
109,243,43207,2,0,P|113:293|118:348,1,105,10|0,0:0|0:0,0:0:0:0:
82,376,43523,6,0,P|78:323|69:221,1,140,4|4,0:0|0:3,0:0:0:0:
53,114,43997,2,0,P|109:74|178:94,1,140,10|6,0:0|0:3,0:0:0:0:
261,180,44470,1,10,0:0:0:0:
329,119,44628,2,0,P|326:84|323:49,1,70,0|6,0:0|0:3,0:0:0:0:
466,29,44944,6,0,P|462:63|460:98,1,70,10|6,0:0|0:3,0:0:0:0:
401,168,45260,2,0,P|404:202|406:237,1,70,10|0,0:0|0:3,0:0:0:0:
444,321,45576,1,4,0:3:0:0:
328,249,45734,1,10,0:0:0:0:
305,336,45891,1,4,0:3:0:0:
305,336,46049,6,0,P|237:356|178:312,1,140,4|4,0:0|0:3,0:0:0:0:
196,229,46523,2,0,P|159:212|128:210,1,70,8|0,0:0|0:0,0:0:0:0:
149,120,46839,2,0,P|112:120|79:131,1,70,4|8,0:3|0:0,0:0:0:0:
55,42,47155,2,0,P|22:58|-2:83,1,70,6|4,0:3|0:3,0:0:0:0:
149,120,47470,6,0,P|214:114|294:109,1,140,10|8,0:0|0:0,0:0:0:0:
374,77,47944,1,0,0:0:0:0:
421,154,48102,2,8,P|417:188|414:207,3,35,8|0|8|8,0:0|0:0|0:0|0:0,0:0:0:0:
380,217,48418,2,8,P|384:251|387:270,3,35,8|8|8|8,0:0|0:0|0:0|0:0,0:0:0:0:
379,287,48734,6,0,P|323:283|245:279,2,125.999996154785,4|2|2,0:0|0:0|0:3,0:0:0:0:
379,287,50944,1,8,0:3:0:0:
453,219,51260,6,0,B|473:177|473:177|464:131|471:82,2,125.999996154785,8|2|2,0:3|0:0|0:0,0:0:0:0:
379,287,53470,1,2,0:0:0:0:
286,340,53786,6,0,P|224:332|159:328,1,119.000002269745,4|4,0:3|0:3,0:0:0:0:
89,283,54260,2,0,P|77:220|104:163,1,119.000002269745,0|0,0:0|0:0,0:0:0:0:
148,65,54734,1,8,0:3:0:0:
211,126,54891,6,0,P|251:121|288:119,1,59.5000011348725,0|4,0:0|0:3,0:0:0:0:
343,67,55207,2,0,P|372:69|402:73,1,59.5000011348725,0|4,0:0|0:3,0:0:0:0:
470,15,55523,2,0,P|446:62|469:132,1,119.000002269745,0|0,0:0|0:0,0:0:0:0:
403,256,55997,1,8,0:3:0:0:
403,256,56312,6,0,P|406:225|409:193,1,62.9999980773926,6|0,0:0|0:0,0:0:0:0:
299,125,56628,2,0,P|301:156|305:187,1,62.9999980773926,8|0,0:0|0:0,0:0:0:0:
258,270,56944,1,8,0:0:0:0:
181,299,57102,1,8,0:0:0:0:
128,236,57260,1,8,0:0:0:0:
166,163,57418,5,8,0:0:0:0:
49,97,58681,6,0,P|92:51|173:56,1,140,4|2,0:0|0:0,0:0:0:0:
239,105,59155,2,0,P|280:100|318:97,1,70,8|2,0:0|0:0,0:0:0:0:
397,77,59470,2,4,P|388:122|384:167,1,70,6|0,0:3|0:3,0:0:0:0:
308,196,59786,1,10,0:0:0:0:
322,285,59944,1,2,0:0:0:0:
388,359,60102,6,0,P|337:321|258:340,1,140,6|8,0:3|0:0,0:0:0:0:
182,371,60576,1,6,0:3:0:0:
110,314,60734,2,4,P|114:279|121:237,1,70,0|6,0:0|0:3,0:0:0:0:
173,171,61049,1,8,0:0:0:0:
73,131,61207,6,0,P|139:145|195:106,1,140,6|2,0:3|0:3,0:0:0:0:
254,35,61681,2,0,P|291:21|333:24,1,70,10|2,0:0|0:0,0:0:0:0:
391,79,61997,2,4,P|385:113|381:148,1,70,6|0,0:3|0:0,0:0:0:0:
302,193,62312,1,10,0:0:0:0:
339,276,62470,1,2,0:3:0:0:
242,341,62628,6,0,B|293:340|293:340|329:355|329:355|378:352,1,140,6|8,0:3|0:0,0:0:0:0:
465,380,63102,1,6,0:3:0:0:
505,298,63260,2,4,P|500:263|495:228,1,70,4|2,0:3|0:0,0:0:0:0:
509,138,63576,1,8,0:0:0:0:
405,77,63734,6,4,P|344:79|256:84,1,140,2|0,0:0|0:0,0:0:0:0:
190,30,64207,2,0,P|153:16|111:19,1,70,8|2,0:0|0:0,0:0:0:0:
50,72,64523,2,4,P|55:106|59:141,1,70,6|0,0:3|0:0,0:0:0:0:
128,201,64839,1,8,0:0:0:0:
61,283,64997,6,0,P|116:243|183:258,1,140,0|6,0:0|0:3,0:0:0:0:
260,303,65470,2,0,P|265:257|271:215,1,70,8|2,0:0|0:0,0:0:0:0:
320,158,65786,1,6,0:3:0:0:
385,221,65944,2,0,P|426:216|464:213,1,70,2|8,0:3|0:0,0:0:0:0:
512,107,66260,6,0,P|456:67|389:82,1,140,6|6,0:3|0:3,0:0:0:0:
327,147,66734,2,0,P|286:142|248:139,1,70,10|6,0:0|0:3,0:0:0:0:
253,48,67049,2,0,P|211:50|173:53,1,70,6|4,0:3|0:3,0:0:0:0:
96,20,67365,1,10,0:0:0:0:
35,87,67523,1,6,0:3:0:0:
145,171,67681,5,14,0:0:0:0:
66,216,67839,2,0,P|40:214|17:212,2,35,8|8|8,0:0|0:0|0:0,0:0:0:0:
132,312,68155,5,6,0:3:0:0:
145,171,68470,1,6,0:3:0:0:
132,312,68786,6,0,P|195:329|257:290,1,140,4|6,0:0|0:3,0:0:0:0:
296,210,69260,2,0,P|337:193|380:195,1,70,8|2,0:0|0:0,0:0:0:0:
452,208,69576,2,0,P|448:173|441:130,1,70,6|0,0:3|0:3,0:0:0:0:
498,66,69891,1,10,0:0:0:0:
419,20,70049,1,2,0:0:0:0:
287,29,70207,6,0,P|295:99|303:172,1,140,6|8,0:3|0:0,0:0:0:0:
363,236,70681,1,6,0:3:0:0:
289,289,70839,2,4,P|250:285|208:283,1,70,4|6,0:3|0:3,0:0:0:0:
139,327,71155,1,8,0:0:0:0:
52,243,71312,6,0,P|59:173|69:103,1,140,6|2,0:3|0:3,0:0:0:0:
129,35,71786,2,0,P|165:22|206:24,1,70,8|2,0:0|0:0,0:0:0:0:
269,77,72102,2,4,P|308:73|350:71,1,70,6|6,0:3|0:3,0:0:0:0:
429,86,72418,1,10,0:0:0:0:
392,169,72576,1,2,0:3:0:0:
455,246,72734,6,0,P|397:209|331:226,1,140,6|8,0:3|0:0,0:0:0:0:
252,271,73207,1,2,0:0:0:0:
185,210,73365,2,4,P|189:175|196:133,1,70,4|6,0:3|0:3,0:0:0:0:
154,58,73680,1,10,0:0:0:0:
281,37,73839,6,4,B|330:43|330:43|365:32|365:32|424:37,1,140,6|0,0:3|0:0,0:0:0:0:
496,83,74312,2,4,P|490:123|486:152,1,70,10|6,0:0|0:3,0:0:0:0:
397,177,74628,2,4,P|402:213|406:248,1,70,6|4,0:3|0:3,0:0:0:0:
379,334,74944,1,8,0:0:0:0:
281,257,75102,6,0,P|215:236|156:269,1,140,2|0,0:3|0:0,0:0:0:0:
75,312,75576,2,0,P|70:266|65:221,1,70,8|2,0:0|0:0,0:0:0:0:
16,166,75892,1,6,0:3:0:0:
75,98,76049,2,4,P|113:86|155:89,1,70,6|8,0:3|0:0,0:0:0:0:
228,172,76365,6,4,B|300:183|299:132|373:146,1,140,6|6,0:3|0:3,0:0:0:0:
439,193,76839,2,0,P|449:229|443:273,1,70,10|4,0:0|0:3,0:0:0:0:
404,342,77155,2,4,P|365:337|331:334,1,70,6|6,0:3|0:3,0:0:0:0:
255,288,77470,1,10,0:0:0:0:
173,329,77628,1,2,0:0:0:0:
76,234,77786,5,10,0:0:0:0:
144,174,77944,2,0,P|170:172|193:170,2,35,8|8|8,0:0|0:0|0:0,0:0:0:0:
88,85,78260,5,10,0:3:0:0:
76,234,78576,1,10,0:3:0:0:
88,85,78891,6,0,P|131:51|200:58,1,112,4|0,0:0|0:0,0:0:0:0:
257,96,79365,1,6,0:3:0:0:
257,96,79681,2,0,P|310:91|379:86,1,112,8|6,0:0|0:3,0:0:0:0:
434,139,80155,1,2,0:0:0:0:
434,139,80312,6,0,P|449:181|428:257,2,112,2|6|10,0:3|0:3|0:0,0:0:0:0:
368,86,81102,1,6,0:3:0:0:
368,86,81418,6,0,P|312:90|233:101,1,125.999996154785,6|4,0:3|0:3,0:0:0:0:
177,50,81891,2,0,P|144:38|103:38,1,62.9999980773926,8|4,0:0|0:3,0:0:0:0:
58,95,82207,2,4,P|63:130|67:163,1,62.9999980773926,8|4,0:0|0:3,0:0:0:0:
159,144,82523,2,4,P|154:181|150:213,1,62.9999980773926,8|8,0:0|0:0,0:0:0:0:
249,187,82839,5,4,0:3:0:0:
439,125,83944,6,0,P|411:86|314:85,1,140,4|6,0:0|0:3,0:0:0:0:
248,127,84418,2,0,P|206:122|169:119,1,70,10|2,0:0|0:0,0:0:0:0:
87,126,84733,2,4,P|96:171|100:216,1,70,4|6,0:3|0:3,0:0:0:0:
164,259,85049,1,10,0:0:0:0:
108,345,85207,6,0,P|140:308|237:316,1,140,6|6,0:3|0:3,0:0:0:0:
312,336,85681,2,4,P|308:301|304:266,1,70,8|2,0:0|0:3,0:0:0:0:
406,215,85997,2,4,P|402:249|401:284,1,70,6|2,0:3|0:0,0:0:0:0:
494,238,86312,1,10,0:0:0:0:
470,121,86470,6,0,P|438:158|341:150,1,140,4|6,0:0|0:3,0:0:0:0:
329,69,86944,2,0,P|295:52|250:49,1,70,10|2,0:0|0:0,0:0:0:0:
189,100,87259,1,6,0:3:0:0:
103,68,87417,1,2,0:3:0:0:
36,131,87576,2,0,P|39:174|42:217,1,70,10|2,0:0|0:0,0:0:0:0:
0,290,87891,6,0,P|32:253|129:261,1,140,6|8,0:3|0:0,0:0:0:0:
188,311,88365,2,8,P|186:342|185:365,2,35,8|4|8,0:3|0:3|0:3,0:0:0:0:
231,230,88681,1,4,0:3:0:0:
175,158,88839,1,4,0:3:0:0:
234,88,88997,1,4,0:3:0:0:
