osu file format v14

[General]
AudioFilename: unchainyourlife.mp3
AudioLeadIn: 0
PreviewTime: 57812
Countdown: 0
SampleSet: Soft
StackLeniency: 0.3
Mode: 0
LetterboxInBreaks: 0
WidescreenStoryboard: 0

[Editor]
Bookmarks: 8164,18269,28532,38637,48743,63585,69585,213047
DistanceSpacing: 1
BeatDivisor: 2
GridSize: 32
TimelineZoom: 2.6

[Metadata]
Title:MY LIBERATION
TitleUnicode:MY LIBERATION
Artist:nano
ArtistUnicode:ナノ
Creator:Irohas
Version:Easy
Source:チェインクロニクル~ヘクセイタスの閃~
Tags:mugiwarasekai karia paraiso album chain chronicle hekuseitasu haecceitas no hikari op cut ver
BeatmapID:1201470
BeatmapSetID:566537

[Difficulty]
HPDrainRate:2
CircleSize:3
OverallDifficulty:2
ApproachRate:3
SliderMultiplier:0.9
SliderTickRate:1

[Events]
//Background and Video events
0,0,"unbreakdestiny.jpg",0,0
//Break Periods
2,5354,6715
2,48934,52346
//Storyboard Layer 0 (Background)
//Storyboard Layer 1 (Fail)
//Storyboard Layer 2 (Pass)
//Storyboard Layer 3 (Foreground)
//Storyboard Sound Samples

[TimingPoints]
734,315.789473684211,4,2,1,30,1,0
2628,-100,4,2,1,30,0,0
5786,-100,4,2,1,20,0,0
6418,-100,4,2,1,30,0,0
6734,-100,4,2,1,40,0,0
7049,-100,4,2,1,30,0,0
7681,-100,4,2,1,40,0,0
8155,-100,4,2,1,50,0,0
28523,-100,4,2,1,30,0,0
38628,-100,4,2,1,50,0,0
40997,-100,4,2,1,50,0,0
41312,-100,4,2,1,50,0,0
41786,-100,4,2,1,50,0,0
43523,-100,4,2,1,50,0,0
48734,-100,4,2,1,30,0,0
53786,-100,4,2,1,50,0,0
56312,-100,4,2,1,50,0,0
57891,-100,4,2,1,30,0,0
58207,-100,4,2,1,30,0,0
58523,-100,4,2,1,40,0,0
58681,-100,4,2,1,60,0,1
66576,-100,4,2,1,60,0,1
68155,-100,4,2,1,60,0,0
68470,-100,4,2,1,50,0,0
68786,-100,4,2,1,60,0,1
76681,-100,4,2,1,60,0,1
78576,-100,4,2,1,60,0,1
81418,-100,4,2,1,60,0,1
82839,-100,4,2,1,50,0,0
83944,-100,4,2,1,50,0,0

[Colours]
Combo1 : 255,186,145
Combo2 : 255,249,117
Combo3 : 203,225,162

[HitObjects]
18,254,734,6,0,B|97:286|107:196|189:224,1,180,2|0,0:0|0:0,0:0:0:0:
249,288,1681,1,0,0:0:0:0:
334,260,1997,2,0,P|383:254|436:249,1,90,0|0,0:0|0:0,0:0:0:0:
489,194,2628,2,0,P|502:121|474:58,1,135,0|2,0:0|0:0,0:0:0:0:
480,66,4523,6,0,B|416:77|416:77|357:59|357:59|293:68,1,180
41,174,8155,6,0,P|103:145|171:170,1,135,4|8,0:0|0:0,0:0:0:0:
217,238,8944,2,0,P|262:247|313:227,2,90,4|8|0,0:3|0:0|0:0,0:0:0:0:
254,156,9891,1,8,0:0:0:0:
342,138,10207,6,0,B|377:163|406:168|406:168|404:207|407:234,2,135,4|4|8,0:3|0:3|0:0,0:0:0:0:
289,64,11470,2,0,P|242:57|202:71,1,90,4|8,0:3|0:0,0:0:0:0:
132,127,12102,2,0,P|137:174|143:230,1,90,4|8,0:3|0:0,0:0:0:0:
95,294,12734,1,2,0:1:0:0:
222,337,13207,6,0,B|267:354|267:354|356:344,1,135,4|8,0:0|0:0,0:0:0:0:
417,280,13997,2,0,P|458:264|515:272,2,90,4|8|4,0:3|0:0|0:3,0:0:0:0:
329,260,14944,1,8,0:0:0:0:
273,188,15260,6,0,P|276:126|282:49,2,135,4|4|8,0:3|0:3|0:0,0:0:0:0:
211,253,16523,2,0,P|167:235|113:240,1,90,4|8,0:3|0:0,0:0:0:0:
39,209,17155,2,0,P|44:156|50:105,1,90,4|8,0:3|0:0,0:0:0:0:
108,52,17786,1,8,0:0:0:0:
192,157,18260,6,0,P|248:173|311:135,1,135,4|8,0:0|0:0,0:0:0:0:
367,66,19049,2,0,P|412:68|461:73,2,90,4|8|0,0:3|0:0|0:0,0:0:0:0:
283,31,19997,1,8,0:0:0:0:
210,84,20312,6,0,B|190:133|190:133|204:228,2,135,4|4|8,0:3|0:3|0:0,0:0:0:0:
283,31,21576,2,0,P|328:33|377:38,1,90,4|8,0:3|0:0,0:0:0:0:
456,72,22207,2,0,P|470:116|459:166,1,90,4|8,0:3|0:0,0:0:0:0:
417,236,22839,1,2,0:1:0:0:
321,331,23312,6,0,B|269:333|269:333|235:317|235:317|173:320,1,135,4|8,0:0|0:0,0:0:0:0:
127,254,24102,2,0,B|83:239|83:239|32:244,2,90,4|8|4,0:3|0:0|0:3,0:0:0:0:
215,236,25049,1,8,0:0:0:0:
281,175,25365,6,0,B|302:112|259:95|284:32,2,135,4|4|8,0:3|0:3|0:0,0:0:0:0:
300,262,26628,2,0,P|342:275|386:268,1,90,4|8,0:3|0:0,0:0:0:0:
457,212,27260,2,0,P|454:163|449:110,1,90,4|8,0:3|0:0,0:0:0:0:
404,44,27891,1,8,0:0:0:0:
275,169,28523,6,0,B|236:199|191:193|191:193|151:159|89:169,1,180,4|0,0:0|0:0,0:0:0:0:
42,104,29470,1,0,0:0:0:0:
109,42,29786,2,0,P|147:43|204:58,1,90,2|0,0:1|0:0,0:0:0:0:
283,82,30418,6,0,B|336:74|374:56|374:56|387:72|403:81,2,135,2|4|0,0:1|0:3|0:0,0:0:0:0:
215,141,31681,2,0,P|204:187|212:234,1,90,0|0,0:0|0:0,0:0:0:0:
271,294,32312,2,0,P|314:290|372:285,1,90,2|2,0:1|0:0,0:0:0:0:
440,244,32944,6,0,B|448:177|448:177|430:95,2,135,2|4|0,0:1|0:3|0:0,0:0:0:0:
360,285,34207,2,0,P|315:289|271:294,1,90,0|0,0:0|0:0,0:0:0:0:
209,227,34839,2,0,P|164:222|119:218,1,90,2|0,0:1|0:0,0:0:0:0:
37,182,35470,6,0,P|19:119|56:47,2,135,2|4|0,0:1|0:3|0:0,0:0:0:0:
119,218,36734,2,0,P|128:264|120:315,1,90,2|2,0:0|0:0,0:0:0:0:
193,362,37365,2,0,P|237:357|282:353,1,90,2|2,0:0|0:0,0:0:0:0:
363,314,37997,1,2,0:1:0:0:
511,212,38628,6,0,P|438:220|391:179,2,135,4|4|4,0:0|0:3|0:3,0:0:0:0:
468,132,39891,2,0,P|473:82|479:37,1,90,0|8,0:0|0:0,0:0:0:0:
392,13,40523,1,4,0:3:0:0:
288,99,40997,6,0,B|240:114|240:114|202:102|147:99,1,135,4|8,0:0|0:0,0:0:0:0:
78,144,41786,2,0,P|69:190|77:241,1,90,4|4,0:3|0:3,0:0:0:0:
108,315,42418,2,0,P|152:310|197:306,1,90,0|8,0:0|0:0,0:0:0:0:
267,250,43049,6,0,B|305:218|347:234|347:234|371:264|407:274,2,135,4|4|8,0:3|0:0|0:0,0:0:0:0:
179,229,44312,2,0,P|183:176|189:119,1,90,4|4,0:3|0:3,0:0:0:0:
250,75,44944,2,0,P|290:54|350:61,1,90,0|8,0:0|0:0,0:0:0:0:
414,96,45576,1,4,0:3:0:0:
497,201,46049,6,0,P|487:258|472:355,1,135,4|8,0:0|0:0,0:0:0:0:
385,344,46839,2,0,P|393:290|404:232,1,90,4|4,0:3|0:3,0:0:0:0:
366,171,47470,2,0,P|326:150|271:150,2,90,2|8|4,0:0|0:0|0:3,0:0:0:0:
456,169,48418,1,8,0:0:0:0:
414,88,48734,5,0,0:0:0:0:
58,42,53786,6,0,P|62:90|67:144,1,90,4|4,0:3|0:3,0:0:0:0:
130,194,54418,2,0,P|126:242|121:296,1,90,4|8,0:3|0:0,0:0:0:0:
185,347,55049,2,0,P|233:358|285:338,1,90,4|4,0:3|0:3,0:0:0:0:
340,288,55681,1,4,0:3:0:0:
338,197,55997,1,8,0:0:0:0:
288,122,56312,6,0,P|244:111|201:122,1,90,12|8,0:0|0:0,0:0:0:0:
124,168,56944,2,0,B|132:224|132:224|124:258|124:258|131:316,1,135,8|8,0:0|0:0,0:0:0:0:
449,52,58681,6,0,P|445:111|439:201,1,135,4|8,0:0|0:0,0:0:0:0:
396,265,59470,2,0,P|352:276|309:265,1,90,4|8,0:3|0:0,0:0:0:0:
267,185,60102,2,0,P|214:151|135:167,2,135,4|0|8,0:3|0:0|0:0,0:0:0:0:
357,185,61365,6,0,P|354:133|348:79,1,90,4|8,0:3|0:0,0:0:0:0:
282,35,61997,2,0,P|236:26|187:37,1,90,4|8,0:3|0:0,0:0:0:0:
118,82,62628,2,0,B|106:128|106:128|122:227,2,135,4|0|8,0:3|0:0|0:0,0:0:0:0:
194,33,63891,6,0,P|238:26|282:35,1,90,4|8,0:3|0:0,0:0:0:0:
358,83,64523,2,0,P|354:130|351:177,1,90,4|8,0:3|0:0,0:0:0:0:
277,225,65155,2,0,P|281:272|284:319,1,90,4|8,0:3|0:0,0:0:0:0:
215,373,65786,1,4,0:3:0:0:
96,308,66260,6,0,P|102:254|114:154,1,135,0|8,0:0|0:0,0:0:0:0:
166,102,67049,2,0,P|208:81|260:88,1,90,4|8,0:3|0:0,0:0:0:0:
321,29,67681,2,0,B|336:75|336:75|329:173,1,135,8|4,0:0|0:3,0:0:0:0:
422,315,68786,6,0,P|370:279|300:290,1,135,4|8,0:0|0:0,0:0:0:0:
230,344,69576,2,0,P|182:338|134:332,1,90,4|8,0:3|0:0,0:0:0:0:
72,273,70207,2,0,P|78:217|91:121,2,135,4|0|8,0:3|0:0|0:0,0:0:0:0:
140,332,71470,6,0,P|181:338|230:344,1,90,4|8,0:3|0:0,0:0:0:0:
289,276,72102,2,0,P|333:270|378:264,1,90,4|8,0:3|0:0,0:0:0:0:
453,215,72734,2,0,P|470:147|434:85,2,135,4|0|8,0:3|0:0|0:0,0:0:0:0:
380,161,73997,6,0,P|335:166|290:172,1,90,4|8,0:3|0:0,0:0:0:0:
214,124,74628,2,0,P|171:105|115:110,1,90,4|8,0:3|0:0,0:0:0:0:
56,159,75260,2,0,P|62:212|67:266,1,90,4|8,0:3|0:0,0:0:0:0:
102,330,75891,1,4,0:3:0:0:
224,272,76365,6,0,B|268:256|268:256|315:258|381:261,1,135,0|8,0:0|0:0,0:0:0:0:
436,218,77155,2,0,B|443:165|443:165|436:114,1,90,4|8,0:3|0:0,0:0:0:0:
368,71,77786,2,0,B|319:78|319:78|276:61|276:61|217:64,1,135,8|4,0:0|0:3,0:0:0:0:
152,96,78576,1,4,0:3:0:0:
95,165,78891,6,0,P|99:215|107:317,1,135,4|4,0:0|0:3,0:0:0:0:
169,363,79681,2,0,P|215:340|271:339,1,90,8|0,0:0|0:0,0:0:0:0:
340,355,80312,2,0,P|393:350|448:344,1,90,0|4,0:0|0:3,0:0:0:0:
443,256,80944,6,0,P|398:260|293:273,2,135,8|4|8,0:0|0:3|0:0,0:0:0:0:
503,189,82207,2,0,P|510:142|497:95,1,90,8|8,0:0|0:0,0:0:0:0:
424,52,82839,1,4,0:3:0:0:
424,52,83944,6,0,P|360:26|295:50,1,135,4|8,0:0|0:0,0:0:0:0:
247,118,84733,2,0,P|203:126|148:108,2,90,4|8|0,0:3|0:0|0:0,0:0:0:0:
205,37,85680,1,8,0:0:0:0:
115,31,85996,6,0,B|80:56|51:61|51:61|53:100|50:127,2,135,4|4|8,0:3|0:0|0:0,0:0:0:0:
205,37,87260,2,0,P|248:35|296:32,1,90,4|8,0:3|0:0,0:0:0:0:
385,28,87891,2,0,P|377:73|374:131,1,90,0|8,0:0|0:0,0:0:0:0:
442,175,88523,2,0,B|453:227|453:283|453:283|433:317,1,135,4|4,0:3|0:3,0:0:0:0:
