osu file format v14

[General]
AudioFilename: INFINITYZERO Music Clip.mp3
AudioLeadIn: 0
PreviewTime: 75829
Countdown: 0
SampleSet: Normal
StackLeniency: 0.7
Mode: 0
LetterboxInBreaks: 0
WidescreenStoryboard: 0

[Editor]
DistanceSpacing: 1.2
BeatDivisor: 4
GridSize: 32
TimelineZoom: 1

[Metadata]
Title:INFINITY ZERO
TitleUnicode:INFINITY≠ZERO
Artist:nano
ArtistUnicode:ナノ
Creator:Giralda
Version:Insane
Source:幕末高校生
Tags:bakumatsu koukousei kokosei kōkōsei kibbleru kihhou
BeatmapID:535188
BeatmapSetID:230022

[Difficulty]
HPDrainRate:7
CircleSize:4
OverallDifficulty:8
ApproachRate:9
SliderMultiplier:1.8
SliderTickRate:1

[Events]
//Background and Video events
0,0,"bg.jpg",0,0
//Break Periods
2,113049,122463
2,155018,159484
2,193276,201612
//Storyboard Layer 0 (Background)
//Storyboard Layer 1 (Fail)
//Storyboard Layer 2 (Pass)
//Storyboard Layer 3 (Foreground)
//Storyboard Sound Samples

[TimingPoints]
1656,722.89156626506,4,2,1,50,1,0
4186,-100,4,2,1,45,0,0
7800,-100,4,2,1,40,0,0
13222,-90.9090909090909,4,2,1,30,0,0
17559,-76.9230769230769,4,2,1,50,0,0
25404,319.148936170213,4,1,1,80,1,0
26042,319.148936170213,4,1,1,60,1,0
36573,-111.111111111111,4,1,1,70,0,0
46467,-100,4,1,1,70,0,0
75829,-200,4,1,1,70,0,0
76946,-100,4,1,1,80,0,1
87159,-133.333333333333,4,1,1,80,0,1
98010,-117.647058823529,4,1,1,80,0,1
98488,-105.263157894737,4,1,1,80,0,1
98967,-100,4,1,1,80,0,1
101361,-166.666666666667,4,1,1,80,0,1
102318,-133.333333333333,4,1,1,80,0,1
102637,-100,4,1,1,70,0,0
112850,-133.333333333333,4,2,1,70,0,0
131999,-133.333333333333,4,1,1,60,0,0
132637,-100,4,1,1,70,0,0
160722,-166.666666666667,4,1,1,50,0,0
161042,-166.666666666667,4,2,1,50,0,0
162637,-166.666666666667,4,1,1,50,0,0
163276,-166.666666666667,4,2,1,50,0,0
165190,-166.666666666667,4,1,1,50,0,0
165829,-166.666666666667,4,2,1,50,0,0
167744,-166.666666666667,4,1,1,50,0,0
168382,-166.666666666667,4,2,1,50,0,0
169659,-166.666666666667,4,1,1,50,0,0
170297,-133.333333333333,4,1,1,60,0,0
180510,-133.333333333333,4,2,1,70,0,0
202212,-200,4,1,1,70,0,0
203329,-100,4,1,1,100,0,1
218807,-100,4,1,1,100,0,0

[Colours]
Combo1 : 247,117,156
Combo2 : 227,17,17
Combo3 : 236,221,221

[HitObjects]
69,322,1656,6,0,P|158:317|249:314,1,180,0|2,0:0|0:0,0:0:0:0:
353,318,2740,1,0,0:0:0:0:
291,241,3101,2,0,P|283:197|278:152,2,90,0|0|2,0:0|0:0|0:0,0:0:0:0:
396,189,4186,1,0,0:0:0:0:
366,285,4547,2,0,P|291:329|218:284,1,180,0|2,0:0|0:0,0:0:0:0:
185,201,5631,1,0,0:0:0:0:
275,71,5993,2,0,B|318:156|238:156|291:247,2,180,2|0|2,0:0|0:0|0:0,0:0:0:0:
196,120,7800,6,0,P|149:125|106:128,1,90,0|2,0:0|0:0,0:0:0:0:
16,124,8523,1,0,0:0:0:0:
29,221,8884,2,0,P|73:216|118:213,1,90,2|0,0:0|0:0,0:0:0:0:
216,257,9607,2,0,L|210:348,1,90,2|0,0:0|0:0,0:0:0:0:
304,316,10330,2,0,P|392:311|484:307,2,180,0|2|0,0:0|0:0|0:0,0:0:0:0:
234,204,12137,2,0,P|278:210|323:215,1,90,0|2,0:0|0:0,0:0:0:0:
408,201,12860,1,0,0:0:0:0:
363,41,13222,6,0,P|356:93|351:142,1,99.0000030212403,2|0,0:0|0:0,0:0:0:0:
278,342,13945,2,0,P|272:292|266:243,1,99.0000030212403,2|0,0:0|0:0,0:0:0:0:
225,170,14487,1,0,0:0:0:0:
369,234,14668,2,0,L|473:239,1,99.0000030212403,2|0,0:0|0:0,0:0:0:0:
306,185,15210,2,0,L|296:86,2,99.0000030212403,0|2|2,0:0|0:0|0:0,0:0:0:0:
191,177,16113,2,0,P|139:164|93:159,1,99.0000030212403,2|0,0:0|0:0,0:0:0:0:
2,87,16836,2,0,P|51:81|99:69,1,99.0000030212403,2|0,0:0|0:0,0:0:0:0:
165,23,17378,1,0,0:0:0:0:
86,167,17559,6,0,P|96:227|107:285,1,116.999994644165,2|0,0:0|0:0,0:0:0:0:
292,157,18101,2,0,L|302:99|312:41,2,116.999994644165,0|2|2,0:0|0:0|0:0,0:0:0:0:
394,128,19005,2,0,P|453:120|510:114,1,116.999994644165,2|0,0:0|0:0,0:0:0:0:
332,254,19728,6,0,P|273:248|215:240,1,116.999994644165,2|0,0:0|0:0,0:0:0:0:
132,227,20270,1,0,0:0:0:0:
295,348,20451,2,0,P|354:340|412:336,1,116.999994644165,2|0,0:0|0:0,0:0:0:0:
132,227,20993,2,0,P|118:170|108:112,1,116.999994644165,2|0,0:0|0:0,0:0:0:0:
115,34,21535,1,2,0:0:0:0:
311,145,21896,6,0,P|371:154|427:160,1,116.999994644165,2|0,0:0|0:0,0:0:0:0:
258,213,22619,2,0,P|244:270|258:326,1,116.999994644165,2|0,0:0|0:0,0:0:0:0:
266,132,23342,2,0,P|280:75|266:19,1,116.999994644165,2|0,0:0|0:0,0:0:0:0:
115,273,24065,1,2,0:0:0:0:
115,273,25404,5,8,0:0:0:0:
132,272,25563,1,0,0:0:0:0:
150,271,25723,1,0,0:0:0:0:
167,269,25882,6,0,B|227:265|227:265|273:300|273:300|344:296,1,180,4|0,0:0|0:0,0:0:0:0:
421,242,26361,2,0,P|442:283|453:330,1,90,8|0,0:0|0:0,0:0:0:0:
278,188,26680,2,0,B|312:163|312:163|365:167,1,90,0|0,0:0|0:0,0:0:0:0:
167,269,26999,2,0,B|125:261|125:261|92:219,1,90,8|0,0:0|0:0,0:0:0:0:
278,188,27318,5,0,0:0:0:0:
241,329,27478,1,0,0:0:0:0:
190,188,27637,1,8,0:0:0:0:
304,272,27797,2,0,L|394:273,1,90,0|0,0:0|0:0,0:0:0:0:
190,188,28116,1,0,0:0:0:0:
348,353,28276,2,0,L|438:354,1,90,8|0,0:0|0:0,0:0:0:0:
241,329,28595,6,0,P|229:285|226:240,1,90,4|0,0:0|0:0,0:0:0:0:
367,95,28914,2,0,P|337:129|302:157,1,90,8|0,0:0|0:0,0:0:0:0:
103,120,29233,2,0,P|147:123|191:135,1,90
74,225,29552,1,8,0:0:0:0:
0,146,29712,1,0,0:0:0:0:
178,254,29871,6,0,P|222:250|266:238,1,90
435,328,30190,2,0,P|391:316|346:312,1,90,8|0,0:0|0:0,0:0:0:0:
220,321,30510,1,0,0:0:0:0:
316,240,30669,1,0,0:0:0:0:
290,363,30829,1,8,0:0:0:0:
242,246,30988,1,8,0:0:0:0:
349,311,31148,6,0,P|395:316|438:321,1,90,4|0,0:0|0:0,0:0:0:0:
489,178,31467,2,0,B|425:188|425:188|389:225|389:225|326:234,2,180,8|0|8,0:0|0:0|0:0,0:0:0:0:
343,153,32265,6,0,P|284:93|303:5,2,180,8|8|0,0:0|0:0|0:0,0:0:0:0:
466,42,33063,2,0,L|372:67,1,90,8|8,0:0|0:0,0:0:0:0:
435,229,33382,2,8,B|454:186|454:186|450:138,1,90,8|0,0:0|0:0,0:0:0:0:
334,247,33701,6,0,L|346:338,1,90,4|0,0:0|0:0,0:0:0:0:
225,307,34020,2,0,B|158:301|158:301|120:265|120:265|59:260,2,180,8|8|8,0:0|0:0|0:0,0:0:0:0:
391,177,34818,6,0,P|306:158|247:220,2,180,8|8|8,0:0|0:0|0:0,0:0:0:0:
163,358,35616,1,8,0:0:0:0:
157,322,35696,1,0,0:0:0:0:
152,286,35776,1,0,0:0:0:0:
148,250,35855,1,0,0:0:0:0:
144,214,35935,1,8,0:0:0:0:
177,227,36015,1,0,0:0:0:0:
213,227,36095,1,0,0:0:0:0:
247,220,36174,1,0,0:0:0:0:
274,197,36254,6,0,P|290:154|298:110,1,90,4|0,0:0|0:0,0:0:0:0:
235,43,36573,2,0,P|300:85|377:62,2,161.999995056153,8|0|8,0:0|0:0|0:0,0:0:0:0:
59,118,37371,6,0,P|134:95|200:137,1,161.999995056153,8|0,0:0|0:0,0:0:0:0:
235,43,37850,1,8,0:0:0:0:
123,182,38010,2,0,B|100:263|164:256|132:350,1,161.999995056153,0|0,0:0|0:0,0:0:0:0:
21,302,38488,2,0,P|29:341|44:378,1,80.9999975280763,8|0,0:0|0:0,0:0:0:0:
202,215,38807,5,8,0:0:0:0:
135,339,38967,1,8,0:0:0:0:
11,202,39127,2,0,B|70:200|70:200|103:162|103:162|155:159,2,161.999995056153,8|0|8,0:0|0:0|0:0,0:0:0:0:
199,227,39924,6,0,P|241:162|204:94,1,161.999995056153
126,65,40403,1,8,0:0:0:0:
332,184,40563,2,0,P|373:187|421:188,1,80.9999975280763
500,144,40882,1,0,0:0:0:0:
322,80,41042,2,0,P|280:91|242:103,1,80.9999975280763,8|0,0:0|0:0,0:0:0:0:
168,144,41361,5,8,0:0:0:0:
206,30,41520,1,8,0:0:0:0:
255,170,41680,2,0,P|265:252|271:331,2,161.999995056153,8|0|8,0:0|0:0|0:0,0:0:0:0:
365,224,42478,1,0,0:0:0:0:
179,279,42637,6,0,P|138:287|95:294,1,80.9999975280763
9,209,42956,2,0,P|48:201|88:194,1,80.9999975280763,8|0,0:0|0:0,0:0:0:0:
334,250,43276,2,0,P|257:251|215:186,1,161.999995056153,0|8,0:0|0:0,0:0:0:0:
214,185,43754,1,0,0:0:0:0:
330,108,43914,6,0,L|291:190,2,80.9999975280763
214,185,44393,2,0,P|256:250|334:250,1,161.999995056153,0|0,0:0|0:0,0:0:0:0:
446,191,44871,2,0,P|456:231|458:277,1,80.9999975280763
260,71,45190,5,0,0:0:0:0:
299,186,45350,1,0,0:0:0:0:
334,69,45510,1,8,0:0:0:0:
236,140,45669,1,0,0:0:0:0:
358,141,45829,1,8,0:0:0:0:
390,138,45909,1,0,0:0:0:0:
421,144,45988,1,0,0:0:0:0:
452,151,46068,1,0,0:0:0:0:
480,142,46148,1,8,0:0:0:0:
470,172,46228,1,0,0:0:0:0:
472,203,46307,1,0,0:0:0:0:
478,234,46387,1,0,0:0:0:0:
475,266,46467,6,0,P|470:310|466:355,1,90,4|0,0:0|0:0,0:0:0:0:
345,297,46786,2,0,P|303:291|255:287,1,90,8|0,0:0|0:0,0:0:0:0:
120,213,47105,2,0,P|205:221|257:152,1,180,0|8,0:0|0:0,0:0:0:0:
80,59,47584,1,0,0:0:0:0:
171,146,47744,5,0,0:0:0:0:
151,22,47903,1,0,0:0:0:0:
99,137,48063,1,8,0:0:0:0:
209,76,48222,2,0,P|298:64|388:59,1,180
476,20,48701,2,0,P|489:62|497:107,1,90,8|0,0:0|0:0,0:0:0:0:
380,320,49020,6,0,L|402:140,2,180,0|8|0,0:0|0:0|0:0,0:0:0:0:
291,350,49818,1,0,0:0:0:0:
467,358,49978,2,0,L|478:268,1,90,8|0,0:0|0:0,0:0:0:0:
342,222,50297,5,0,0:0:0:0:
380,321,50456,1,0,0:0:0:0:
416,161,50616,1,8,0:0:0:0:
247,260,50776,2,0,L|155:268,1,90
66,339,51095,1,0,0:0:0:0:
118,195,51254,1,8,0:0:0:0:
19,272,51414,1,0,0:0:0:0:
172,347,51573,6,0,L|261:355,1,90
380,321,51893,1,8,0:0:0:0:
307,167,52052,2,0,L|297:264,1,90
268,83,52371,1,0,0:0:0:0:
171,148,52531,2,0,P|128:154|82:158,1,90,8|0,0:0|0:0,0:0:0:0:
227,284,52850,5,0,0:0:0:0:
307,167,53010,1,0,0:0:0:0:
152,241,53169,1,8,0:0:0:0:
323,279,53329,1,0,0:0:0:0:
171,148,53488,2,0,P|165:103|162:54,1,90
258,19,53807,1,8,0:0:0:0:
258,19,53967,1,0,0:0:0:0:
336,90,54127,6,0,P|400:146|482:119,2,180,0|8|0,0:0|0:0|0:0,0:0:0:0:
396,236,54924,2,0,P|438:228|487:224,1,90,0|8,0:0|0:0,0:0:0:0:
340,325,55244,1,0,0:0:0:0:
246,247,55403,6,0,L|229:68,1,180,0|8,0:0|0:0,0:0:0:0:
228,67,55882,1,0,0:0:0:0:
111,30,56042,1,0,0:0:0:0:
307,105,56201,1,0,0:0:0:0:
155,155,56361,1,8,0:0:0:0:
339,23,56520,1,0,0:0:0:0:
329,209,56680,6,0,L|323:298,2,90,0|0|8,0:0|0:0|0:0,0:0:0:0:
307,105,57159,1,0,0:0:0:0:
422,214,57318,1,0,0:0:0:0:
491,80,57478,1,0,0:0:0:0:
329,209,57637,1,8,0:0:0:0:
499,153,57797,1,0,0:0:0:0:
255,29,57956,6,0,P|214:104|258:179,1,180,0|8,0:0|0:0,0:0:0:0:
397,98,58435,2,0,L|297:105,1,90
422,214,58754,1,0,0:0:0:0:
491,80,58914,1,8,0:0:0:0:
491,80,59073,1,0,0:0:0:0:
258,179,59233,6,0,P|214:104|255:29,1,180,0|8,0:0|0:0,0:0:0:0:
423,152,59712,1,0,0:0:0:0:
307,104,59871,1,8,0:0:0:0:
429,71,60031,1,0,0:0:0:0:
350,168,60190,1,8,0:0:0:0:
356,41,60350,1,0,0:0:0:0:
423,152,60510,6,0,P|410:199|386:246,1,90
469,301,60829,2,0,P|427:327|378:346,1,90,8|0,0:0|0:0,0:0:0:0:
255,215,61148,2,0,P|212:199|168:191,1,90
252,317,61467,2,0,P|293:300|331:276,1,90,8|0,0:0|0:0,0:0:0:0:
84,124,61786,6,0,L|100:318,1,180,4|8,0:0|0:0,0:0:0:0:
151,64,62265,1,0,0:0:0:0:
9,144,62424,1,0,0:0:0:0:
161,195,62584,1,0,0:0:0:0:
280,96,62744,2,0,P|330:85|376:79,1,90,8|0,0:0|0:0,0:0:0:0:
266,288,63063,6,0,B|244:251|244:251|244:197,1,90
497,285,63382,2,0,B|484:328|484:328|435:350,1,90,8|0,0:0|0:0,0:0:0:0:
326,195,63701,2,0,L|505:184,1,180,0|8,0:0|0:0,0:0:0:0:
505,184,64180,1,0,0:0:0:0:
239,266,64339,6,0,P|245:221|255:177,1,90
342,106,64659,2,0,P|332:149|325:194,1,90,8|0,0:0|0:0,0:0:0:0:
122,331,64978,2,0,P|128:286|138:242,1,90
9,117,65297,2,0,P|18:160|25:205,1,90,8|0,0:0|0:0,0:0:0:0:
207,160,65616,6,0,P|216:116|223:71,1,90
273,286,65935,2,0,P|313:310|357:325,1,90,8|0,0:0|0:0,0:0:0:0:
476,208,66254,2,0,P|431:214|389:230,1,90
188,343,66573,2,0,P|164:304|149:262,1,90,8|0,0:0|0:0,0:0:0:0:
205,177,66893,6,0,P|140:233|57:210,1,180,4|8,0:0|0:0,0:0:0:0:
56,209,67371,1,0,0:0:0:0:
188,343,67531,2,0,P|232:336|277:335,1,90
441,265,67850,2,0,P|396:264|351:256,1,90,8|0,0:0|0:0,0:0:0:0:
266,214,68169,5,0,0:0:0:0:
336,346,68329,1,0,0:0:0:0:
501,192,68488,2,0,P|456:184|411:183,1,90,8|0,0:0|0:0,0:0:0:0:
336,346,68807,1,0,0:0:0:0:
441,265,68967,1,0,0:0:0:0:
267,214,69127,2,0,P|222:208|177:203,1,90,8|0,0:0|0:0,0:0:0:0:
337,346,69446,6,0,P|377:270|362:175,1,180,4|8,0:0|0:0,0:0:0:0:
253,304,69924,1,0,0:0:0:0:
415,116,70084,2,0,P|370:108|325:107,1,90,0|0,0:0|0:0,0:0:0:0:
441,265,70403,2,0,P|453:308|464:351,1,90,8|0,0:0|0:0,0:0:0:0:
253,304,70722,6,0,B|171:277|154:327|77:291,1,180,4|8,0:0|0:0,0:0:0:0:
321,172,71201,1,0,0:0:0:0:
143,225,71361,2,0,P|99:214|63:187,1,90
420,148,71680,2,0,L|408:191|396:234,1,90,8|8,0:0|0:0,0:0:0:0:
253,304,71999,5,0,0:0:0:0:
202,217,72159,2,0,L|294:210,1,90,0|8,0:0|0:0,0:0:0:0:
253,304,72478,1,8,0:0:0:0:
155,134,72638,2,0,L|247:127,1,90
253,304,72957,1,8,0:0:0:0:
110,52,73116,6,0,L|202:45,1,90,8|0,0:0|0:0,0:0:0:0:
329,124,73435,1,0,0:0:0:0:
203,217,73595,2,0,L|113:223,1,90,8|0,0:0|0:0,0:0:0:0:
216,63,73914,1,0,0:0:0:0:
322,235,74073,1,0,0:0:0:0:
322,235,74153,1,0,0:0:0:0:
322,235,74233,2,0,P|340:280|351:321,1,90,8|0,0:0|0:0,0:0:0:0:
203,217,74552,6,0,P|191:173|174:131,1,90,4|0,0:0|0:0,0:0:0:0:
432,61,74871,2,0,P|415:102|403:146,1,90,8|0,0:0|0:0,0:0:0:0:
132,343,75190,2,0,P|120:299|103:257,1,90
325,157,75510,1,8,0:0:0:0:
203,217,75669,1,8,0:0:0:0:
428,345,75829,6,0,B|441:306|441:306|423:287|423:287|444:237|444:237|431:204|431:204|445:172|445:172|415:141|427:92,1,270,0|8,0:0|0:0,0:0:0:0:
480,26,76946,6,0,P|405:73|319:57,1,180,4|8,0:0|0:0,0:0:0:0:
178,217,77424,2,0,L|271:206,1,90,8|0,0:0|0:0,0:0:0:0:
367,192,77744,1,8,0:0:0:0:
292,314,77903,1,0,0:0:0:0:
210,137,78063,1,8,0:0:0:0:
364,275,78222,1,0,0:0:0:0:
480,85,78382,6,0,P|437:100|393:107,1,90
290,52,78701,1,8,0:0:0:0:
367,192,78861,1,0,0:0:0:0:
367,192,78940,1,0,0:0:0:0:
367,192,79020,2,0,P|376:242|384:285,1,90,8|8,0:0|0:0,0:0:0:0:
380,100,79339,1,8,0:0:0:0:
268,155,79499,6,0,B|239:171|199:156|199:156|171:173|171:173|131:157|97:170,1,180,4|0,0:0|0:0,0:0:0:0:
168,336,79978,2,0,P|198:303|214:261,1,90,8|0,0:0|0:0,0:0:0:0:
41,245,80297,2,0,P|45:289|67:328,1,90
379,294,80616,2,0,L|334:291|289:288,1,90,8|8,0:0|0:0,0:0:0:0:
446,354,80935,6,0,P|477:272|457:174,1,180,0|8,0:0|0:0,0:0:0:0:
512,110,81414,2,0,P|465:103|409:99,1,90,0|8,0:0|0:0,0:0:0:0:
260,175,81733,2,0,P|304:171|349:164,1,90,8|0,0:0|0:0,0:0:0:0:
215,84,82052,6,0,L|233:266,1,180,4|0,0:0|0:0,0:0:0:0:
161,351,82531,1,8,0:0:0:0:
323,279,82690,1,0,0:0:0:0:
144,239,82850,1,0,0:0:0:0:
273,352,83010,1,0,0:0:0:0:
66,279,83169,2,0,P|63:232|60:186,1,90,8|0,0:0|0:0,0:0:0:0:
24,63,83488,5,0,0:0:0:0:
144,136,83648,2,0,L|233:143,1,90,0|8,0:0|0:0,0:0:0:0:
322,212,83967,1,0,0:0:0:0:
233,280,84127,2,0,L|143:272,1,90,8|8,0:0|0:0,0:0:0:0:
66,279,84446,1,8,0:0:0:0:
272,352,84605,6,0,P|349:308|433:333,1,180,4|0,0:0|0:0,0:0:0:0:
233,280,85084,1,8,0:0:0:0:
144,262,85244,1,0,0:0:0:0:
56,244,85403,1,0,0:0:0:0:
207,192,85563,2,0,P|218:148|226:104,1,90,0|8,0:0|0:0,0:0:0:0:
177,31,85882,1,0,0:0:0:0:
329,130,86042,5,0,0:0:0:0:
329,130,86201,1,0,0:0:0:0:
417,179,86361,2,0,P|464:252|426:330,1,180,8|8,0:0|0:0,0:0:0:0:
293,274,86839,2,0,L|393:258,1,90,4|8,3:0|0:3,0:0:0:0:
205,321,87159,6,0,B|155:321|155:321|129:350|129:350|82:312,1,135.000005149842,4|0,0:0|0:0,0:0:0:0:
30,241,87637,2,0,L|107:239,1,67.5000025749208,8|0,0:0|0:0,0:0:0:0:
231,216,87956,2,0,P|193:162|198:96,1,135.000005149842,8|8,0:0|0:0,0:0:0:0:
97,239,88435,1,0,0:0:0:0:
204,322,88595,6,0,L|275:315,1,67.5000025749208,0|8,0:0|0:0,0:0:0:0:
358,219,88914,1,8,0:0:0:0:
451,281,89073,1,4,0:3:0:0:
448,307,89153,1,0,0:0:0:0:
446,334,89233,1,8,0:3:0:0:
358,219,89393,2,0,P|351:185|345:152,1,67.5000025749208,0|8,0:0|0:0,0:0:0:0:
425,239,89712,6,0,L|291:258,1,135.000005149842,4|0,0:0|0:0,0:0:0:0:
212,241,90190,1,0,0:0:0:0:
131,227,90350,1,0,0:0:0:0:
273,179,90510,2,0,P|298:116|290:50,1,135.000005149842,8|0,0:0|0:0,0:0:0:0:
290,50,90988,1,0,0:0:0:0:
378,147,91148,6,0,P|409:157|443:164,1,67.5000025749208,0|8,0:0|0:0,0:0:0:0:
500,97,91467,1,0,0:0:0:0:
434,269,91627,2,0,L|426:340,1,67.5000025749208,0|8,0:0|0:0,0:0:0:0:
310,306,91946,2,0,P|276:300|242:297,1,67.5000025749208,8|8,0:0|0:0,0:0:0:0:
168,348,92265,6,0,P|200:290|187:225,1,135.000005149842,4|0,0:0|0:0,0:0:0:0:
54,290,92744,1,0,0:0:0:0:
54,290,92903,2,0,L|130:280,1,67.5000025749208,0|8,0:0|0:0,0:0:0:0:
259,134,93222,2,0,L|183:144,1,67.5000025749208
300,209,93542,6,0,L|314:74,1,135.000005149842,0|8,0:0|0:0,0:0:0:0:
226,36,94020,2,0,L|145:29,1,67.5000025749208
89,174,94339,2,0,L|21:179,2,67.5000025749208,8|8|8,0:0|0:0|0:0,0:0:0:0:
159,248,94818,6,0,P|208:293|274:287,1,135.000005149842,4|0,0:0|0:0,0:0:0:0:
322,212,95297,2,0,L|338:146,1,67.5000025749208,8|0,0:0|0:0,0:0:0:0:
227,36,95616,2,0,L|243:101,1,67.5000025749208,8|0,0:0|0:0,0:0:0:0:
437,75,95935,2,0,P|407:59|374:49,1,67.5000025749208,0|0,0:0|0:0,0:0:0:0:
439,172,96254,6,0,P|471:161|501:146,1,67.5000025749208,0|8,0:0|0:0,0:0:0:0:
326,123,96573,1,0,0:0:0:0:
331,149,96653,1,0,0:0:0:0:
336,175,96733,1,0,0:0:0:0:
307,321,96893,1,8,0:0:0:0:
442,276,97052,1,8,0:0:0:0:
243,213,97212,1,8,0:0:0:0:
390,342,97371,1,8,0:0:0:0:
336,175,97531,6,0,L|322:102,1,67.5000025749208,4|0,0:0|0:0,0:0:0:0:
437,31,97850,1,8,0:0:0:0:
437,31,98010,2,0,L|432:110,1,76.5000014591217
390,343,98329,1,8,0:0:0:0:
390,343,98489,2,0,L|383:256,1,85.4999977169037,8|0,0:0|0:0,0:0:0:0:
336,176,98807,5,0,0:0:0:0:
336,176,98967,2,0,P|296:201|254:215,1,90,0|8,0:0|0:0,0:0:0:0:
146,141,99286,1,0,0:0:0:0:
248,38,99446,1,0,0:0:0:0:
245,64,99526,1,0,0:0:0:0:
243,90,99605,1,8,0:0:0:0:
246,260,99765,2,0,L|261:351,1,90,8|8,0:0|0:0,0:0:0:0:
146,141,100084,5,0,0:0:0:0:
20,268,100244,1,0,0:0:0:0:
0,175,100403,1,8,0:0:0:0:
166,230,100563,1,0,0:0:0:0:
61,105,100722,1,0,0:0:0:0:
104,297,100882,1,0,0:0:0:0:
61,105,101042,1,0,0:0:0:0:
241,59,101202,1,0,0:0:0:0:
284,251,101361,6,0,B|375:237|394:306|493:289,1,215.999993408203,0|8,0:0|0:0,0:0:0:0:
479,67,102318,6,0,P|417:92|355:70,1,135.000005149842,8|4,0:0|0:0,0:0:0:0:
295,3,102797,5,0,0:0:0:0:
410,180,102956,2,0,P|454:174|499:172,1,90,8|0,0:0|0:0,0:0:0:0:
437,282,103276,2,0,P|392:283|347:289,1,90
286,168,103595,1,8,0:0:0:0:
286,168,103754,1,0,0:0:0:0:
415,361,103914,6,0,P|459:360|504:354,1,90
286,168,104233,2,0,L|294:258,1,90,8|0,0:0|0:0,0:0:0:0:
190,111,104552,2,0,L|198:201,1,90
392,225,104871,1,8,0:0:0:0:
295,287,105031,1,0,0:0:0:0:
286,168,105190,5,4,0:0:0:0:
386,309,105350,1,0,0:0:0:0:
481,215,105510,2,0,L|386:225,1,90,8|0,0:0|0:0,0:0:0:0:
286,168,105829,1,0,0:0:0:0:
386,309,105988,2,0,L|481:319,1,90,8|8,0:0|0:0,0:0:0:0:
269,357,106307,1,0,0:0:0:0:
275,199,106467,6,0,P|269:155|264:105,1,90
263,26,106786,1,8,0:0:0:0:
171,134,106946,1,0,0:0:0:0:
365,234,107105,2,0,P|360:189|354:144,1,90
180,231,107424,2,0,P|184:275|190:320,1,90,8|0,0:0|0:0,0:0:0:0:
90,242,107744,6,0,L|1:231,1,90,4|0,0:0|0:0,0:0:0:0:
273,198,108063,2,0,P|309:119|260:48,2,180,8|0|8,0:0|0:0|0:0,0:0:0:0:
57,137,108861,6,0,B|140:100|147:171|231:127,2,180
37,155,109579,1,0,0:0:0:0:
24,179,109659,1,0,0:0:0:0:
87,339,109818,1,0,0:0:0:0:
86,339,109978,2,0,P|96:295|102:248,1,90,8|0,0:0|0:0,0:0:0:0:
40,70,110297,6,0,P|74:98|117:115,1,90,4|0,0:0|0:0,0:0:0:0:
264,113,110616,2,0,P|229:192|277:264,2,180,8|0|8,0:0|0:0|0:0,0:0:0:0:
451,302,111414,6,0,B|392:308|392:308|347:348|347:348|280:356,2,180
430,129,112212,1,0,0:0:0:0:
433,155,112292,1,0,0:0:0:0:
436,181,112371,1,4,0:3:0:0:
339,84,112531,1,8,0:3:0:0:
241,143,112690,6,0,L|141:156,1,90,0|4,0:0|0:0,0:0:0:0:
86,252,123063,6,0,P|153:247|220:245,1,135.000005149842,4|0,0:0|0:0,0:0:0:0:
312,265,123542,1,0,0:0:0:0:
312,265,123701,2,0,L|306:337,1,67.5000025749208,2|0,0:0|0:0,0:0:0:0:
398,252,124020,1,0,0:0:0:0:
398,252,124180,2,0,L|404:180,1,67.5000025749208,2|0,0:0|0:0,0:0:0:0:
470,131,124499,6,0,P|404:152|345:126,1,135.000005149842,2|2,0:0|0:0,0:0:0:0:
286,64,124978,2,0,L|218:90,1,67.5000025749208,2|0,0:0|0:0,0:0:0:0:
139,47,125297,1,0,0:0:0:0:
139,47,125456,1,2,0:0:0:0:
147,202,125616,6,0,P|208:178|270:200,1,135.000005149842,2|2,0:0|0:0,0:0:0:0:
353,269,126095,1,0,0:0:0:0:
353,269,126254,2,0,L|361:202,1,67.5000025749208,2|0,0:0|0:0,0:0:0:0:
460,90,126573,1,0,0:0:0:0:
460,90,126733,2,0,L|451:156,1,67.5000025749208,2|0,0:0|0:0,0:0:0:0:
283,210,127052,6,0,P|215:217|145:219,1,135.000005149842,2|2,0:0|0:0,0:0:0:0:
51,168,127531,1,2,0:0:0:0:
142,89,127690,2,0,L|154:18,2,67.5000025749208,0|0|0,0:0|0:0|0:0,0:0:0:0:
231,126,128169,6,0,P|298:128|365:135,1,135.000005149842,2|0,0:0|0:0,0:0:0:0:
463,126,128648,2,0,P|460:159|452:192,1,67.5000025749208,0|2,0:0|0:0,0:0:0:0:
362,313,128967,1,2,0:0:0:0:
361,313,129127,2,0,P|393:299|426:295,1,67.5000025749208,0|2,0:0|0:0,0:0:0:0:
259,265,129446,6,0,P|225:260|194:247,1,67.5000025749208,2|0,0:0|0:0,0:0:0:0:
106,133,129765,2,0,P|168:158|232:135,1,135.000005149842,2|0,0:0|0:0,0:0:0:0:
354,110,130244,1,2,0:0:0:0:
354,110,130403,2,0,L|350:180,1,67.5000025749208,0|2,0:0|0:0,0:0:0:0:
416,242,130722,6,0,P|354:216|291:237,1,135.000005149842,2|0,0:0|0:0,0:0:0:0:
101,174,131361,2,0,P|164:194|225:169,1,135.000005149842,2|0,0:0|0:0,0:0:0:0:
358,51,131999,1,0,0:0:0:0:
352,132,132159,1,0,0:0:0:0:
345,212,132318,1,0,0:0:0:0:
337,292,132478,1,0,0:0:0:0:
256,185,132637,5,8,0:0:0:0:
431,262,132797,1,8,0:0:0:0:
266,322,132956,1,8,0:0:0:0:
410,179,133116,1,8,0:0:0:0:
191,244,133276,6,0,L|94:252,1,90,4|0,0:0|0:0,0:0:0:0:
27,165,133595,2,0,P|73:240|43:321,2,180,8|0|8,0:0|0:0|0:0,0:0:0:0:
74,80,134393,2,0,P|112:103|156:112,1,90,8|0,0:0|0:0,0:0:0:0:
249,34,134712,6,0,B|252:102|252:102|279:142|279:142|283:212,1,180
265,319,135190,2,0,P|252:270|256:229,1,90,0|0,0:0|0:0,0:0:0:0:
444,336,135510,2,0,P|396:345|346:352,1,90,8|0,0:0|0:0,0:0:0:0:
471,169,135829,6,0,L|487:267,1,90
492,81,136148,1,8,0:0:0:0:
492,81,136307,1,0,0:0:0:0:
393,136,136467,2,0,P|310:165|237:113,1,180,0|8,0:0|0:0,0:0:0:0:
258,233,136946,6,0,P|264:281|269:326,2,90,0|0|8,0:0|0:0|0:0,0:0:0:0:
176,166,137424,2,0,P|93:136|20:188,1,180,8|0,0:0|0:0,0:0:0:0:
22,184,137903,1,0,0:0:0:0:
113,313,138063,2,0,L|108:224,1,90,8|8,0:0|0:0,0:0:0:0:
24,287,138382,5,0,0:0:0:0:
198,341,138542,1,0,0:0:0:0:
277,186,138701,2,0,L|263:280,1,90,8|0,0:0|0:0,0:0:0:0:
376,214,139020,2,0,B|402:201|429:208|429:208|458:144|427:79,1,180,0|8,0:0|0:0,0:0:0:0:
434,291,139499,6,0,P|485:267|507:235,1,90
357,133,139818,2,0,L|173:117,1,180,0|0,0:0|0:0,0:0:0:0:
116,209,140297,2,0,P|123:255|127:299,1,90
25,189,140616,2,0,P|20:144|14:99,1,90,8|0,0:0|0:0,0:0:0:0:
239,261,140935,6,0,P|245:305|249:350,1,90
204,151,141254,1,8,0:0:0:0:
204,151,141414,1,0,0:0:0:0:
324,222,141573,2,0,P|409:233|452:160,1,180,0|8,0:0|0:0,0:0:0:0:
333,84,142052,6,0,L|377:166,1,90
232,289,142371,2,0,B|292:299|292:299|330:335|330:335|400:342,1,180
465,275,142850,2,0,P|479:324|482:368,1,90
475,180,143169,2,0,P|432:198|387:204,1,90,8|0,0:0|0:0,0:0:0:0:
297,160,143488,5,0,0:0:0:0:
297,160,143648,1,0,0:0:0:0:
432,29,143807,2,0,P|430:73|421:122,1,90,8|0,0:0|0:0,0:0:0:0:
307,268,144127,2,0,P|350:258|395:254,1,90
297,160,144446,2,0,P|252:156|208:146,1,90,8|0,0:0|0:0,0:0:0:0:
143,56,144765,6,0,P|178:135|139:212,1,180,0|8,0:0|0:0,0:0:0:0:
267,84,145244,2,0,B|329:72|329:72|356:26|356:26|425:10,1,180
320,245,145722,2,0,P|301:204|296:159,1,90,8|0,0:0|0:0,0:0:0:0:
476,90,146042,6,0,P|475:179|435:261,1,180,0|8,0:0|0:0,0:0:0:0:
436,259,146520,1,0,0:0:0:0:
282,164,146680,2,0,P|327:169|369:186,1,90
216,54,146999,2,0,P|212:98|196:140,1,90,8|0,0:0|0:0,0:0:0:0:
223,239,147318,6,0,P|161:177|74:182,1,180,0|8,0:0|0:0,0:0:0:0:
181,325,147797,2,0,P|225:321|270:315,1,90
423,193,148116,1,0,0:0:0:0:
362,284,148276,2,0,P|368:328|375:372,1,90,8|0,0:0|0:0,0:0:0:0:
464,258,148595,6,0,P|496:172|436:115,1,180,0|8,0:0|0:0,0:0:0:0:
263,242,149073,2,0,B|329:236|329:236|361:196|361:196|430:192,1,180
259,329,149552,2,0,P|213:318|167:312,1,90,8|0,0:0|0:0,0:0:0:0:
34,237,149871,6,0,P|78:230|122:220,1,90
204,107,150190,1,8,0:0:0:0:
204,107,150350,1,0,0:0:0:0:
117,58,150510,2,0,L|25:53,1,90
270,223,150829,2,0,P|277:180|281:133,1,90,8|0,0:0|0:0,0:0:0:0:
332,275,151148,6,0,P|391:338|477:326,1,180,0|8,0:0|0:0,0:0:0:0:
413,168,151627,2,0,L|419:263,1,90
469,106,151946,1,0,0:0:0:0:
328,144,152105,2,0,L|238:127,1,90,8|0,0:0|0:0,0:0:0:0:
333,275,152424,5,0,0:0:0:0:
249,40,152584,2,0,L|160:56,1,90,0|8,0:0|0:0,0:0:0:0:
60,17,152903,1,0,0:0:0:0:
84,166,153063,2,0,P|93:209|97:254,1,90
238,240,153382,2,0,P|228:283|224:328,1,90,8|0,0:0|0:0,0:0:0:0:
181,152,153701,6,0,P|241:214|327:204,1,180,0|8,0:0|0:0,0:0:0:0:
275,33,154180,2,0,P|268:79|276:128,1,90
274,121,154499,1,0,0:0:0:0:
396,50,154659,2,0,L|486:38,1,90,8|0,0:0|0:0,0:0:0:0:
97,88,160084,6,0,P|99:132|108:177,1,90,8|0,0:0|0:0,0:0:0:0:
205,291,160403,1,0,0:0:0:0:
205,291,160563,2,0,P|213:246|215:202,1,90,0|0,0:0|0:0,0:0:0:0:
390,56,161042,6,0,P|340:77|287:71,2,107.999996704102,0|2|0,0:0|0:0|0:0,0:0:0:0:
489,223,161999,2,0,P|436:209|382:210,1,107.999996704102,2|0,0:0|0:0,0:0:0:0:
253,247,162637,6,0,P|245:221|241:194,1,53.9999983520508,8|8,0:0|0:0,0:0:0:0:
332,118,162956,2,0,P|328:144|320:170,1,53.9999983520508,8|8,0:0|0:0,0:0:0:0:
242,59,163276,1,2,0:0:0:0:
121,237,163914,1,2,0:0:0:0:
42,35,164552,1,2,0:0:0:0:
131,139,165190,6,0,P|157:148|183:152,1,53.9999983520508,8|8,0:0|0:0,0:0:0:0:
340,82,165510,2,0,P|313:86|288:95,1,53.9999983520508,8|8,0:0|0:0,0:0:0:0:
230,268,165829,2,0,L|357:261,1,107.999996704102,2|0,0:0|0:0,0:0:0:0:
400,174,166467,5,2,0:0:0:0:
405,194,166786,1,0,0:0:0:0:
484,87,167105,1,2,0:0:0:0:
479,107,167424,1,0,0:0:0:0:
445,311,167744,6,0,P|453:285|459:258,1,53.9999983520508,8|8,0:0|0:0,0:0:0:0:
326,183,168063,2,0,P|331:209|340:235,1,53.9999983520508,8|8,0:0|0:0,0:0:0:0:
365,96,168382,1,0,0:0:0:0:
239,271,169020,5,0,0:0:0:0:
147,75,169659,2,0,B|157:99|157:99|159:126,1,53.9999983520508,8|8,0:0|0:0,0:0:0:0:
38,248,169978,2,0,B|28:224|28:224|25:196,1,53.9999983520508,8|8,0:0|0:0,0:0:0:0:
123,327,170297,6,0,B|173:323|173:323|202:303|202:303|251:299,1,135.000005149842,0|8,0:0|0:0,0:0:0:0:
348,252,170776,2,0,P|344:285|338:318,1,67.5000025749208
413,104,171254,2,0,P|416:137|422:170,1,67.5000025749208,8|0,0:0|0:0,0:0:0:0:
341,47,171573,5,0,0:0:0:0:
341,47,171733,1,0,0:0:0:0:
278,106,171893,2,0,L|134:113,1,135.000005149842,8|0,0:0|0:0,0:0:0:0:
143,112,172371,1,0,0:0:0:0:
58,61,172531,6,0,P|41:124|75:180,1,135.000005149842,8|0,0:0|0:0,0:0:0:0:
225,34,173010,2,0,L|149:38,2,67.5000025749208,0|8|0,0:0|0:0|0:0,0:0:0:0:
282,110,173488,2,0,P|349:103|416:98,1,135.000005149842,0|8,0:0|0:0,0:0:0:0:
416,98,173967,1,0,0:0:0:0:
290,194,174127,6,0,L|256:191|222:188,1,67.5000025749208
105,119,174446,2,0,P|122:184|100:247,1,135.000005149842,8|0,0:0|0:0,0:0:0:0:
50,337,174924,2,0,P|83:332|116:337,1,67.5000025749208,0|8,0:0|0:0,0:0:0:0:
198,278,175244,1,0,0:0:0:0:
197,277,175403,6,0,P|253:312|319:308,1,135.000005149842,0|8,0:0|0:0,0:0:0:0:
417,359,175882,2,0,P|418:325|412:292,1,67.5000025749208,0|0,0:0|0:0,0:0:0:0:
263,124,176361,2,0,L|319:187,1,67.5000025749208,8|0,0:0|0:0,0:0:0:0:
432,172,176680,6,0,L|376:109,1,67.5000025749208
173,47,176999,2,0,B|168:96|168:96|183:129|183:129|176:178,1,135.000005149842,8|0,0:0|0:0,0:0:0:0:
86,174,177478,2,0,L|97:240,1,67.5000025749208,0|8,0:0|0:0,0:0:0:0:
338,105,177956,6,0,B|313:81|313:81|280:74,1,67.5000025749208
359,246,178276,2,0,B|391:239|391:239|416:215,1,67.5000025749208,8|0,0:0|0:0,0:0:0:0:
242,203,178595,2,0,L|272:334,1,135.000005149842,0|8,0:0|0:0,0:0:0:0:
156,99,179073,1,0,0:0:0:0:
308,118,179233,6,0,P|376:111|446:103,1,135.000005149842,0|8,0:0|0:0,0:0:0:0:
442,103,179712,1,0,0:0:0:0:
427,204,179871,2,0,L|418:278,1,67.5000025749208
328,339,180190,2,0,L|320:272,1,67.5000025749208,8|0,0:0|0:0,0:0:0:0:
362,79,180510,6,0,P|359:112|354:149,2,67.5000025749208,0|0|8,0:0|0:0|0:1,0:0:0:0:
272,156,180988,2,0,P|213:185|148:171,1,135.000005149842,2|0,0:2|0:0,0:0:0:0:
234,266,181467,2,0,L|303:257,1,67.5000025749208,8|0,0:1|0:0,0:0:0:0:
120,253,181786,6,0,P|161:306|160:372,1,135.000005149842,0|8,0:0|0:1,0:0:0:0:
160,372,182265,1,0,0:0:0:0:
28,246,182424,2,0,P|23:212|19:177,1,67.5000025749208
123,86,182743,2,0,P|119:119|114:152,1,67.5000025749208,8|0,0:1|0:0,0:0:0:0:
199,38,183063,6,0,P|266:46|334:53,1,135.000005149842,4|8,0:0|0:1,0:0:0:0:
425,25,183542,1,0,0:0:0:0:
311,199,183701,2,0,P|301:166|299:132,1,67.5000025749208
425,25,184020,1,8,0:1:0:0:
425,25,184180,1,0,0:0:0:0:
508,118,184339,6,0,P|452:153|386:143,1,135.000005149842,0|8,0:0|0:1,0:0:0:0:
478,244,184818,2,0,P|491:276|501:306,1,67.5000025749208
369,229,185137,2,0,P|336:218|303:215,1,67.5000025749208,0|12,0:0|0:1,0:0:0:0:
187,316,185456,1,0,0:0:0:0:
187,316,185616,6,0,P|220:313|252:302,1,67.5000025749208,4|0,0:0|0:0,0:0:0:0:
220,138,185935,2,0,P|211:170|208:204,1,67.5000025749208,8|0,0:1|0:0,0:0:0:0:
108,40,186254,2,0,P|116:72|119:106,1,67.5000025749208
28,182,186573,1,8,0:1:0:0:
28,182,186733,1,0,0:0:0:0:
152,271,186893,6,0,B|197:267|197:267|230:248|230:248|282:246,1,135.000005149842,0|8,0:0|0:1,0:0:0:0:
406,363,187371,2,0,L|342:339,1,67.5000025749208
364,177,187690,2,0,B|384:206|384:206|386:238,1,67.5000025749208,0|8,0:0|0:1,0:0:0:0:
449,25,188010,1,0,0:0:0:0:
402,104,188169,6,0,P|351:145|287:132,1,135.000005149842,4|8,0:0|0:1,0:0:0:0:
287,132,188648,1,0,0:0:0:0:
392,243,188807,2,0,B|399:292|399:292|421:325|421:325|427:370,1,135.000005149842,0|8,0:0|0:1,0:0:0:0:
427,370,189286,1,0,0:0:0:0:
305,233,189446,6,0,P|272:223|239:219,1,67.5000025749208
281,374,189765,2,0,P|314:370|346:360,1,67.5000025749208,8|0,0:1|0:0,0:0:0:0:
148,311,190084,1,8,0:1:0:0:
70,292,190244,1,0,1:0:0:0:
238,262,190403,1,8,0:1:0:0:
94,367,190563,1,8,0:1:0:0:
89,177,202212,6,0,B|126:201|173:208|173:208|220:191|261:199,1,180,0|8,2:0|0:0,0:0:0:0:
261,198,203329,6,0,P|295:277|380:284,1,180,4|0,0:0|0:0,0:0:0:0:
397,134,203807,2,0,L|344:210,1,90,8|0,0:0|0:0,0:0:0:0:
129,119,204127,2,0,L|173:212,1,90,0|0,0:0|0:0,0:0:0:0:
320,70,204446,2,0,P|305:112|295:156,1,90,8|0,0:0|0:0,0:0:0:0:
187,14,204765,6,0,P|201:56|211:100,1,90
92,101,205084,1,8,0:0:0:0:
202,186,205244,1,0,0:0:0:0:
202,186,205323,1,0,0:0:0:0:
201,186,205403,2,0,P|244:175|289:174,1,90,8|8,0:0|0:0,0:0:0:0:
258,272,205722,1,8,0:0:0:0:
361,74,205882,6,0,B|369:134|369:134|400:175|400:175|412:245,1,180,4|0,0:0|0:0,0:0:0:0:
404,341,206361,2,0,B|378:303|378:303|373:258,1,90,8|0,0:0|0:0,0:0:0:0:
450,109,206680,2,0,B|475:146|475:146|480:191,1,90,0|0,0:0|0:0,0:0:0:0:
294,128,206999,2,0,P|250:119|206:115,1,90,8|0,0:0|0:0,0:0:0:0:
78,251,207318,6,0,P|166:255|237:203,1,180,0|8,0:0|0:0,0:0:0:0:
239,354,207797,2,0,P|195:341|151:337,1,90,0|8,0:0|0:0,0:0:0:0:
314,238,208116,2,0,P|313:282|324:326,1,90,8|8,0:0|0:0,0:0:0:0:
483,186,208435,6,0,P|415:141|324:166,1,180,4|0,0:0|0:0,0:0:0:0:
445,343,208914,2,0,P|467:304|478:260,1,90,8|0,0:0|0:0,0:0:0:0:
493,31,209233,2,0,P|454:54|411:65,1,90,0|0,0:0|0:0,0:0:0:0:
194,28,209552,1,8,0:0:0:0:
286,85,209712,6,0,B|330:163|246:181|287:260,1,180
285,257,210190,1,8,0:0:0:0:
242,357,210350,1,0,0:0:0:0:
399,363,210510,1,8,0:0:0:0:
242,357,210669,2,0,L|146:351,1,90,8|8,0:0|0:0,0:0:0:0:
33,282,210988,6,0,P|119:276|163:201,1,180,4|0,0:0|0:0,0:0:0:0:
31,123,211467,2,0,L|82:214,1,90,8|0,0:0|0:0,0:0:0:0:
157,101,211786,2,0,L|112:22,1,90,0|0,0:0|0:0,0:0:0:0:
263,221,212105,2,0,P|252:266|246:315,1,90,8|0,0:0|0:0,0:0:0:0:
389,130,212424,6,0,P|394:85|405:41,1,90
478,90,212744,1,8,0:0:0:0:
308,158,212903,1,0,0:0:0:0:
395,310,213063,1,0,0:0:0:0:
395,310,213143,1,0,0:0:0:0:
395,310,213222,2,0,P|409:265|417:216,1,90,8|0,0:0|0:0,0:0:0:0:
470,347,213542,1,8,0:0:0:0:
309,278,213701,6,0,P|266:268|221:265,1,90,4|0,0:0|0:0,0:0:0:0:
79,308,214020,1,8,0:0:0:0:
79,308,214180,2,0,P|93:266|100:215,1,90,0|0,0:0|0:0,0:0:0:0:
61,105,214499,1,0,0:0:0:0:
61,105,214659,2,0,P|104:115|149:118,1,90,12|0,0:0|0:0,0:0:0:0:
352,40,214978,5,0,0:0:0:0:
352,40,215137,2,0,P|307:43|263:53,1,90,0|8,0:0|0:0,0:0:0:0:
258,238,215456,2,0,L|236:144,1,90,0|4,0:0|0:0,0:0:0:0:
339,179,215776,1,8,0:0:0:0:
188,307,215935,1,8,0:0:0:0:
188,307,216015,1,0,0:0:0:0:
188,307,216095,1,8,0:0:0:0:
150,181,216254,5,4,0:0:0:0:
91,333,216414,1,0,0:0:0:0:
258,237,216573,1,8,0:0:0:0:
74,206,216733,1,0,0:0:0:0:
191,345,216893,1,0,0:0:0:0:
91,131,217052,1,0,0:0:0:0:
133,256,217212,1,8,0:0:0:0:
230,164,217371,1,0,0:0:0:0:
230,164,217531,6,0,L|418:149,2,180,0|8|0,0:0|0:0|0:0,0:0:0:0:
357,239,218488,2,0,P|442:262|493:334,1,180,8|4,0:0|0:0,0:0:0:0:
258,245,218967,6,0,P|236:284|225:327,1,90,0|8,0:0|0:0,0:0:0:0:
314,323,219286,1,0,0:0:0:0:
134,337,219446,2,0,L|32:326,1,90,0|0,0:0|0:0,0:0:0:0:
0,220,219765,2,0,L|102:231,1,90,8|0,0:0|0:0,0:0:0:0:
174,154,220084,5,0,0:0:0:0:
174,154,220244,1,0,0:0:0:0:
258,245,220403,2,0,P|253:289|242:333,1,90,8|0,0:0|0:0,0:0:0:0:
174,154,220722,2,0,P|163:110|158:65,1,90
169,244,221042,1,8,0:0:0:0:
169,244,221201,1,0,0:0:0:0:
268,155,221361,6,0,B|312:149|312:149|355:162,1,90,4|0,0:0|0:0,0:0:0:0:
444,298,221680,2,0,B|400:304|400:304|356:290,1,90,8|0,0:0|0:0,0:0:0:0:
169,244,221999,1,0,0:0:0:0:
264,319,222159,1,0,0:0:0:0:
229,208,222318,1,8,0:0:0:0:
192,319,222478,1,0,0:0:0:0:
286,248,222637,6,0,P|330:240|375:238,1,90
485,137,222956,2,0,P|440:145|395:147,1,90,8|0,0:0|0:0,0:0:0:0:
319,125,223276,1,0,0:0:0:0:
443,220,223435,1,0,0:0:0:0:
424,58,223595,2,0,P|379:49|334:47,1,90,8|0,0:0|0:0,0:0:0:0:
269,193,223914,6,0,L|250:286,1,90
237,119,224233,2,0,P|185:51|99:58,2,180,8|0|8,0:0|0:0|0:0,0:0:0:0:
92,300,225031,6,0,B|100:237|100:237|136:193|136:193|147:134,2,180
232,305,225829,1,0,0:0:0:0:
205,311,225909,1,0,0:0:0:0:
179,317,225988,1,0,0:0:0:0:
222,190,226148,2,0,L|299:239,1,90,8|0,0:0|0:0,0:0:0:0:
354,65,226467,6,0,L|321:153,1,90
490,251,226786,2,0,P|404:240|356:311,2,180,8|0|8,0:0|0:0|0:0,0:0:0:0:
285,297,227584,6,0,B|227:300|227:300|185:342|185:342|122:346,2,180
134,97,228382,1,4,0:0:0:0:
126,132,228462,1,0,0:0:0:0:
123,168,228542,1,0,0:0:0:0:
131,202,228621,1,0,0:0:0:0:
147,234,228701,1,12,0:0:0:0:
177,213,228781,1,0,0:0:0:0:
211,203,228861,1,0,0:0:0:0:
246,205,228940,1,0,0:0:0:0:
279,218,229020,6,0,L|370:213,2,90,0|0|8,0:0|0:0|0:0,0:0:0:0:
493,292,229499,2,0,L|398:279,1,90
484,131,229818,2,0,P|497:173|489:216,1,90,0|8,0:0|0:0,0:0:0:0:
433,49,230137,1,0,0:0:0:0:
360,106,230297,6,0,B|317:120|317:120|270:106,1,90
111,45,230616,2,0,B|154:31|154:31|201:45,1,90,8|0,0:0|0:0,0:0:0:0:
52,122,230935,1,0,0:0:0:0:
52,122,231095,1,0,0:0:0:0:
117,173,231254,2,0,L|127:262,1,90,8|0,0:0|0:0,0:0:0:0:
241,336,231573,6,0,L|251:246,1,90,4|0,0:0|0:0,0:0:0:0:
294,151,231893,1,8,0:0:0:0:
190,197,232052,1,0,0:0:0:0:
341,372,232212,2,0,L|330:282,1,90
402,170,232531,1,8,0:0:0:0:
402,170,232690,1,0,0:0:0:0:
311,218,232850,6,0,P|267:226|221:231,1,90
49,135,233169,2,0,P|93:139|137:147,1,90,8|0,0:0|0:0,0:0:0:0:
123,367,233488,2,0,P|115:323|110:277,1,90
306,298,233807,1,8,0:0:0:0:
204,345,233967,1,0,0:0:0:0:
47,223,234127,6,0,P|38:267|34:311,1,90
248,244,234446,2,0,P|203:170|117:172,2,180,8|0|8,0:0|0:0|0:0,0:0:0:0:
319,82,235244,6,0,B|237:113|224:51|144:69,2,180
416,227,236042,1,0,0:0:0:0:
390,219,236121,1,0,0:0:0:0:
363,211,236201,1,0,0:0:0:0:
486,157,236361,1,8,0:0:0:0:
486,157,236520,1,0,0:0:0:0:
454,329,236680,6,0,P|412:312|367:307,1,90
283,249,236999,2,0,P|215:302|133:275,2,180,8|0|8,0:0|0:0|0:0,0:0:0:0:
40,190,237797,6,0,B|37:256|37:256|58:292|58:292|54:364,2,180
140,112,238595,2,0,L|191:101,2,45
326,167,238914,1,0,0:0:0:0:
326,167,238994,1,0,0:0:0:0:
326,167,239073,2,0,L|382:162,1,45
