osu file format v14

[General]
AudioFilename: INFINITYZERO Music Clip.mp3
AudioLeadIn: 0
PreviewTime: 75829
Countdown: 0
SampleSet: Soft
StackLeniency: 0.7
Mode: 0
LetterboxInBreaks: 0
WidescreenStoryboard: 1

[Editor]
Bookmarks: 36414,36893,37212
DistanceSpacing: 1.3
BeatDivisor: 4
GridSize: 32
TimelineZoom: 1

[Metadata]
Title:INFINITY ZERO
TitleUnicode:INFINITY≠ZERO
Artist:nano
ArtistUnicode:ナノ
Creator:Giralda
Version:Easy
Source:幕末高校生
Tags:bakumatsu koukousei kokosei kōkōsei kibbleru kihhou
BeatmapID:628779
BeatmapSetID:230022

[Difficulty]
HPDrainRate:2
CircleSize:3
OverallDifficulty:2
ApproachRate:2
SliderMultiplier:0.799999999999999
SliderTickRate:1

[Events]
//Background and Video events
0,0,"bg.jpg",0,0
//Break Periods
2,102637,111290
2,155178,158524
2,190284,200652
//Storyboard Layer 0 (Background)
//Storyboard Layer 1 (Fail)
//Storyboard Layer 2 (Pass)
//Storyboard Layer 3 (Foreground)
//Storyboard Sound Samples

[TimingPoints]
1656,722.89156626506,4,2,1,50,1,0
4186,-100,4,2,1,45,0,0
7800,-100,4,2,1,40,0,0
25404,319.148936170213,4,1,1,80,1,0
26042,319.148936170213,4,1,1,60,1,0
46467,-100,4,1,1,70,0,0
76946,-100,4,1,1,80,0,1
98967,-100,4,1,1,80,0,1
102637,-100,4,1,1,70,0,0
102737,-100,4,2,1,70,0,0
132637,-100,4,1,1,70,0,0
203329,-100,4,1,1,100,0,1
218807,-100,4,1,1,100,0,0

[Colours]
Combo1 : 247,117,156
Combo2 : 227,17,17
Combo3 : 236,221,221

[HitObjects]
191,113,1656,6,0,P|260:77|335:98,1,160
268,178,3824,1,2,0:0:0:0:
165,198,4547,2,0,L|70:191,1,79.9999999999999,0|2,0:0|0:0,0:0:0:0:
110,293,5993,2,0,L|189:298,1,79.9999999999999,2|0,0:0|0:0,0:0:0:0:
292,305,7439,6,0,P|331:238|310:163,1,160,2|2,0:0|0:0,0:0:0:0:
209,135,9607,2,0,P|169:130|129:134,1,79.9999999999999,2|0,0:0|0:0,0:0:0:0:
59,210,11053,2,0,B|48:245|18:277|18:277|49:308|54:347,1,160,2|2,0:0|0:0,0:0:0:0:
156,329,13222,6,0,P|199:322|243:323,1,79.9999999999999,2|2,0:0|0:0,0:0:0:0:
314,254,14668,2,0,P|357:261|401:260,1,79.9999999999999,2|0,0:0|0:0,0:0:0:0:
477,199,16113,2,0,P|491:157|496:113,1,79.9999999999999,2|2,0:0|0:0,0:0:0:0:
391,114,17559,2,0,P|347:116|303:108,1,79.9999999999999,2|0,0:0|0:0,0:0:0:0:
212,78,19005,6,0,B|181:135|245:172|205:232,1,160,2|2,0:0|0:0,0:0:0:0:
127,301,21174,2,0,P|116:262|110:223,1,79.9999999999999,0|2,0:0|0:0,0:0:0:0:
30,156,22619,1,2,0:0:0:0:
118,101,23342,1,2,0:0:0:0:
25,52,24065,1,2,0:0:0:0:
357,119,25404,6,0,B|347:162|319:187|319:187|276:175,1,120,8|4,0:0|0:0,0:0:0:0:
183,104,26361,2,0,P|152:175|184:245,2,160,8|8|8,0:0|0:0|0:0,0:0:0:0:
343,104,28276,5,8,0:0:0:0:
411,144,28595,2,0,B|454:180|454:180|423:221|423:277,1,160,4|0,0:0|0:0,0:0:0:0:
274,333,29871,6,0,P|200:359|126:334,1,160,0|0,0:0|0:0,0:0:0:0:
73,273,30829,1,8,0:0:0:0:
106,200,31148,2,0,B|132:161|127:118|127:118|159:140|196:131,1,160,4|0,0:0|0:0,0:0:0:0:
317,132,32265,2,0,B|354:141|386:119|386:119|381:162|407:201,1,160,8|0,0:0|0:0,0:0:0:0:
256,192,33701,12,4,36254,0:0:0:0:
298,121,37690,6,0,P|218:119|140:100,1,160,0|0,0:0|0:0,0:0:0:0:
58,188,38807,2,0,L|48:277,1,79.9999999999999,8|8,0:0|0:0,0:0:0:0:
201,317,39765,6,0,P|278:330|353:303,2,160,8|8|8,0:0|0:0|0:0,0:0:0:0:
138,267,41361,2,0,L|145:184,1,79.9999999999999,8|8,0:0|0:0,0:0:0:0:
297,141,42318,6,0,B|353:141|353:141|396:179|396:179|444:180,2,160,8|8|8,0:0|0:0|0:0,0:0:0:0:
215,141,43914,2,0,P|204:199|218:257,2,120,0|0|0,0:0|0:0|0:0,0:0:0:0:
304,59,45350,2,0,L|185:47,1,120,0|8,0:0|0:0,0:0:0:0:
103,185,46467,6,0,P|181:199|261:209,1,160,4|0,0:0|0:0,0:0:0:0:
381,207,47584,2,0,P|390:169|398:129,2,79.9999999999999
350,281,48542,6,0,L|290:286|230:291,1,120,0|0,0:0|0:0,0:0:0:0:
71,310,49659,1,0,0:0:0:0:
144,214,50137,2,0,P|153:176|160:136,2,79.9999999999999,0|0|0,0:0|0:0|0:0,0:0:0:0:
68,185,51095,6,0,P|58:127|74:70,1,120,0|0,0:0|0:0,0:0:0:0:
232,46,52212,2,0,L|394:39,1,160,0|0,0:0|0:0,0:0:0:0:
495,160,53488,1,0,0:0:0:0:
353,234,54127,6,0,P|274:219|194:209,1,160,0|0,0:0|0:0,0:0:0:0:
100,80,55403,2,0,P|178:94|258:104,1,160,0|0,0:0|0:0,0:0:0:0:
417,88,56680,5,0,0:0:0:0:
470,238,57318,1,0,0:0:0:0:
318,290,57956,1,0,0:0:0:0:
261,140,58595,1,0,0:0:0:0:
119,215,59233,2,0,P|91:142|114:67,1,160,0|8,0:0|0:0,0:0:0:0:
274,51,60510,6,0,L|433:47,1,160,0|0,0:0|0:0,0:0:0:0:
366,192,61786,2,0,P|286:177|208:179,1,160,4|0,0:0|0:0,0:0:0:0:
58,238,63063,5,0,0:0:0:0:
187,331,63701,2,0,L|271:328,1,79.9999999999999,0|8,0:0|0:0,0:0:0:0:
346,324,64339,2,0,B|361:312|377:282|377:282|345:242|345:242|354:171,1,160,0|0,0:0|0:0,0:0:0:0:
454,63,65616,5,0,0:0:0:0:
489,219,66254,1,0,0:0:0:0:
373,106,66893,2,0,P|301:87|209:103,1,160,4|0,0:0|0:0,0:0:0:0:
109,215,68169,6,0,L|90:92,2,120,0|0|8,0:0|0:0|0:0,0:0:0:0:
173,262,69446,2,0,P|251:275|331:285,1,160,4|0,0:0|0:0,0:0:0:0:
458,188,70722,6,0,P|466:247|467:321,2,120,4|0|8,0:0|0:0|0:0,0:0:0:0:
394,139,71999,2,0,L|249:124,1,120,0|8,0:0|0:0,0:0:0:0:
155,109,72956,2,0,P|132:163|142:222,1,120,8|0,0:0|0:0,0:0:0:0:
239,293,73914,2,0,L|330:287,1,79.9999999999999,0|8,0:0|0:0,0:0:0:0:
256,192,74552,12,0,75669,0:0:0:0:
98,132,76946,6,0,P|168:97|282:126,1,200,4|8,0:0|0:0,0:0:0:0:
338,183,78063,1,8,0:0:0:0:
305,256,78382,2,0,P|226:266|144:275,1,160,0|8,0:0|0:0,0:0:0:0:
30,248,79499,6,0,L|19:119,1,120,4|8,0:0|0:0,0:0:0:0:
73,68,80297,2,0,P|148:43|225:59,2,160,0|0|8,0:0|0:0|0:0,0:0:0:0:
160,150,82052,6,0,P|239:142|319:141,2,160,4|0|0,0:0|0:0|0:0,0:0:0:0:
118,218,83648,2,0,P|108:276|130:331,1,120,0|8,0:0|0:0,0:0:0:0:
250,324,84605,6,0,L|382:315,1,120,4|8,0:0|0:0,0:0:0:0:
449,306,85403,1,0,0:0:0:0:
449,145,86042,2,0,P|373:120|295:133,1,160,0|8,0:0|0:0,0:0:0:0:
205,213,87159,6,0,P|108:222|30:164,1,200,4|8,0:0|0:0,0:0:0:0:
155,64,88595,1,0,0:0:0:0:
309,104,89233,2,0,L|436:93,1,120,8|4,0:3|0:0,0:0:0:0:
315,259,90510,5,8,0:0:0:0:
162,207,91148,2,0,P|147:263|168:318,1,120,0|0,0:0|0:0,0:0:0:0:
326,345,92265,6,0,L|491:333,2,160,4|0|0,0:0|0:0|0:0,0:0:0:0:
245,348,93861,1,8,0:0:0:0:
145,280,94339,2,0,P|137:220|132:160,2,120,8|4|8,0:0|0:0|0:0,0:0:0:0:
220,252,95616,6,0,P|298:236|378:227,1,160,8|0,0:0|0:0,0:0:0:0:
503,127,96893,2,0,P|423:118|345:102,1,160,8|4,0:0|0:0,0:0:0:0:
192,55,98169,2,0,P|209:148|133:205,1,200,0|0,0:0|0:0,0:0:0:0:
80,97,99446,1,0,0:0:0:0:
31,249,100084,2,0,B|46:333|46:333|139:284|234:322,1,280,0|0,0:0|0:0,0:0:0:0:
182,163,112850,6,0,P|255:136|329:163,1,160,4|0,0:0|0:0,0:0:0:0:
393,264,113967,2,0,B|436:277|436:277|469:241|469:241|476:204|464:166,1,160,0|0,0:0|0:0,0:0:0:0:
295,72,115403,6,0,P|235:65|175:61,1,120,0|0,0:0|0:0,0:0:0:0:
35,204,116680,2,0,P|28:263|25:323,1,120,0|0,0:0|0:0,0:0:0:0:
222,283,117956,6,0,P|281:279|341:284,2,120,0|0|0,0:0|0:0|0:0,0:0:0:0:
147,313,119233,1,0,0:0:0:0:
181,198,119712,2,0,B|200:154|169:130|192:72,1,120,0|0,0:0|0:0,0:0:0:0:
265,103,120510,6,0,P|324:111|384:109,1,120,0|0,0:0|0:0,0:0:0:0:
454,207,121467,2,0,P|394:198|334:200,1,120,0|0,0:0|0:0,0:0:0:0:
243,278,122424,1,0,0:0:0:0:
99,349,123063,6,0,P|67:277|95:205,1,160,4|2,0:0|0:0,0:0:0:0:
194,137,124180,2,0,L|308:128,1,79.9999999999999,2|2,0:0|0:0,0:0:0:0:
269,210,124818,2,0,L|383:201,1,79.9999999999999,2|0,0:0|0:0,0:0:0:0:
359,322,125616,6,0,P|284:299|205:313,1,160,2|2,0:0|0:0,0:0:0:0:
91,348,126733,2,0,P|85:308|81:268,1,79.9999999999999,2|2,0:0|0:0,0:0:0:0:
98,189,127371,2,0,P|155:173|215:177,1,120,2|0,0:0|0:0,0:0:0:0:
280,131,128169,6,0,P|355:151|430:125,2,160,2|2|2,0:0|0:0|0:0,0:0:0:0:
145,43,130084,1,0,0:0:0:0:
66,182,130722,6,0,L|50:347,1,160,2|2,0:0|0:0,0:0:0:0:
205,300,131999,2,0,L|220:140,1,160,0|8,0:0|0:0,0:0:0:0:
355,54,133276,6,0,P|417:99|429:177,1,160,4|0,0:0|0:0,0:0:0:0:
353,318,134552,2,0,P|274:300|195:296,1,160,0|0,0:0|0:0,0:0:0:0:
98,168,135829,6,0,P|168:201|243:180,2,160,0|0|0,0:0|0:0|0:0,0:0:0:0:
231,78,137744,2,0,L|391:71,1,160,0|0,0:0|0:0,0:0:0:0:
495,191,139020,5,0,0:0:0:0:
386,308,139659,2,0,P|308:293|228:289,1,160,0|0,0:0|0:0,0:0:0:0:
75,335,140935,2,0,P|102:262|70:191,1,160,0|0,0:0|0:0,0:0:0:0:
57,31,142212,2,0,L|216:41,1,160,0|0,0:0|0:0,0:0:0:0:
376,44,143488,6,0,P|358:120|397:187,1,160,0|0,0:0|0:0,0:0:0:0:
448,339,144765,2,0,P|373:316|297:337,1,160,0|0,0:0|0:0,0:0:0:0:
218,330,145722,6,0,L|58:313,1,160,8|8,0:0|0:0,0:0:0:0:
14,246,146680,1,0,0:0:0:0:
125,129,147318,2,0,P|198:101|273:125,1,160,0|0,0:0|0:0,0:0:0:0:
358,260,148595,6,0,P|284:288|209:264,2,160,0|0|0,0:0|0:0|0:0,0:0:0:0:
448,127,150510,1,0,0:0:0:0:
297,73,151148,2,0,L|143:62,2,120,0|0|8,0:0|0:0|0:0,0:0:0:0:
336,186,152584,2,0,L|182:175,1,120,0|0,0:0|0:0,0:0:0:0:
149,221,153382,1,8,0:0:0:0:
256,192,153701,12,0,154978,0:0:0:0:
95,103,160084,6,0,B|96:157|96:157|124:202|124:202|124:256,1,160,8|0,0:0|0:0,0:0:0:0:
256,345,161361,1,2,0:0:0:0:
390,258,161999,1,2,0:0:0:0:
248,182,162637,6,0,B|247:129|247:129|219:84|219:84|218:30,2,160,8|2|2,0:0|0:0|0:0,0:0:0:0:
372,282,164552,1,2,0:0:0:0:
214,308,165190,6,0,B|161:313|161:313|125:344|125:344|66:344,1,160,8|2,0:0|0:0,0:0:0:0:
37,186,166467,1,2,0:0:0:0:
169,95,167105,1,2,0:0:0:0:
267,221,167744,6,0,P|336:185|413:202,2,160,8|0|0,0:0|0:0|0:0,0:0:0:0:
141,320,169659,2,0,L|54:308,1,79.9999999999999,8|8,0:0|0:0,0:0:0:0:
15,244,170297,6,0,L|8:76,1,160,0|0,0:0|0:0,0:0:0:0:
156,24,171573,1,0,0:0:0:0:
121,180,172212,2,0,L|147:266,1,79.9999999999999,0|8,0:0|0:0,0:0:0:0:
198,315,172850,6,0,P|268:282|340:311,1,160,0|0,0:0|0:0,0:0:0:0:
435,182,174127,2,0,P|359:202|285:177,1,160,0|0,0:0|0:0,0:0:0:0:
161,74,175403,6,0,P|136:147|170:218,2,160,0|0|0,0:0|0:0|0:0,0:0:0:0:
303,146,177318,2,0,L|395:133,1,79.9999999999999,0|8,0:0|0:0,0:0:0:0:
442,187,177956,6,0,P|413:260|431:336,1,160,0|0,0:0|0:0,0:0:0:0:
273,313,179233,2,0,P|195:306|113:301,1,160,0|0,0:0|0:0,0:0:0:0:
60,150,180510,5,0,0:0:0:0:
215,113,181148,1,0,0:0:0:0:
253,268,181786,1,0,0:0:0:0:
97,305,182424,1,0,0:0:0:0:
172,163,183063,6,0,P|245:135|321:156,1,160,4|0,0:0|0:0,0:0:0:0:
399,295,184339,2,0,P|323:316|249:288,2,160,0|0|4,0:0|0:0|0:0,0:0:0:0:
495,167,186254,5,0,0:0:0:0:
348,101,186893,2,0,P|324:155|338:212,1,120,0|0,0:0|0:0,0:0:0:0:
397,267,187690,1,0,0:0:0:0:
339,322,188010,2,0,P|246:292|151:319,1,200,0|0,0:0|0:0,0:0:0:0:
61,186,189446,6,0,P|131:218|201:185,1,160,0|8,0:0|0:1,0:0:0:0:
115,153,202212,6,0,L|274:143,1,160,0|8,2:0|0:0,0:0:0:0:
394,141,203329,6,0,P|441:225|399:312,1,200,4|0,0:0|0:0,0:0:0:0:
322,333,204446,1,8,0:0:0:0:
242,328,204765,2,0,L|82:311,1,160,0|8,0:0|0:0,0:0:0:0:
23,206,205882,6,0,P|116:229|192:169,1,200,4|0,0:0|0:0,0:0:0:0:
179,90,206999,2,0,L|274:71,1,79.9999999999999,8|0,0:0|0:0,0:0:0:0:
374,101,207797,2,0,L|354:259,1,160,0|4,0:0|0:0,0:0:0:0:
265,341,208914,6,0,L|239:220,1,120,8|0,0:0|0:0,0:0:0:0:
181,168,209712,2,0,L|89:154,1,79.9999999999999,0|0,0:0|0:0,0:0:0:0:
90,76,210350,2,0,P|170:70|265:69,1,160,0|4,0:0|0:0,0:0:0:0:
353,128,211467,6,0,P|361:89|373:51,2,79.9999999999999,8|0|8,0:0|0:0|0:0,0:0:0:0:
305,192,212424,2,0,P|377:163|452:186,2,160,0|0|4,0:0|0:0|0:0,0:0:0:0:
214,324,214339,2,0,L|55:313,2,160,0|0|4,0:0|0:0|0:0,0:0:0:0:
256,192,216254,12,0,217531,0:0:0:0:
181,141,218807,6,0,B|256:111|256:111|329:141,1,160,4|0,0:0|0:0,0:0:0:0:
390,193,219765,2,0,B|430:208|470:190|470:190|504:270|467:342,1,240,8|0,0:0|0:0,0:0:0:0:
316,289,221361,6,0,P|239:268|165:295,2,160,4|0|0,0:0|0:0|0:0,0:0:0:0:
216,163,223276,2,0,L|206:81,1,79.9999999999999,0|8,0:0|0:0,0:0:0:0:
286,88,223914,6,0,P|365:97|445:100,1,160,0|0,0:0|0:0,0:0:0:0:
492,165,224871,2,0,P|501:223|483:280,1,120,8|0,0:0|0:0,0:0:0:0:
367,313,225829,6,0,B|292:288|292:288|213:304,1,160,0|0,0:0|0:0,0:0:0:0:
143,344,226786,2,0,P|107:274|134:201,1,160,8|8,0:0|0:0,0:0:0:0:
196,98,227903,6,0,L|315:91,1,120,0|4,0:0|0:0,0:0:0:0:
396,89,228701,1,12,0:0:0:0:
446,150,229020,2,0,P|468:225|438:298,1,160,0|0,0:0|0:0,0:0:0:0:
278,318,230297,6,0,P|200:303|121:310,1,160,0|0,0:0|0:0,0:0:0:0:
55,265,231254,2,0,L|38:186,1,79.9999999999999,8|4,0:0|0:0,0:0:0:0:
147,69,232212,1,0,0:0:0:0:
231,204,232850,5,0,0:0:0:0:
313,66,233488,2,0,L|411:58,1,79.9999999999999,0|8,0:0|0:0,0:0:0:0:
456,107,234127,2,0,B|483:137|483:137|464:166|464:166|484:205|465:250,1,160,0|0,0:0|0:0,0:0:0:0:
373,325,235244,6,0,L|293:327,1,79.9999999999999,0|0,0:0|0:0,0:0:0:0:
213,335,235882,2,0,B|174:326|133:338|133:338|85:302|94:231,1,200,0|0,0:0|0:0,0:0:0:0:
115,154,236999,2,0,L|192:134,1,79.9999999999999,8|0,0:0|0:0,0:0:0:0:
272,126,237637,6,0,L|388:153,1,120,8|0,0:0|0:0,0:0:0:0:
311,246,238595,6,0,B|257:304|257:304|196:248,1,160,0|0,0:0|0:0,0:0:0:0:
