osu file format v14

[General]
AudioFilename: audio.mp3
AudioLeadIn: 0
PreviewTime: 43444
Countdown: 0
SampleSet: Soft
StackLeniency: 0.7
Mode: 0
LetterboxInBreaks: 0
WidescreenStoryboard: 1

[Editor]
Bookmarks: 22778,86778
DistanceSpacing: 1
BeatDivisor: 4
GridSize: 16
TimelineZoom: 3

[Metadata]
Title:DREAMCATCHER
TitleUnicode:DREAMCATCHER
Artist:nano
ArtistUnicode:ナノ
Creator:Vert
Version:Kashima's Hard
Source:魔法少女育成計画
Tags:Mahou Shoujo Ikusei Keikaku MahouIku Magical Girl Raising Project WESTGROUND ending ed full ver Depths Dored Koiyuki Minakami Yuki Kashima sahuang -Laura-
BeatmapID:1474456
BeatmapSetID:695957

[Difficulty]
HPDrainRate:5
CircleSize:3.8
OverallDifficulty:6
ApproachRate:8
SliderMultiplier:1.6
SliderTickRate:1

[Events]
//Background and Video events
0,0,"SwimxRuler.png",0,0
//Break Periods
2,4111,6028
2,9444,11528
2,86977,106776
//Storyboard Layer 0 (Background)
//Storyboard Layer 1 (Fail)
//Storyboard Layer 2 (Pass)
//Storyboard Layer 3 (Foreground)
//Storyboard Sound Samples

[TimingPoints]
1445,333.333333333333,4,2,11,15,1,0
1445,-200,4,2,11,15,0,0
6111,-200,4,2,88,15,0,0
6444,-200,4,2,88,25,0,0
6778,-200,4,2,11,15,0,0
11444,-200,4,2,88,15,0,0
11778,-200,4,2,88,25,0,0
12111,-200,4,2,11,20,0,0
12278,-133.333333333333,4,2,11,20,0,0
22778,-100,4,2,11,40,0,0
33444,-100,4,2,12,60,0,0
43444,-133.333333333333,4,2,11,60,0,0
44111,-100,4,2,12,75,0,1
85278,-100,4,2,12,50,0,1
85778,-100,4,2,12,75,0,1
86778,-100,4,2,12,60,0,0
108111,-100,4,2,12,40,0,0
118778,-100,4,2,11,50,0,0
129444,-100,4,2,11,60,0,0
134778,-100,4,2,12,60,0,0
138778,-100,4,2,11,15,0,0
139111,-100,4,2,12,50,0,0
139778,-100,4,2,12,30,0,0
140111,-100,4,2,12,60,0,1
181278,-100,4,2,12,40,0,1
181778,-100,4,2,12,60,0,1
182778,-100,4,2,0,60,0,0

[Colours]
Combo1 : 97,10,214
Combo2 : 242,166,253
Combo3 : 170,126,250
Combo4 : 254,46,51

[HitObjects]
176,48,1445,6,0,B|256:112|416:64|416:64|464:160|400:224|400:224|326:248|253:232,1,560,2|0,0:0|0:0,0:0:0:0:
336,336,6778,6,0,B|256:272|96:320|96:320|48:224|112:160|112:160|186:136|259:152,1,560,2|0,0:0|0:0,0:0:0:0:
250,49,12278,5,0,0:0:0:0:
328,78,12444,1,2,0:0:0:0:
405,110,12611,1,0,0:0:0:0:
484,137,12778,2,0,L|492:269,1,120.000004577637,2|0,0:0|0:0,0:0:0:0:
411,280,13277,5,0,0:0:0:0:
333,251,13444,1,2,0:0:0:0:
256,219,13611,1,0,0:0:0:0:
177,192,13777,2,0,L|172:111,1,60.0000022888184,2|0,0:0|0:0,0:0:0:0:
163,48,14111,6,0,P|127:34|79:36,2,60.0000022888184,0|0|0,0:0|0:0|0:0,0:0:0:0:
238,83,14611,1,2,0:0:0:0:
116,142,14944,6,0,P|75:142|34:165,2,60.0000022888184,0|2|0,0:0|0:0|0:0,0:0:0:0:
107,227,15444,2,0,P|74:251|54:293,2,60.0000022888184,2|0|0,0:0|0:0|0:0,0:0:0:0:
187,252,15944,2,0,P|240:278|322:265,1,120.000004577637,2|0,0:0|0:0,0:0:0:0:
445,256,16444,5,2,0:0:0:0:
366,226,16611,2,0,P|352:198|360:136,1,90.0000034332277,0|0,0:0|0:0,0:0:0:0:
410,115,16944,2,0,L|276:120,1,120.000004577637,2|0,0:0|0:0,0:0:0:0:
127,68,17611,5,0,0:0:0:0:
81,138,17777,1,2,0:0:0:0:
85,222,17944,1,0,0:0:0:0:
151,274,18111,2,0,L|277:260,1,120.000004577637,2|0,0:0|0:0,0:0:0:0:
323,356,18611,5,0,0:0:0:0:
369,286,18777,1,2,0:0:0:0:
365,202,18944,1,0,0:0:0:0:
299,150,19111,2,0,L|219:162,1,60.0000022888184,2|0,0:0|0:0,0:0:0:0:
126,273,19444,6,0,P|113:322|120:351,2,60.0000022888184,2|0|0,2:0|0:0|0:0,0:0:0:0:
103,189,19944,1,2,0:0:0:0:
148,115,20277,6,0,P|99:102|70:109,2,60.0000022888184,0|2|0,0:0|0:0|0:0,0:0:0:0:
225,146,20777,2,0,P|274:159|303:152,2,60.0000022888184,2|0|0,0:0|0:0|0:0,0:0:0:0:
156,194,21277,2,0,P|136:244|159:331,1,120.000004577637,2|0,0:0|0:0,0:0:0:0:
301,233,21777,5,2,0:0:0:0:
239,313,21944,2,0,L|328:328,1,90.0000034332277,0|0,0:0|0:0,0:0:0:0:
347,339,22277,2,0,P|416:347|459:308,1,120.000004577637,2|0,0:0|0:0,0:0:0:0:
486,153,22944,6,0,P|492:114|483:71,1,80,0|0,0:0|1:0,0:0:0:0:
424,20,23278,1,0,0:0:0:0:
352,54,23444,2,0,L|255:38,1,80,0|0,0:0|1:0,0:0:0:0:
194,24,23778,1,0,1:0:0:0:
157,93,23944,1,0,0:0:0:0:
221,139,24111,2,0,P|270:121|336:140,1,120,0|0,0:0|0:0,0:0:0:0:
365,161,24444,2,0,P|421:178|470:162,2,80,0|0|0,1:0|0:0|0:0,0:0:0:0:
300,209,24944,6,0,L|274:333,1,120,0|0,0:0|0:0,0:0:0:0:
241,306,25277,2,0,L|261:208,1,80,0|0,0:0|0:0,0:0:0:0:
231,150,25611,6,0,P|228:105|245:66,1,80,0|0,0:0|1:0,0:0:0:0:
298,17,25944,1,0,0:0:0:0:
372,47,26111,2,0,P|416:54|480:42,2,80,0|0|0,0:0|1:0|1:0,0:0:0:0:
298,17,26611,2,0,P|237:-6|163:57,2,160,0|0|0,0:0|0:0|0:0,0:0:0:0:
364,62,27444,2,0,P|410:69|461:58,1,80,0|0,0:0|0:0,0:0:0:0:
290,95,27778,1,0,1:0:0:0:
257,255,28277,6,0,P|263:216|254:173,1,80,0|0,0:0|1:0,0:0:0:0:
207,112,28611,1,0,0:0:0:0:
137,151,28777,2,0,L|58:137,1,80,0|0,0:0|1:0,0:0:0:0:
20,209,29111,5,0,1:0:0:0:
44,284,29277,1,0,0:0:0:0:
123,296,29444,5,0,0:0:0:0:
164,226,29611,1,0,0:0:0:0:
137,151,29777,1,0,1:0:0:0:
165,75,29944,6,0,L|279:28,1,120,0|0,0:0|0:0,0:0:0:0:
313,17,30277,2,0,L|288:134,1,120,0|0,0:0|0:0,0:0:0:0:
324,118,30611,2,0,L|430:75,1,80,0|0,0:0|0:0,0:0:0:0:
490,124,30944,6,0,P|499:169|487:222,1,80,0|0,0:0|1:0,0:0:0:0:
440,261,31277,1,0,0:0:0:0:
363,247,31444,2,0,P|323:240|285:250,2,80,0|0|0,0:0|1:0|1:0,0:0:0:0:
415,185,31944,2,0,P|397:109|423:18,2,160,0|0|0,0:0|0:0|0:0,0:0:0:0:
440,261,32777,2,0,P|453:316|438:361,1,80,0|0,0:0|0:0,0:0:0:0:
363,247,33111,1,0,1:0:0:0:
201,255,33444,6,0,L|122:269,1,80,4|0,0:0|0:0,0:0:0:0:
55,225,33777,1,8,0:0:0:0:
63,145,33944,1,0,0:0:0:0:
63,145,34027,1,0,0:0:0:0:
63,145,34111,2,0,P|59:102|81:62,1,80,0|2,0:0|0:0,0:0:0:0:
136,120,34444,2,0,L|224:143,1,80,0|0,0:0|0:0,0:0:0:0:
293,130,34777,5,8,0:0:0:0:
360,172,34944,2,0,L|365:238,2,40,0|0|0,0:0|0:0|0:0,0:0:0:0:
433,140,35277,1,0,0:0:0:0:
498,96,35444,2,0,L|503:30,2,40,2|0|0,0:0|0:0|0:0,0:0:0:0:
504,175,35777,2,0,L|490:275,1,80,8|0,0:0|0:0,0:0:0:0:
360,302,36111,6,0,P|402:314|439:309,1,80,0|0,0:0|0:0,0:0:0:0:
360,302,36444,2,0,P|396:230|349:165,1,160,8|0,0:0|0:0,0:0:0:0:
281,139,36944,1,2,0:0:0:0:
205,166,37111,2,0,L|108:154,1,80,0|0,0:0|0:0,0:0:0:0:
45,163,37444,5,8,0:0:0:0:
98,235,37611,1,0,0:0:0:0:
98,235,37694,1,0,0:0:0:0:
98,235,37777,2,0,L|87:320,1,80,0|0,0:0|0:0,0:0:0:0:
165,332,38111,2,0,L|176:247,1,80,2|0,0:0|0:0,0:0:0:0:
241,207,38444,1,8,0:0:0:0:
318,227,38611,1,0,0:0:0:0:
335,304,38777,5,4,0:0:0:0:
463,208,39111,1,0,0:0:0:0:
303,205,39444,1,0,0:0:0:0:
320,126,39611,5,0,0:0:0:0:
290,51,39777,1,8,0:0:0:0:
216,20,39944,1,0,0:0:0:0:
150,66,40111,6,0,P|78:77|24:18,1,160,0|0,0:0|0:0,0:0:0:0:
62,172,40777,2,0,P|134:161|188:220,1,160,0|8,0:0|0:0,0:0:0:0:
174,300,41277,1,0,0:0:0:0:
88,314,41444,2,0,L|110:232,1,80,0|0,0:0|0:0,0:0:0:0:
129,159,41777,2,0,L|149:81,1,80,12|0,0:0|0:0,0:0:0:0:
200,19,42111,6,0,L|260:13,2,53.3333333333333,2|2|2,0:0|0:0|0:0,0:0:0:0:
149,6,42444,2,0,L|85:14,2,53.3333333333333,10|2|2,0:0|0:0|0:0,0:0:0:0:
163,56,42777,1,6,0:0:0:0:
388,230,43444,6,0,P|369:296|447:264,1,180.000006866455,0|0,0:0|0:0,0:0:0:0:
433,160,44111,6,0,P|392:146|333:173,1,80,4|0,0:0|0:0,0:0:0:0:
290,197,44444,1,0,0:0:0:0:
229,248,44611,2,0,P|142:267|69:216,1,160,8|0,0:0|0:0,0:0:0:0:
61,156,45111,1,0,0:0:0:0:
90,81,45277,2,0,L|268:58,1,160,0|8,0:0|0:0,0:0:0:0:
322,93,45777,6,0,P|328:133|316:172,1,80,0|0,0:0|0:0,0:0:0:0:
272,236,46111,2,0,P|240:261|200:270,1,80,0|0,0:0|0:0,0:0:0:0:
125,248,46444,1,8,0:0:0:0:
142,169,46611,1,0,0:0:0:0:
62,173,46777,5,2,0:0:0:0:
44,251,46944,1,0,0:0:0:0:
67,327,47111,1,0,0:0:0:0:
138,359,47278,2,0,L|221:349,1,80,8|0,0:0|0:0,0:0:0:0:
297,341,47611,1,0,0:0:0:0:
354,284,47778,1,0,0:0:0:0:
372,206,47944,1,0,0:0:0:0:
349,130,48112,1,0,0:0:0:0:
278,98,48278,2,0,L|195:108,1,80,8|0,0:0|0:0,0:0:0:0:
119,116,48612,1,0,0:0:0:0:
181,35,48778,6,0,L|260:25,1,80,0|0,0:0|0:0,0:0:0:0:
314,167,49111,2,0,L|234:176,1,80,8|0,0:0|0:0,0:0:0:0:
162,140,49444,6,0,P|156:198|183:236,1,80,4|0,0:0|0:0,0:0:0:0:
233,260,49777,1,0,0:0:0:0:
309,239,49944,2,0,P|373:210|370:123,1,160,8|0,0:0|0:0,0:0:0:0:
326,63,50444,1,0,0:0:0:0:
252,94,50611,2,0,L|172:90,1,80,0|0,0:0|0:0,0:0:0:0:
110,140,50944,1,8,0:0:0:0:
184,171,51111,2,0,L|264:167,1,80,0|0,0:0|0:0,0:0:0:0:
337,133,51444,5,0,0:0:0:0:
400,84,51611,1,0,0:0:0:0:
411,163,51777,1,8,0:0:0:0:
476,116,51944,1,0,0:0:0:0:
487,195,52111,6,0,P|493:233|479:270,2,80,2|0|0,0:0|0:0|0:0,0:0:0:0:
411,163,52611,2,0,B|354:175|354:175|309:160|309:160|256:168,1,160,8|0,0:0|0:0,0:0:0:0:
251,247,53111,2,0,B|304:239|304:239|349:254|349:254|406:241,1,160,0|0,0:0|0:0,0:0:0:0:
478,206,53611,1,8,0:0:0:0:
492,126,53777,2,0,L|488:46,1,80,0|0,0:0|0:0,0:0:0:0:
416,11,54111,2,0,P|399:6|367:5,3,40,8|8|8|8,0:0|0:0|0:0|0:0,0:0:0:0:
389,42,54444,2,0,P|376:54|359:81,3,40,2|0|0|0,0:0|0:0|0:0|0:0,0:0:0:0:
402,83,54777,6,0,L|406:163,1,80,4|0,0:0|1:0,0:0:0:0:
394,242,55111,1,0,0:0:0:0:
339,304,55277,1,8,0:0:0:0:
261,322,55444,2,0,L|181:314,1,80,0|0,0:0|0:0,0:0:0:0:
118,263,55777,1,0,0:0:0:0:
191,231,55944,2,0,B|300:243|300:243|341:286,1,160,0|8,0:0|0:0,0:0:0:0:
381,343,56444,6,0,P|446:352|468:339,1,80,0|0,0:0|0:0,0:0:0:0:
419,275,56777,2,0,P|459:223|459:197,1,80,0|0,0:0|0:0,0:0:0:0:
379,208,57111,2,0,P|354:147|332:134,1,80,8|0,0:0|0:0,0:0:0:0:
230,162,57444,6,0,L|151:166,1,80,0|0,0:0|0:0,0:0:0:0:
109,234,57777,1,0,0:0:0:0:
146,305,57944,1,8,0:0:0:0:
191,239,58111,2,0,L|270:235,1,80,0|0,0:0|0:0,0:0:0:0:
338,193,58444,1,0,0:0:0:0:
409,230,58611,2,0,P|468:242|446:168,1,160,0|8,0:0|0:0,0:0:0:0:
395,114,59111,6,0,L|315:103,1,80,0|0,0:0|0:0,0:0:0:0:
243,69,59444,1,0,0:0:0:0:
240,149,59611,1,0,0:0:0:0:
168,107,59777,2,0,L|72:93,1,80,8|0,0:0|0:0,0:0:0:0:
42,164,60111,6,0,L|50:258,1,80,14|0,0:0|0:0,0:0:0:0:
58,323,60444,1,0,0:0:0:0:
123,277,60611,6,0,L|131:183,1,80,10|0,0:0|0:0,0:0:0:0:
135,117,60944,1,0,0:0:0:0:
201,161,61111,6,0,L|209:255,1,80,10|0,0:0|0:0,0:0:0:0:
217,320,61444,1,0,0:0:0:0:
282,274,61611,6,0,L|290:180,1,80,10|0,0:0|0:0,0:0:0:0:
294,114,61944,1,0,0:0:0:0:
294,114,62027,1,0,0:0:0:0:
294,114,62111,2,0,P|269:71|219:58,1,80,2|0,0:0|0:0,0:0:0:0:
165,39,62444,2,0,P|115:39|79:75,1,80,2|0,0:0|0:0,0:0:0:0:
54,127,62777,6,0,L|34:291,1,160,6|0,0:0|0:0,0:0:0:0:
114,275,63277,2,0,L|133:116,1,160,2|0,0:0|0:0,0:0:0:0:
205,78,63777,1,0,0:0:0:0:
275,114,63944,1,0,0:0:0:0:
306,187,64111,2,0,L|296:266,1,80,0|8,0:0|0:0,0:0:0:0:
374,248,64444,2,0,L|401:326,1,80,0|0,0:0|0:0,0:0:0:0:
460,271,64777,2,0,L|515:271,3,40,8|8|8|8,0:0|0:0|0:0|0:0,0:0:0:0:
475,238,65111,2,0,L|523:218,3,40,2|0|0|0,0:0|0:0|0:0|0:0,0:0:0:0:
476,203,65444,6,0,L|450:105,1,80,4|0,0:0|1:0,0:0:0:0:
376,111,65777,1,0,0:0:0:0:
318,166,65944,2,0,P|231:185|158:134,1,160,8|0,0:0|0:0,0:0:0:0:
137,79,66444,1,0,0:0:0:0:
92,145,66611,2,0,L|75:326,1,160,0|8,0:0|0:0,0:0:0:0:
137,356,67111,6,0,P|199:358|232:335,1,80,0|0,0:0|0:0,0:0:0:0:
171,282,67444,2,0,P|203:229|200:189,1,80,0|0,0:0|0:0,0:0:0:0:
124,216,67777,2,0,P|115:177|90:146,1,80,8|0,0:0|0:0,0:0:0:0:
46,213,68111,5,0,0:0:0:0:
14,286,68277,1,0,0:0:0:0:
56,354,68444,1,0,0:0:0:0:
137,356,68611,2,0,L|220:346,1,80,8|0,0:0|0:0,0:0:0:0:
295,357,68944,1,0,0:0:0:0:
350,299,69111,5,0,0:0:0:0:
343,219,69277,1,0,0:0:0:0:
276,173,69444,1,0,0:0:0:0:
202,140,69611,2,0,L|182:48,1,80,8|0,0:0|0:0,0:0:0:0:
253,20,69944,1,0,0:0:0:0:
402,28,70111,6,0,P|416:71|402:120,1,80,0|0,0:0|0:0,0:0:0:0:
313,178,70444,2,0,P|299:135|311:89,1,80,8|0,0:0|0:0,0:0:0:0:
361,240,70777,6,0,P|316:258|274:246,1,80,4|0,0:0|0:0,0:0:0:0:
229,194,71111,1,0,0:0:0:0:
236,114,71277,1,8,0:0:0:0:
302,68,71444,2,0,P|359:70|395:60,1,80,0|0,0:0|0:0,0:0:0:0:
443,15,71777,5,0,0:0:0:0:
455,97,71944,2,0,L|490:174,1,80,0|0,0:0|0:0,0:0:0:0:
428,223,72277,1,8,0:0:0:0:
417,302,72444,2,0,L|382:379,1,80,0|0,0:0|0:0,0:0:0:0:
306,355,72777,5,0,0:0:0:0:
299,275,72944,1,0,0:0:0:0:
234,321,73111,1,8,0:0:0:0:
227,241,73278,1,0,0:0:0:0:
150,263,73444,6,0,L|58:240,2,80,0|0|0,0:0|0:0|0:0,0:0:0:0:
227,241,73944,2,0,B|280:233|280:233|325:248|325:248|382:236,1,160,8|0,0:0|0:0,0:0:0:0:
378,315,74444,2,0,B|321:328|321:328|276:313|276:313|223:321,1,160,0|0,0:0|0:0,0:0:0:0:
160,269,74944,1,8,0:0:0:0:
183,192,75111,2,0,L|179:112,1,80,0|0,0:0|0:0,0:0:0:0:
231,51,75444,2,0,L|299:41,3,40,8|8|8|8,0:0|0:0|0:0|0:0,0:0:0:0:
308,31,75778,2,0,L|359:25,3,40,2|0|0|0,0:0|0:0|0:0|0:0,0:0:0:0:
386,19,76111,6,0,P|422:15|470:22,1,80,4|0,0:0|1:0,0:0:0:0:
506,89,76444,1,0,0:0:0:0:
491,167,76611,1,8,0:0:0:0:
425,213,76777,2,0,L|345:205,1,80,0|0,0:0|0:0,0:0:0:0:
270,174,77111,1,0,0:0:0:0:
279,253,77277,2,0,B|307:286|307:286|429:297,1,160,0|8,0:0|0:0,0:0:0:0:
482,243,77777,6,0,P|494:184|486:158,1,80,0|0,0:0|0:0,0:0:0:0:
454,93,78111,2,0,P|408:53|382:47,1,80,0|0,0:0|0:0,0:0:0:0:
312,30,78444,2,0,P|254:49|236:69,1,80,8|0,0:0|0:0,0:0:0:0:
203,209,78777,6,0,L|199:130,1,80,0|0,0:0|0:0,0:0:0:0:
144,69,79111,1,0,0:0:0:0:
64,77,79277,1,8,0:0:0:0:
28,148,79444,2,0,L|32:227,1,80,0|0,0:0|0:0,0:0:0:0:
74,295,79777,1,0,0:0:0:0:
153,281,79944,2,0,P|212:293|190:219,1,160,0|8,0:0|0:0,0:0:0:0:
142,169,80444,5,0,0:0:0:0:
212,132,80611,2,0,L|291:142,1,80,0|0,0:0|0:0,0:0:0:0:
295,223,80944,1,0,0:0:0:0:
365,186,81111,2,0,L|444:196,1,80,8|0,0:0|0:0,0:0:0:0:
478,313,81444,6,0,L|399:303,1,80,14|0,0:0|0:0,0:0:0:0:
325,335,81777,1,0,0:0:0:0:
268,277,81944,6,0,L|189:267,1,80,10|0,0:0|0:0,0:0:0:0:
115,299,82277,1,0,0:0:0:0:
108,219,82444,6,0,L|181:188,1,80,10|0,0:0|0:0,0:0:0:0:
262,200,82777,1,0,0:0:0:0:
302,130,82944,6,0,L|375:99,1,80,10|0,0:0|0:0,0:0:0:0:
454,117,83277,1,0,0:0:0:0:
454,117,83361,1,0,0:0:0:0:
454,117,83444,2,0,P|471:162|453:218,1,80,2|0,0:0|0:0,0:0:0:0:
440,268,83777,2,0,P|408:305|351:317,1,80,2|0,0:0|0:0,0:0:0:0:
380,316,84111,5,6,0:0:0:0:
197,246,84444,1,0,0:0:0:0:
380,316,84777,1,0,0:0:0:0:
189,126,85111,5,0,0:0:0:0:
267,93,85277,2,0,L|273:43,2,40,0|0|0,0:0|0:0|0:0,0:0:0:0:
344,133,85611,1,0,0:0:0:0:
344,133,85694,1,0,0:0:0:0:
344,133,85777,2,0,L|355:198,2,40,8|0|0,0:0|0:0|0:0,0:0:0:0:
372,59,86111,6,0,P|369:23|380:-16,2,53.3333333333333,2|2|2,0:0|0:0|0:0,0:0:0:0:
412,93,86444,2,0,L|422:166,2,53.3333333333333,2|2|2,0:0|0:0|0:0,0:0:0:0:
444,50,86777,1,4,0:0:0:0:
76,33,107611,5,0,0:0:0:0:
150,9,107777,1,8,0:0:0:0:
214,56,107944,1,0,0:0:0:0:
241,130,108111,6,0,L|286:295,2,160,4|8|2,0:0|0:0|0:0,0:0:0:0:
176,82,108944,2,0,L|96:75,1,80,0|0,0:0|0:0,0:0:0:0:
34,126,109277,6,0,P|17:217|45:299,2,160,8|0|0,0:0|0:0|0:0,0:0:0:0:
96,75,110111,1,2,0:0:0:0:
175,82,110277,2,0,L|254:88,1,80,0|8,0:0|0:0,0:0:0:0:
334,97,110611,1,0,0:0:0:0:
484,108,110777,5,0,0:0:0:0:
405,142,110944,2,0,L|415:236,1,80,0|8,0:0|0:0,0:0:0:0:
492,187,111277,5,0,0:0:0:0:
413,221,111444,2,0,L|423:315,2,80,2|0|0,0:0|0:0|0:0,0:0:0:0:
405,142,111944,2,0,B|374:114|374:114|318:123|223:111,1,160,8|0,0:0|0:0,0:0:0:0:
45,98,112444,6,0,P|82:110|121:104,1,80,8|0,0:0|0:0,0:0:0:0:
193,73,112777,1,2,0:0:0:0:
185,156,112944,2,0,L|208:323,1,160,0|0,0:0|0:0,0:0:0:0:
348,287,113611,6,0,L|358:367,2,80,0|8|0,0:0|0:0|0:0,0:0:0:0:
363,208,114111,2,0,P|366:153|352:116,1,80,2|0,0:0|0:0,0:0:0:0:
311,64,114444,1,0,0:0:0:0:
232,78,114611,1,8,0:0:0:0:
153,93,114777,2,0,P|104:83|66:58,1,80,0|0,0:0|0:0,0:0:0:0:
16,16,115111,1,8,0:0:0:0:
34,93,115277,1,0,0:0:0:0:
73,248,115611,2,0,L|165:261,1,80,0|8,0:0|0:0,0:0:0:0:
210,208,115944,5,0,0:0:0:0:
210,208,116027,1,0,0:0:0:0:
210,208,116111,2,0,L|298:200,2,80,0|0|8,0:0|0:0|0:0,0:0:0:0:
244,280,116611,2,0,L|323:272,2,80,0|2|0,0:0|0:0|0:0,0:0:0:0:
244,280,117111,1,0,0:0:0:0:
268,354,117277,6,0,L|459:336,1,160,8|0,0:0|0:0,0:0:0:0:
494,295,117777,1,8,0:0:0:0:
458,223,117944,1,0,0:0:0:0:
458,223,118027,1,0,0:0:0:0:
458,223,118111,6,0,L|298:238,2,160,2|8|4,0:0|0:0|0:0,0:0:0:0:
492,150,118944,6,0,P|498:111|489:68,1,80,0|8,0:0|0:0,0:0:0:0:
427,22,119277,1,0,0:0:0:0:
352,54,119444,2,0,L|255:38,1,80,2|0,0:0|0:0,0:0:0:0:
194,25,119777,1,2,0:0:0:0:
157,93,119944,1,8,0:0:0:0:
211,151,120111,2,0,L|221:244,2,80,2|0|8,0:0|0:0|0:0,0:0:0:0:
281,112,120611,6,0,P|351:98|400:112,1,120,0|0,0:0|0:0,0:0:0:0:
427,135,120944,2,0,L|401:259,1,120,0|0,0:0|0:0,0:0:0:0:
362,255,121277,2,0,L|263:261,1,80,0|2,0:0|0:0,0:0:0:0:
207,230,121611,5,0,0:0:0:0:
135,194,121777,2,0,P|95:191|58:204,1,80,8|0,0:0|0:0,0:0:0:0:
106,268,122111,2,0,P|65:316|67:356,1,80,2|0,0:0|0:0,0:0:0:0:
142,338,122444,1,2,0:0:0:0:
216,308,122611,2,0,L|382:298,2,160,8|0|0,0:0|0:0|0:0,0:0:0:0:
170,242,123444,2,0,P|155:190|165:153,1,80,2|0,0:0|0:0,0:0:0:0:
206,100,123777,1,8,0:0:0:0:
440,47,124277,6,0,P|447:86|441:125,1,80,0|8,0:0|0:0,0:0:0:0:
391,188,124611,1,0,0:0:0:0:
316,160,124777,2,0,L|237:146,1,80,2|0,0:0|0:0,0:0:0:0:
158,164,125111,5,2,0:0:0:0:
87,201,125277,1,8,0:0:0:0:
23,151,125444,2,0,L|34:56,1,80,0|0,0:0|0:0,0:0:0:0:
104,36,125777,1,8,0:0:0:0:
175,72,125944,6,0,P|239:86|304:69,1,120,0|0,0:0|0:0,0:0:0:0:
329,61,126277,2,0,P|387:50|449:65,1,120,0|0,0:0|0:0,0:0:0:0:
478,86,126611,2,0,L|485:175,1,80,0|2,0:0|0:0,0:0:0:0:
455,315,126944,6,0,P|459:275|450:236,1,80,0|8,0:0|0:0,0:0:0:0:
405,169,127277,1,0,0:0:0:0:
333,205,127444,2,0,L|160:220,1,160,2|2,0:0|0:0,0:0:0:0:
100,185,127944,2,0,P|82:109|108:18,2,160,8|0|0,0:0|0:0|0:0,0:0:0:0:
110,263,128777,2,0,P|123:318|108:363,1,80,2|0,0:0|0:0,0:0:0:0:
36,230,129111,1,8,0:0:0:0:
193,254,129444,5,4,0:0:0:0:
272,240,129611,2,0,L|285:300,2,40,0|0|8,0:0|0:0|0:0,0:0:0:0:
337,193,129944,1,0,0:0:0:0:
337,193,130027,1,0,0:0:0:0:
337,193,130111,2,0,P|341:150|324:100,1,80,2|0,0:0|0:0,0:0:0:0:
259,80,130444,2,0,L|180:94,1,80,8|0,0:0|0:0,0:0:0:0:
102,115,130777,5,2,0:0:0:0:
70,188,130944,2,0,L|20:227,2,40,0|0|8,0:0|0:0|0:0,0:0:0:0:
124,246,131277,1,0,0:0:0:0:
199,272,131444,2,0,L|307:245,1,80,2|0,0:0|0:0,0:0:0:0:
263,173,131777,2,0,L|155:200,1,80,8|0,0:0|0:0,0:0:0:0:
46,238,132111,5,2,0:0:0:0:
124,246,132278,2,0,L|116:295,2,40,0|0|8,0:0|0:0|0:0,0:0:0:0:
185,192,132611,1,0,0:0:0:0:
185,192,132694,1,0,0:0:0:0:
185,192,132777,1,2,0:0:0:0:
242,135,132944,1,0,0:0:0:0:
298,77,133111,2,0,L|377:86,1,80,8|0,0:0|0:0,0:0:0:0:
512,65,133444,5,2,0:0:0:0:
452,118,133611,1,0,0:0:0:0:
452,118,133694,1,0,0:0:0:0:
452,118,133777,2,0,L|441:203,1,80,8|0,0:0|0:0,0:0:0:0:
367,165,134111,2,0,L|377:85,1,80,2|0,0:0|0:0,0:0:0:0:
312,38,134444,1,8,0:0:0:0:
239,71,134611,1,0,0:0:0:0:
246,150,134777,5,4,0:0:0:0:
402,338,135111,1,8,0:0:0:0:
200,253,135444,1,2,0:0:0:0:
400,192,135777,2,0,L|487:170,1,80,8|0,0:0|0:0,0:0:0:0:
348,260,136111,6,0,B|247:285|247:285|181:241,1,160,2|8,0:0|0:0,0:0:0:0:
351,123,136777,2,0,P|423:112|477:171,1,160,2|8,0:0|0:0,0:0:0:0:
494,250,137277,1,0,0:0:0:0:
456,320,137444,2,0,L|371:328,1,80,2|0,0:0|0:0,0:0:0:0:
301,299,137777,2,0,P|267:278|230:227,1,80,12|0,0:0|0:0,0:0:0:0:
198,180,138111,6,0,P|196:122|216:84,2,53.3333333333333,2|2|2,0:0|0:0|0:0,0:0:0:0:
164,221,138444,2,0,P|114:251|71:253,2,53.3333333333333,2|2|2,0:0|0:0|0:0,0:0:0:0:
214,239,138777,5,0,0:0:0:0:
290,213,138944,1,0,0:0:0:0:
290,213,139111,1,2,0:0:0:0:
277,291,139277,5,0,0:0:0:0:
350,270,139444,1,2,0:0:0:0:
350,270,139611,1,0,0:0:0:0:
290,213,139777,2,0,L|293:110,1,80,2|0,0:0|0:0,0:0:0:0:
235,85,140111,6,0,P|194:71|136:77,1,80,4|0,0:0|0:0,0:0:0:0:
80,93,140444,1,0,0:0:0:0:
29,158,140611,2,0,P|16:253|51:334,1,160,8|0,0:0|0:0,0:0:0:0:
99,361,141111,1,0,0:0:0:0:
169,324,141277,2,0,L|347:301,1,160,0|8,0:0|0:0,0:0:0:0:
376,239,141777,6,0,P|382:199|370:161,1,80,0|0,0:0|0:0,0:0:0:0:
302,204,142111,2,0,P|270:179|232:170,1,80,0|0,0:0|0:0,0:0:0:0:
231,250,142444,2,0,P|191:250|155:268,1,80,8|0,0:0|0:0,0:0:0:0:
207,328,142777,5,2,0:0:0:0:
285,344,142944,1,0,0:0:0:0:
353,302,143111,1,0,0:0:0:0:
374,224,143278,2,0,L|374:133,1,80,8|0,0:0|0:0,0:0:0:0:
436,94,143611,1,0,0:0:0:0:
455,171,143778,2,0,L|455:251,1,80,0|0,0:0|0:0,0:0:0:0:
392,300,144111,1,0,0:0:0:0:
315,278,144278,2,0,L|236:288,1,80,8|0,0:0|0:0,0:0:0:0:
169,242,144611,1,0,0:0:0:0:
136,168,144778,6,0,P|127:124|138:85,1,80,0|0,0:0|0:0,0:0:0:0:
214,101,145111,2,0,L|293:97,1,80,8|0,0:0|0:0,0:0:0:0:
290,175,145444,6,0,L|188:180,1,80,4|0,0:0|0:0,0:0:0:0:
136,168,145778,1,0,0:0:0:0:
152,249,145944,1,8,0:0:0:0:
96,307,146111,2,0,P|38:321|7:312,1,80,0|0,0:0|0:0,0:0:0:0:
152,249,146444,1,0,0:0:0:0:
223,284,146611,2,0,L|303:288,1,80,0|0,0:0|0:0,0:0:0:0:
371,246,146944,1,8,0:0:0:0:
300,211,147111,2,0,L|220:207,1,80,0|0,0:0|0:0,0:0:0:0:
152,249,147444,5,0,0:0:0:0:
75,226,147611,1,0,0:0:0:0:
59,147,147777,1,8,0:0:0:0:
128,107,147944,1,0,0:0:0:0:
207,109,148111,6,0,P|198:58|209:24,2,80,2|0|0,0:0|0:0|0:0,0:0:0:0:
256,168,148611,2,0,B|309:160|309:160|354:175|354:175|411:163,1,160,8|0,0:0|0:0,0:0:0:0:
406,241,149111,2,0,B|349:254|349:254|304:239|304:239|251:247,1,160,0|0,0:0|0:0,0:0:0:0:
179,210,149611,1,8,0:0:0:0:
118,262,149777,2,0,L|122:342,1,80,0|0,0:0|0:0,0:0:0:0:
202,351,150111,2,0,L|258:328,3,40,8|8|8|8,0:0|0:0|0:0|0:0,0:0:0:0:
281,357,150444,2,0,L|320:338,3,40,2|0|0|0,0:0|0:0|0:0|0:0,0:0:0:0:
352,322,150777,6,0,B|435:327|435:327|498:266,1,160,4|0,0:0|0:0,0:0:0:0:
459,199,151277,1,8,0:0:0:0:
396,248,151444,2,0,L|316:242,1,80,0|0,0:0|0:0,0:0:0:0:
239,219,151777,1,0,0:0:0:0:
179,272,151944,2,0,B|95:277|95:277|41:223,1,160,0|8,0:0|0:0,0:0:0:0:
54,144,152444,6,0,P|13:92|13:66,1,80,0|0,0:0|0:0,0:0:0:0:
93,77,152777,2,0,P|118:16|140:3,1,80,0|0,0:0|0:0,0:0:0:0:
171,78,153111,1,8,0:0:0:0:
228,133,153277,1,0,0:0:0:0:
242,280,153444,6,0,L|273:180,1,80,2|0,0:0|0:0,0:0:0:0:
310,137,153777,1,0,0:0:0:0:
384,167,153944,1,8,0:0:0:0:
459,193,154111,2,0,B|469:154|469:154|454:101,2,80,0|0|0,0:0|0:0|0:0,0:0:0:0:
470,286,154611,6,0,B|450:336|450:336|333:357,1,160,0|8,0:0|0:0,0:0:0:0:
292,294,155111,2,0,L|198:282,1,80,0|0,0:0|0:0,0:0:0:0:
142,322,155444,1,0,0:0:0:0:
151,239,155611,1,0,0:0:0:0:
78,271,155777,2,0,L|-16:259,1,80,8|0,0:0|0:0,0:0:0:0:
151,239,156111,6,0,L|157:159,1,80,14|0,0:0|0:0,0:0:0:0:
167,80,156444,1,0,0:0:0:0:
232,126,156611,6,0,L|238:205,1,80,10|0,0:0|0:0,0:0:0:0:
244,286,156944,1,0,0:0:0:0:
310,242,157111,6,0,L|316:162,1,80,10|0,0:0|0:0,0:0:0:0:
326,83,157444,1,0,0:0:0:0:
391,129,157611,6,0,L|397:208,1,80,10|0,0:0|0:0,0:0:0:0:
403,289,157944,1,0,0:0:0:0:
403,289,158027,1,0,0:0:0:0:
403,289,158111,2,0,P|386:324|351:344,1,80,2|0,0:0|0:0,0:0:0:0:
274,365,158444,2,0,P|224:365|188:329,1,80,2|0,0:0|0:0,0:0:0:0:
173,273,158777,6,0,L|192:114,1,160,6|0,0:0|0:0,0:0:0:0:
272,128,159277,2,0,L|253:287,1,160,2|0,0:0|0:0,0:0:0:0:
313,339,159777,1,0,0:0:0:0:
388,311,159944,1,0,0:0:0:0:
397,231,160111,2,0,L|407:152,1,80,0|8,0:0|0:0,0:0:0:0:
418,72,160444,2,0,P|398:46|355:29,1,80,0|0,0:0|0:0,0:0:0:0:
275,37,160778,2,0,P|256:39|232:36,3,40,8|8|8|8,0:0|0:0|0:0|0:0,0:0:0:0:
194,32,161111,2,0,P|174:30|154:32,3,40,2|0|0|0,0:0|0:0|0:0|0:0,0:0:0:0:
117,47,161444,6,0,P|106:89|116:133,1,80,4|0,0:0|1:0,0:0:0:0:
154,192,161777,1,0,0:0:0:0:
228,162,161944,2,0,P|315:149|388:194,1,160,8|0,0:0|0:0,0:0:0:0:
434,236,162444,1,0,0:0:0:0:
495,184,162611,2,0,L|509:24,1,160,0|8,0:0|0:0,0:0:0:0:
430,34,163111,6,0,P|372:10|333:21,1,80,0|0,0:0|0:0,0:0:0:0:
373,93,163444,2,0,P|324:131|313:170,1,80,0|0,0:0|0:0,0:0:0:0:
394,171,163777,2,0,P|389:210|402:248,1,80,8|0,0:0|0:0,0:0:0:0:
469,204,164111,5,2,0:0:0:0:
458,115,164277,1,0,0:0:0:0:
373,93,164444,1,0,0:0:0:0:
297,132,164611,2,0,L|217:141,1,80,8|0,0:0|0:0,0:0:0:0:
146,103,164944,1,0,0:0:0:0:
222,64,165111,2,0,L|301:54,1,80,0|0,0:0|0:0,0:0:0:0:
373,93,165444,1,0,0:0:0:0:
412,169,165611,2,0,L|421:248,1,80,8|0,0:0|0:0,0:0:0:0:
401,325,165944,1,0,0:0:0:0:
321,311,166111,6,0,L|226:323,1,80,0|0,0:0|0:0,0:0:0:0:
177,368,166444,2,0,P|163:325|175:279,1,80,8|0,0:0|0:0,0:0:0:0:
224,166,166777,6,0,P|238:209|226:255,1,80,4|0,0:0|0:0,0:0:0:0:
168,291,167111,1,0,0:0:0:0:
93,263,167277,1,8,0:0:0:0:
61,189,167444,2,0,B|49:152|49:152|83:32,1,160,0|0,0:0|0:0,0:0:0:0:
287,169,167944,6,0,B|250:181|250:181|130:147,1,160,0|8,0:0|0:0,0:0:0:0:
154,70,168444,2,0,L|240:95,1,80,0|0,0:0|0:0,0:0:0:0:
307,68,168777,5,0,0:0:0:0:
382,41,168944,1,0,0:0:0:0:
448,86,169111,1,8,0:0:0:0:
430,163,169277,1,0,0:0:0:0:
359,196,169444,6,0,L|382:278,2,80,2|0|0,0:0|0:0|0:0,0:0:0:0:
288,145,169944,2,0,B|231:157|231:157|186:142|186:142|133:150,1,160,8|0,0:0|0:0,0:0:0:0:
127,230,170444,2,0,B|180:222|180:222|225:237|225:237|282:224,1,160,0|0,0:0|0:0,0:0:0:0:
359,196,170944,1,8,0:0:0:0:
434,224,171111,2,0,L|438:304,1,80,0|0,0:0|0:0,0:0:0:0:
363,318,171444,2,0,L|319:269,3,40,8|8|8|8,0:0|0:0|0:0|0:0,0:0:0:0:
298,360,171777,2,0,L|254:362,3,40,2|0|0|0,0:0|0:0|0:0|0:0,0:0:0:0:
217,362,172111,6,0,P|185:350|158:309,1,80,4|0,0:0|1:0,0:0:0:0:
170,234,172444,1,0,0:0:0:0:
157,154,172611,1,8,0:0:0:0:
109,89,172777,2,0,L|29:81,2,80,0|0|0,0:0|0:0|0:0,0:0:0:0:
188,81,173277,2,0,B|216:48|216:48|338:37,1,160,0|8,0:0|0:0,0:0:0:0:
389,93,173777,6,0,P|401:152|393:178,1,80,0|0,0:0|0:0,0:0:0:0:
361,243,174111,2,0,P|315:283|288:289,1,80,0|0,0:0|0:0,0:0:0:0:
219,306,174444,2,0,P|161:287|143:267,1,80,8|0,0:0|0:0,0:0:0:0:
121,118,174777,6,0,L|125:197,2,80,2|0|0,0:0|0:0|0:0,0:0:0:0:
59,66,175277,1,8,0:0:0:0:
11,130,175444,2,0,L|15:209,1,80,0|0,0:0|0:0,0:0:0:0:
76,261,175777,1,0,0:0:0:0:
125,197,175944,2,0,B|154:157|154:157|296:160,1,160,0|8,0:0|0:0,0:0:0:0:
333,200,176444,5,0,0:0:0:0:
406,167,176611,2,0,L|485:177,1,80,0|0,0:0|0:0,0:0:0:0:
505,254,176944,1,0,0:0:0:0:
432,287,177111,2,0,L|353:277,1,80,8|0,0:0|0:0,0:0:0:0:
281,144,177444,6,0,L|289:238,1,80,14|0,0:0|0:0,0:0:0:0:
274,302,177777,1,0,0:0:0:0:
203,264,177944,6,0,L|211:170,1,80,10|0,0:0|0:0,0:0:0:0:
196,106,178277,1,0,0:0:0:0:
124,142,178444,6,0,L|132:236,1,80,10|0,0:0|0:0,0:0:0:0:
117,300,178777,1,0,0:0:0:0:
46,262,178944,6,0,L|54:168,1,80,10|0,0:0|0:0,0:0:0:0:
39,104,179277,1,0,0:0:0:0:
39,104,179361,1,0,0:0:0:0:
39,104,179444,2,0,P|64:61|114:48,1,80,2|0,0:0|0:0,0:0:0:0:
168,29,179777,2,0,P|218:29|254:65,1,80,2|0,0:0|0:0,0:0:0:0:
271,120,180111,5,6,0:0:0:0:
317,273,180444,1,0,0:0:0:0:
271,120,180777,1,8,0:0:0:0:
317,273,181111,5,0,0:0:0:0:
251,318,181277,2,0,L|239:362,2,40,0|0|0,0:0|0:0|0:0,0:0:0:0:
199,255,181611,1,0,0:0:0:0:
199,255,181694,1,0,0:0:0:0:
199,255,181777,2,0,L|188:190,2,40,8|0|0,0:0|0:0|0:0,0:0:0:0:
165,327,182111,6,0,P|168:363|157:402,2,53.3333333333333,2|2|2,0:0|0:0|0:0,0:0:0:0:
125,290,182444,2,0,L|113:199,2,53.3333333333333,2|2|2,0:0|0:0|0:0,0:0:0:0:
93,333,182778,5,4,0:0:0:0:
