osu file format v14

[General]
AudioFilename: audio.mp3
AudioLeadIn: 0
PreviewTime: 43444
Countdown: 0
SampleSet: Soft
StackLeniency: 0.7
Mode: 0
LetterboxInBreaks: 0
WidescreenStoryboard: 0

[Editor]
Bookmarks: 22778,33444,86778,108111,118778,129444,140111,182778
DistanceSpacing: 0.7
BeatDivisor: 4
GridSize: 4
TimelineZoom: 3

[Metadata]
Title:DREAMCATCHER
TitleUnicode:DREAMCATCHER
Artist:nano
ArtistUnicode:ナノ
Creator:Vert
Version:Desire
Source:魔法少女育成計画
Tags:Mahou Shoujo Ikusei Keikaku MahouIku Magical Girl Raising Project WESTGROUND ending ed full ver Depths Dored Koiyuki Minakami Yuki Kashima sahuang -Laura-
BeatmapID:1474455
BeatmapSetID:695957

[Difficulty]
HPDrainRate:7.6
CircleSize:4
OverallDifficulty:8.6
ApproachRate:9.4
SliderMultiplier:2.2
SliderTickRate:1

[Events]
//Background and Video events
0,0,"SwimxRuler.png",0,0
//Break Periods
//Storyboard Layer 0 (Background)
//Storyboard Layer 1 (Fail)
//Storyboard Layer 2 (Pass)
//Storyboard Layer 3 (Foreground)
//Storyboard Sound Samples

[TimingPoints]
1445,333.333333333333,4,2,11,15,1,0
1445,-200,4,2,11,15,0,0
3778,-400,4,2,11,15,0,0
6111,-100,4,2,88,15,0,0
6444,-200,4,2,88,25,0,0
6778,-200,4,2,11,15,0,0
9111,-400,4,2,11,15,0,0
11444,-100,4,2,88,15,0,0
11778,-100,4,2,88,25,0,0
12111,-200,4,2,11,20,0,0
22778,-133.333333333333,4,2,11,40,0,0
33111,-200,4,2,11,40,0,0
33444,-100,4,2,12,60,0,0
42778,-200,4,2,12,60,0,0
44111,-83.3333333333333,4,2,12,75,0,1
53611,-125,4,2,12,75,0,1
65611,-83.3333333333333,4,2,12,75,0,1
76278,-125,4,2,12,75,0,1
86778,-100,4,2,12,60,0,0
108111,-200,4,2,12,40,0,0
113444,-133.333333333333,4,2,12,40,0,0
118778,-100,4,2,11,50,0,0
129111,-133.333333333333,4,2,11,50,0,0
129444,-100,4,2,11,60,0,0
130444,-133.333333333333,4,2,11,60,0,0
134444,-83.3333333333333,4,2,11,60,0,0
134778,-133.333333333333,4,2,12,60,0,0
138778,-100,4,2,11,15,0,0
139111,-100,4,2,12,50,0,0
139778,-200,4,2,12,30,0,0
140111,-83.3333333333333,4,2,12,60,0,1
149611,-125,4,2,12,60,0,1
161611,-83.3333333333333,4,2,12,60,0,1
172111,-125,4,2,12,60,0,1
181278,-125,4,2,12,40,0,1
182111,-125,4,2,12,60,0,1
182778,-100,4,2,0,60,0,0
208361,-100,4,2,0,5,0,0

[Colours]
Combo1 : 97,10,214
Combo2 : 242,166,253
Combo3 : 170,126,250
Combo4 : 255,0,255

[HitObjects]
116,94,1111,5,0,0:0:0:0:
116,94,1445,2,0,L|238:72,1,110,2|0,0:0|0:0,0:0:0:0:
429,154,1944,2,0,L|303:126,2,110,2|0|2,0:0|0:0|0:0,0:0:0:0:
429,154,3778,5,0,0:0:0:0:
429,154,4111,2,0,L|364:168,1,55,2|0,0:0|0:0,0:0:0:0:
223,185,4611,2,0,L|277:197,2,55,2|0|2,0:0|0:0|0:0,0:0:0:0:
223,185,6444,5,0,0:0:0:0:
223,185,6778,2,0,L|104:201,1,110,2|0,0:0|0:0,0:0:0:0:
318,231,7278,2,0,L|448:254,2,110,2|0|2,0:0|0:0|0:0,0:0:0:0:
318,231,9111,5,0,0:0:0:0:
318,231,9444,2,0,L|258:239,1,55,2|0,0:0|0:0,0:0:0:0:
118,260,9944,2,0,L|171:271,2,55,2|0|2,0:0|0:0|0:0,0:0:0:0:
117,59,12111,5,2,0:0:0:0:
89,151,12278,1,0,0:0:0:0:
157,219,12444,1,2,0:0:0:0:
132,312,12611,1,0,0:0:0:0:
225,283,12778,2,0,L|305:291,2,55,2|0|0,0:0|0:0|0:0,0:0:0:0:
61,239,13278,5,0,0:0:0:0:
89,151,13444,1,2,0:0:0:0:
117,59,13611,1,0,0:0:0:0:
185,127,13778,2,0,L|265:139,1,55,2|0,0:0|0:0,0:0:0:0:
392,104,14111,1,0,0:0:0:0:
392,104,14278,2,0,L|336:96,1,55,0|0,0:0|0:0,0:0:0:0:
324,248,14611,2,0,L|316:172,1,55,2|0,0:0|0:0,0:0:0:0:
364,336,14944,5,0,0:0:0:0:
268,328,15111,1,2,0:0:0:0:
172,320,15278,1,0,0:0:0:0:
30,217,15444,1,2,0:0:0:0:
126,209,15611,1,0,0:0:0:0:
222,201,15778,1,0,0:0:0:0:
318,193,15944,2,0,L|394:185,2,55,2|0|0,0:0|0:0|0:0,0:0:0:0:
168,124,16444,5,2,0:0:0:0:
244,64,16611,2,0,L|298:59,1,55,0|0,0:0|0:0,0:0:0:0:
76,88,16944,2,0,L|4:80,2,55,2|0|0,0:0|0:0|0:0,0:0:0:0:
152,28,17444,5,0,0:0:0:0:
168,124,17611,1,0,0:0:0:0:
88,184,17778,1,2,0:0:0:0:
104,280,17944,1,0,0:0:0:0:
196,316,18111,2,0,L|272:304,2,55,2|0|0,0:0|0:0|0:0,0:0:0:0:
12,244,18611,5,0,0:0:0:0:
88,184,18778,1,2,0:0:0:0:
180,220,18944,1,0,0:0:0:0:
256,160,19111,2,0,L|332:172,1,55,2|0,0:0|0:0,0:0:0:0:
464,136,19444,1,2,2:0:0:0:
464,136,19611,2,0,L|408:128,1,55,0|0,0:0|0:0,0:0:0:0:
324,16,19944,6,0,L|332:92,1,55,2|0,0:0|0:0,0:0:0:0:
392,228,20278,1,0,0:0:0:0:
304,264,20444,1,2,0:0:0:0:
216,304,20611,1,0,0:0:0:0:
40,152,20778,1,2,0:0:0:0:
132,180,20944,1,0,0:0:0:0:
224,208,21111,1,0,0:0:0:0:
312,168,21278,2,0,L|376:140,2,55,2|0|0,0:0|0:0|0:0,0:0:0:0:
152,272,21778,5,2,0:0:0:0:
132,180,21944,2,0,L|144:108,1,55,0|0,0:0|0:0,0:0:0:0:
244,300,22278,2,0,L|252:364,2,55,2|0|0,0:0|0:0|0:0,0:0:0:0:
372,188,22778,5,4,0:0:0:0:
460,232,22944,1,0,0:0:0:0:
444,256,23028,1,0,0:0:0:0:
420,272,23111,2,0,P|384:284|332:276,1,82.5000031471254,0|0,1:0|0:0,0:0:0:0:
236,100,23444,2,0,L|317:113,1,82.5000031471254,0|0,0:0|1:0,0:0:0:0:
164,160,23778,1,0,1:0:0:0:
140,72,23944,1,0,0:0:0:0:
256,186,24111,6,0,P|216:240|176:256,1,82.5000031471254,0|0,0:0|0:0,0:0:0:0:
72,136,24444,1,0,1:0:0:0:
60,312,24611,2,0,P|100:300|156:312,1,82.5000031471254
300,284,24944,2,0,P|364:311|432:267,1,123.750004720688,0|0,0:0|0:0,0:0:0:0:
424,272,25278,2,0,L|416:176,1,82.5000031471254,0|0,0:0|0:0,0:0:0:0:
428,168,25528,1,0,0:0:0:0:
440,148,25611,5,0,0:0:0:0:
336,24,25778,1,0,1:0:0:0:
284,92,25944,1,0,0:0:0:0:
204,56,26111,2,0,P|163:52|123:63,1,82.5000031471254,0|0,0:0|1:0,0:0:0:0:
103,240,26444,1,0,1:0:0:0:
200,288,26611,2,0,B|184:260|184:260|196:232|196:232|156:184|180:120,2,165.000006294251,0|0|0,0:0|0:0|0:0,0:0:0:0:
252,166,27444,1,0,0:0:0:0:
103,240,27611,1,0,0:0:0:0:
223,302,27778,2,0,P|264:311|320:298,1,82.5000031471254,0|0,1:0|0:0,0:0:0:0:
352,180,28111,5,2,0:0:0:0:
452,260,28278,1,0,0:0:0:0:
460,280,28361,1,0,0:0:0:0:
468,300,28444,2,0,L|452:408,1,82.5000031471254,0|0,1:0|0:0,0:0:0:0:
268,224,28778,2,0,P|260:168|280:120,1,82.5000031471254,0|0,0:0|1:0,0:0:0:0:
428,28,29111,1,0,1:0:0:0:
468,104,29278,1,0,0:0:0:0:
432,179,29444,6,0,P|392:188|352:180,1,82.5000031471254,0|0,0:0|0:0,0:0:0:0:
240,56,29778,1,0,1:0:0:0:
156,13,29944,2,0,P|143:52|152:92,1,82.5000031471254,0|0,0:0|0:0,0:0:0:0:
256,232,30278,2,0,P|228:201|189:188,1,82.5000031471254,0|0,0:0|1:0,0:0:0:0:
12,212,30611,2,0,P|51:203|82:176,1,82.5000031471254,0|0,0:0|0:0,0:0:0:0:
92,164,30861,1,0,0:0:0:0:
96,148,30944,5,0,0:0:0:0:
8,120,31111,1,0,1:0:0:0:
12,212,31278,1,0,0:0:0:0:
96,264,31444,2,0,P|104:320|80:364,1,82.5000031471254,0|0,0:0|1:0,0:0:0:0:
16,304,31778,1,0,1:0:0:0:
180,372,31944,2,0,B|300:356|300:356|348:372,2,165.000006294251,0|0|0,0:0|0:0|0:0,0:0:0:0:
236,272,32778,2,0,L|352:256,1,82.5000031471254,0|0,0:0|0:0,0:0:0:0:
408,296,33111,6,0,P|412:244|396:208,1,82.5,0|0,1:0|0:0,0:0:0:0:
384,192,33444,5,4,0:0:0:0:
180,372,33611,1,0,0:0:0:0:
72,88,33778,2,0,B|124:108|124:108|252:76,1,165,8|0,0:0|0:0,0:0:0:0:
112,204,34111,1,0,0:0:0:0:
112,204,34278,2,0,L|-16:152,1,110,2|0,0:0|0:0,0:0:0:0:
132,16,34611,1,0,0:0:0:0:
308,144,34778,6,0,P|332:100|316:36,1,110,8|0,0:0|0:0,0:0:0:0:
308,24,35028,1,0,0:0:0:0:
292,8,35111,1,0,0:0:0:0:
72,88,35278,1,0,0:0:0:0:
248,220,35444,2,0,P|300:240|380:212,1,110,2|0,0:0|0:0,0:0:0:0:
424,52,35778,1,8,0:0:0:0:
230,81,35944,1,0,0:0:0:0:
440,168,36111,5,0,0:0:0:0:
292,8,36278,1,0,0:0:0:0:
248,220,36444,2,0,B|240:352|240:352|272:312,1,165,8|0,0:0|0:0,0:0:0:0:
152,168,36778,1,0,0:0:0:0:
152,168,36944,2,0,L|144:320,1,110,2|0,0:0|0:0,0:0:0:0:
352,230,37278,1,0,0:0:0:0:
204,92,37444,6,0,P|157:75|76:112,1,110,8|0,0:0|0:0,0:0:0:0:
84,104,37694,1,0,0:0:0:0:
72,124,37778,1,0,0:0:0:0:
146,277,37944,1,0,0:0:0:0:
352,230,38111,2,0,P|368:182|324:102,1,110,2|0,0:0|0:0,0:0:0:0:
152,168,38444,1,8,0:0:0:0:
280,296,38611,1,0,0:0:0:0:
308,48,38778,6,0,B|368:24|416:64|416:64|456:24|528:32,2,220,4|0|0,0:0|0:0|0:0,0:0:0:0:
280,180,39611,1,0,0:0:0:0:
492,124,39778,1,8,0:0:0:0:
364,288,39944,1,0,0:0:0:0:
220,96,40111,6,0,B|168:80|168:80|92:128|-16:112,2,220,0|0|0,0:0|0:0|0:0,0:0:0:0:
260,348,40944,1,0,0:0:0:0:
416,196,41111,1,8,0:0:0:0:
176,180,41278,1,0,0:0:0:0:
456,288,41444,6,0,P|517:203|469:110,1,220,0|12,0:0|0:0,0:0:0:0:
252,128,41944,1,0,0:0:0:0:
232,116,42028,1,0,0:0:0:0:
220,96,42111,6,0,P|220:52|244:4,2,73.3333333333333,2|2|2,0:0|0:0|0:0,0:0:0:0:
330,159,42444,6,0,P|336:123|328:88,2,73.3333333333333,10|2|2,0:0|0:0|0:0,0:0:0:0:
416,196,42778,6,0,B|312:184|332:260|220:252,1,192.5,6|0,0:0|0:0,0:0:0:0:
164,204,43444,2,0,B|132:184|132:184|124:300|124:300|168:276,1,192.5,0|0,0:0|0:0,0:0:0:0:
252,160,44111,5,4,0:0:0:0:
392,284,44278,2,0,B|404:332|404:332|300:328,1,131.99999597168,0|0,0:0|0:0,0:0:0:0:
116,252,44611,2,0,B|188:260|188:260|241:242|241:242|312:249,1,197.99999395752,8|0,0:0|0:0,0:0:0:0:
392,284,44944,1,0,0:0:0:0:
248,80,45111,1,0,0:0:0:0:
40,192,45278,6,0,B|20:224|20:224|36:352,1,131.99999597168,0|0,0:0|0:0,0:0:0:0:
316,132,45611,2,0,B|336:100|336:100|320:-28,1,131.99999597168,8|0,0:0|0:0,0:0:0:0:
40,32,45944,1,0,0:0:0:0:
248,80,46111,1,0,0:0:0:0:
0,108,46278,1,0,0:0:0:0:
53,323,46444,2,0,L|37:167,1,131.99999597168,8|0,0:0|0:0,0:0:0:0:
184,16,46778,5,2,0:0:0:0:
379,65,46944,2,0,L|248:80,1,131.99999597168,0|0,0:0|0:0,0:0:0:0:
139,283,47278,2,0,B|179:299|179:299|228:292|228:292|264:264,1,131.99999597168,8|0,0:0|0:0,0:0:0:0:
456,116,47611,1,0,0:0:0:0:
184,16,47778,1,0,0:0:0:0:
144,324,47944,2,0,B|179:298|179:298|228:292|228:292|272:308,1,131.99999597168,0|0,0:0|0:0,0:0:0:0:
480,384,48278,6,0,B|504:336|504:336|484:172,1,197.99999395752,8|0,0:0|0:0,0:0:0:0:
480,160,48611,1,0,0:0:0:0:
412,316,48778,1,0,0:0:0:0:
344,120,48944,1,0,0:0:0:0:
412,316,49111,2,0,P|372:352|256:320,1,131.99999597168,8|0,0:0|0:0,0:0:0:0:
128,160,49444,5,4,0:0:0:0:
340,144,49611,2,0,B|316:188|316:188|340:304,1,131.99999597168,0|0,0:0|0:0,0:0:0:0:
44,136,49944,2,0,B|68:92|68:92|44:-24,1,131.99999597168,8|0,0:0|0:0,0:0:0:0:
0,232,50278,1,0,0:0:0:0:
244,132,50444,1,0,0:0:0:0:
107,356,50611,6,0,B|247:328|247:328|311:360,1,197.99999395752,0|0,0:0|0:0,0:0:0:0:
336,364,50944,2,0,P|384:304|364:228,1,131.99999597168,8|0,0:0|0:0,0:0:0:0:
264,36,51278,1,0,0:0:0:0:
104,200,51444,1,0,0:0:0:0:
292,284,51611,1,0,0:0:0:0:
56,44,51778,2,0,B|96:68|96:68|228:44,1,131.99999597168,8|0,0:0|0:0,0:0:0:0:
424,4,52111,5,2,0:0:0:0:
448,228,52278,2,0,B|459:159|459:159|435:103|435:103|444:37,1,197.99999395752,0|0,0:0|0:0,0:0:0:0:
424,4,52611,2,0,L|400:160,1,131.99999597168,8|0,0:0|0:0,0:0:0:0:
436,320,52944,1,0,0:0:0:0:
224,204,53111,1,0,0:0:0:0:
8,356,53278,2,0,B|104:340|104:340|164:372,1,131.99999597168,0|0,0:0|0:0,0:0:0:0:
311,224,53611,6,0,P|294:261|192:288,1,132,8|0,0:0|0:0,0:0:0:0:
168,272,53944,1,0,0:0:0:0:
32,92,54111,5,8,0:0:0:0:
76,88,54194,1,8,0:0:0:0:
120,84,54278,1,8,0:0:0:0:
164,80,54361,1,8,0:0:0:0:
248,48,54444,5,2,0:0:0:0:
276,52,54528,1,0,0:0:0:0:
304,56,54611,1,0,0:0:0:0:
332,60,54694,1,0,0:0:0:0:
416,20,54778,5,4,0:0:0:0:
416,20,54944,2,0,P|424:80|400:124,1,88,0|0,1:0|0:0,0:0:0:0:
304,212,55278,1,8,0:0:0:0:
332,60,55444,1,0,0:0:0:0:
448,184,55611,1,0,0:0:0:0:
260,128,55778,1,0,0:0:0:0:
384,256,55944,6,0,P|332:300|252:288,1,132,0|0,0:0|0:0,0:0:0:0:
244,280,56278,2,0,P|200:268|136:292,1,88,8|0,0:0|0:0,0:0:0:0:
44,360,56611,1,0,0:0:0:0:
164,296,56778,1,0,0:0:0:0:
48,376,56944,1,0,0:0:0:0:
71,271,57111,2,0,L|60:160,1,88,8|0,0:0|0:0,0:0:0:0:
16,48,57444,5,0,0:0:0:0:
112,96,57611,2,0,B|172:84|172:84|224:104|224:104|312:88,1,176,0|8,0:0|0:0,0:0:0:0:
444,284,58111,1,0,0:0:0:0:
356,256,58278,1,0,0:0:0:0:
264,256,58444,1,0,0:0:0:0:
372,116,58611,6,0,P|400:184|352:252,1,132,0|0,0:0|0:0,0:0:0:0:
356,256,58944,2,0,L|364:368,1,88,8|0,0:0|0:0,0:0:0:0:
312,176,59278,1,0,0:0:0:0:
444,284,59444,1,0,0:0:0:0:
272,348,59611,1,0,0:0:0:0:
300,160,59778,6,0,L|180:168,1,88,8|0,0:0|0:0,0:0:0:0:
44,192,60111,5,14,0:0:0:0:
284,252,60278,1,0,0:0:0:0:
284,252,60444,1,0,0:0:0:0:
44,192,60611,5,10,0:0:0:0:
320,68,60778,1,0,0:0:0:0:
320,68,60944,1,0,0:0:0:0:
44,192,61111,5,10,0:0:0:0:
380,280,61278,1,0,0:0:0:0:
380,280,61444,1,0,0:0:0:0:
44,192,61611,5,10,0:0:0:0:
412,48,61778,1,0,0:0:0:0:
248,360,61944,5,0,0:0:0:0:
248,360,62028,1,0,0:0:0:0:
248,360,62111,1,2,0:0:0:0:
184,24,62278,1,0,0:0:0:0:
452,188,62444,1,2,0:0:0:0:
92,296,62611,1,0,0:0:0:0:
296,16,62778,5,6,0:0:0:0:
380,128,62944,2,0,P|356:188|408:268,1,132,0|0,0:0|0:0,0:0:0:0:
408,268,63278,2,0,P|428:320|412:372,1,88,2|0,0:0|0:0,0:0:0:0:
276,384,63611,5,0,0:0:0:0:
344,324,63778,1,0,0:0:0:0:
192,352,63944,2,0,L|96:360,1,88,0|0,0:0|0:0,0:0:0:0:
312,232,64278,2,0,L|419:247,1,88,8|0,0:0|0:0,0:0:0:0:
228,268,64611,1,0,0:0:0:0:
148,8,64778,5,8,0:0:0:0:
152,52,64861,1,8,0:0:0:0:
156,96,64945,1,8,0:0:0:0:
160,140,65028,1,8,0:0:0:0:
240,184,65111,5,2,0:0:0:0:
236,212,65195,1,0,0:0:0:0:
232,240,65278,1,0,0:0:0:0:
228,268,65361,1,0,0:0:0:0:
192,352,65444,5,4,0:0:0:0:
192,352,65611,2,0,B|152:336|152:336|28:360,1,131.99999597168,0|0,1:0|0:0,0:0:0:0:
228,268,65944,2,0,B|276:292|276:292|324:272|372:292|372:292|412:272,1,197.99999395752,8|0,0:0|0:0,0:0:0:0:
360,204,66277,1,0,0:0:0:0:
112,256,66444,1,0,0:0:0:0:
268,112,66611,6,0,B|304:128|304:128|428:104,1,131.99999597168,0|0,0:0|0:0,0:0:0:0:
192,352,66944,2,0,B|156:336|156:336|32:360,1,131.99999597168,8|0,0:0|0:0,0:0:0:0:
40,40,67277,1,0,0:0:0:0:
112,256,67444,1,0,0:0:0:0:
268,112,67611,1,0,0:0:0:0:
408,304,67777,2,0,P|372:344|264:328,1,131.99999597168,8|0,0:0|0:0,0:0:0:0:
124,152,68111,5,0,0:0:0:0:
408,88,68277,2,0,B|384:184|384:184|396:224,1,131.99999597168,0|0,0:0|0:0,0:0:0:0:
136,360,68611,2,0,B|160:264|160:264|148:224,1,131.99999597168,8|0,0:0|0:0,0:0:0:0:
320,40,68944,1,0,0:0:0:0:
328,272,69111,1,0,0:0:0:0:
124,152,69278,2,0,B|114:120|114:120|138:24,1,131.99999597168,0|0,0:0|0:0,0:0:0:0:
40,384,69611,6,0,B|68:264|68:264|32:152,1,197.99999395752,8|0,0:0|0:0,0:0:0:0:
32,164,69944,1,0,0:0:0:0:
216,112,70111,1,0,0:0:0:0:
52,8,70278,1,0,0:0:0:0:
308,136,70444,2,0,P|256:196|124:140,1,197.99999395752,8|0,0:0|0:0,0:0:0:0:
124,152,70777,5,4,0:0:0:0:
372,76,70944,2,0,B|396:120|396:120|372:236,1,131.99999597168,0|0,0:0|0:0,0:0:0:0:
104,372,71277,2,0,B|80:328|80:328|104:212,1,131.99999597168,8|0,0:0|0:0,0:0:0:0:
216,112,71611,1,0,0:0:0:0:
364,288,71777,1,0,0:0:0:0:
460,48,71944,6,0,B|408:32|372:76|372:76|336:28|264:48,1,197.99999395752,0|0,0:0|0:0,0:0:0:0:
252,64,72277,2,0,P|192:96|112:60,1,131.99999597168,8|0,0:0|0:0,0:0:0:0:
304,132,72611,1,0,0:0:0:0:
100,232,72777,1,0,0:0:0:0:
184,12,72944,1,0,0:0:0:0:
268,252,73111,2,0,B|256:388,1,131.99999597168,8|0,0:0|0:0,0:0:0:0:
44,308,73444,5,0,0:0:0:0:
16,88,73611,2,0,B|8:132|27:165|27:165|3:221|3:221|16:288,1,197.99999395752,0|0,0:0|0:0,0:0:0:0:
44,308,73944,2,0,P|104:328|184:272,1,131.99999597168,8|0,0:0|0:0,0:0:0:0:
336,216,74277,1,0,0:0:0:0:
452,368,74444,1,0,0:0:0:0:
267,151,74611,2,0,P|331:123|423:167,1,131.99999597168,0|0,0:0|0:0,0:0:0:0:
364,336,74944,6,0,B|316:344|316:344|292:368|292:368|208:380,1,131.99999597168,8|0,0:0|0:0,0:0:0:0:
100,232,75277,1,0,0:0:0:0:
248,20,75444,5,8,0:0:0:0:
276,52,75527,1,8,0:0:0:0:
284,96,75611,1,8,0:0:0:0:
268,136,75694,1,8,0:0:0:0:
204,204,75777,5,2,0:0:0:0:
192,228,75861,1,0,0:0:0:0:
192,256,75944,1,0,0:0:0:0:
204,280,76027,1,0,0:0:0:0:
264,352,76111,5,4,0:0:0:0:
264,352,76278,2,0,P|208:372|152:360,1,88,0|0,1:0|0:0,0:0:0:0:
112,228,76611,1,8,0:0:0:0:
284,240,76777,1,0,0:0:0:0:
112,316,76944,1,0,0:0:0:0:
204,204,77111,1,0,0:0:0:0:
24,228,77278,6,0,B|24:192|48:168|48:168|32:72,1,132,0|0,0:0|0:0,0:0:0:0:
56,68,77611,2,0,P|96:40|156:48,1,88,8|0,0:0|0:0,0:0:0:0:
264,108,77944,1,0,0:0:0:0:
124,120,78111,1,0,0:0:0:0:
268,84,78277,1,0,0:0:0:0:
132,144,78444,2,0,P|120:192|132:232,1,88,8|0,0:0|0:0,0:0:0:0:
272,296,78778,5,0,0:0:0:0:
386,190,78944,2,0,B|328:180|328:180|276:200|276:200|216:188,1,176,0|8,0:0|0:0,0:0:0:0:
247,21,79444,1,0,0:0:0:0:
264,108,79611,1,0,0:0:0:0:
176,80,79778,1,0,0:0:0:0:
408,28,79944,6,0,L|272:36,1,132,0|0,0:0|0:0,0:0:0:0:
247,21,80277,2,0,L|264:108,1,88,8|0,0:0|0:0,0:0:0:0:
84,140,80611,1,0,0:0:0:0:
112,4,80777,1,0,0:0:0:0:
184,172,80944,1,0,0:0:0:0:
36,288,81111,6,0,P|83:266|127:270,1,88,8|0,0:0|0:0,0:0:0:0:
328,352,81444,5,14,0:0:0:0:
264,108,81611,1,0,0:0:0:0:
264,108,81777,1,0,0:0:0:0:
328,352,81944,5,10,0:0:0:0:
364,56,82111,1,0,0:0:0:0:
364,56,82277,1,0,0:0:0:0:
328,352,82444,5,10,0:0:0:0:
176,24,82611,1,0,0:0:0:0:
176,24,82777,1,0,0:0:0:0:
328,352,82944,5,10,0:0:0:0:
452,8,83111,1,0,0:0:0:0:
140,180,83277,5,0,0:0:0:0:
140,180,83361,1,0,0:0:0:0:
140,180,83444,1,2,0:0:0:0:
488,232,83611,1,0,0:0:0:0:
176,24,83777,1,2,0:0:0:0:
208,360,83944,1,0,0:0:0:0:
336,172,84111,5,6,0:0:0:0:
336,172,84444,1,0,0:0:0:0:
336,172,84778,1,0,0:0:0:0:
336,172,85111,1,0,0:0:0:0:
128,344,85278,5,0,0:0:0:0:
164,328,85361,1,0,0:0:0:0:
204,332,85444,2,0,P|236:340|272:336,1,44,0|0,0:0|0:0,0:0:0:0:
368,372,85611,1,0,0:0:0:0:
352,336,85694,1,0,0:0:0:0:
352,296,85778,1,8,0:0:0:0:
376,264,85861,1,0,0:0:0:0:
412,248,85944,2,0,P|441:243|496:256,1,44,0|0,0:0|0:0,0:0:0:0:
444,324,86111,6,0,L|504:336,2,58.6666666666667,2|2|2,0:0|0:0|0:0,0:0:0:0:
280,240,86444,2,0,L|208:248,2,58.6666666666667,2|2|2,0:0|0:0|0:0,0:0:0:0:
416,136,86778,6,0,P|428:72|396:16,1,110,4|0,0:0|0:0,0:0:0:0:
392,12,87028,1,0,0:0:0:0:
392,12,87111,1,8,0:0:0:0:
344,88,87278,1,0,0:0:0:0:
344,88,87444,1,0,0:0:0:0:
148,76,87611,2,0,L|8:92,1,110,8|0,0:0|0:0,0:0:0:0:
125,113,87944,2,0,L|365:85,1,220,0|0,0:0|0:0,0:0:0:0:
416,136,88444,5,8,0:0:0:0:
336,316,88611,1,0,0:0:0:0:
512,260,88778,1,0,0:0:0:0:
424,240,88944,1,8,0:0:0:0:
336,220,89111,1,0,0:0:0:0:
248,200,89278,1,8,0:0:0:0:
48,332,89444,6,0,L|64:212,1,110,4|0,0:0|0:0,0:0:0:0:
68,192,89694,1,0,0:0:0:0:
68,192,89777,1,8,0:0:0:0:
84,88,89944,1,0,0:0:0:0:
84,88,90111,1,0,0:0:0:0:
176,316,90278,2,0,P|244:312|276:288,1,110,8|0,0:0|0:0,0:0:0:0:
208,224,90611,2,0,B|228:40|228:40|256:80,1,220,0|0,0:0|0:0,0:0:0:0:
304,132,91111,5,8,0:0:0:0:
508,64,91277,1,0,0:0:0:0:
380,0,91444,1,0,0:0:0:0:
408,96,91611,1,8,0:0:0:0:
436,192,91777,1,0,0:0:0:0:
464,288,91944,1,8,0:0:0:0:
208,224,92111,6,0,L|192:352,1,110,4|0,0:0|0:0,0:0:0:0:
192,364,92361,1,0,0:0:0:0:
192,364,92444,1,8,0:0:0:0:
296,332,92611,1,0,0:0:0:0:
296,332,92777,1,0,0:0:0:0:
200,136,92944,2,0,B|120:148|120:148|164:164,1,110,8|0,0:0|0:0,0:0:0:0:
248,208,93278,2,0,P|288:132|160:60,1,220,0|0,0:0|0:0,0:0:0:0:
120,148,93778,5,8,0:0:0:0:
192,364,93944,1,0,0:0:0:0:
0,316,94111,1,0,0:0:0:0:
96,328,94277,1,8,0:0:0:0:
172,268,94444,1,0,0:0:0:0:
264,292,94611,1,8,0:0:0:0:
468,368,94778,6,0,L|456:220,1,110,4|0,0:0|0:0,0:0:0:0:
456,232,95028,1,0,0:0:0:0:
456,232,95111,1,8,0:0:0:0:
364,264,95278,1,0,0:0:0:0:
364,264,95444,1,0,0:0:0:0:
188,112,95611,2,0,L|204:-8,1,110,8|0,0:0|0:0,0:0:0:0:
268,72,95944,2,0,B|152:140|160:16|16:96,1,220,0|0,0:0|0:0,0:0:0:0:
108,160,96444,5,8,0:0:0:0:
84,356,96611,1,0,0:0:0:0:
272,328,96778,1,0,0:0:0:0:
176,316,96944,1,8,0:0:0:0:
96,256,97111,1,0,0:0:0:0:
0,244,97278,1,8,0:0:0:0:
192,212,97444,6,0,P|240:156|188:64,1,165,4|0,0:0|0:0,0:0:0:0:
156,16,97778,2,0,P|204:-4|280:28,1,110,8|0,0:0|0:0,0:0:0:0:
332,72,98110,1,0,0:0:0:0:
152,138,98278,2,0,L|12:126,1,110,8|0,0:0|0:0,0:0:0:0:
48,360,98611,2,0,B|92:320|92:320|284:340,1,220,0|0,0:0|0:0,0:0:0:0:
344,380,99111,5,8,0:0:0:0:
416,178,99278,1,0,0:0:0:0:
336,276,99444,1,0,0:0:0:0:
428,316,99611,1,8,0:0:0:0:
332,248,99777,1,0,0:0:0:0:
424,288,99944,1,8,0:0:0:0:
496,136,100111,6,0,P|420:88|332:144,1,165,4|0,0:0|0:0,0:0:0:0:
288,164,100444,2,0,P|232:180|156:140,1,110,8|0,0:0|0:0,0:0:0:0:
236,80,100777,1,0,0:0:0:0:
416,178,100944,2,0,L|424:288,1,110,8|0,0:0|0:0,0:0:0:0:
248,348,101278,2,0,P|216:280|336:288,1,220,0|0,0:0|0:0,0:0:0:0:
348,352,101779,5,8,0:0:0:0:
132,340,101944,1,0,0:0:0:0:
324,257,102111,1,0,0:0:0:0:
248,348,102278,1,8,0:0:0:0:
300,240,102444,1,0,0:0:0:0:
224,331,102611,1,8,0:0:0:0:
420,356,102778,6,0,L|424:191,1,165,4|0,0:0|0:0,0:0:0:0:
344,144,103111,2,0,L|220:160,1,110,8|0,0:0|0:0,0:0:0:0:
144,120,103444,1,0,0:0:0:0:
21,319,103611,2,0,P|12:266|32:216,1,110,8|0,0:0|0:0,0:0:0:0:
169,252,103944,2,0,B|244:268|244:268|100:276,1,220,0|0,0:0|0:0,0:0:0:0:
32,215,104444,5,8,0:0:0:0:
132,28,104611,1,0,0:0:0:0:
12,124,104778,1,0,0:0:0:0:
144,120,104944,1,8,0:0:0:0:
4,92,105111,1,0,0:0:0:0:
152,148,105278,1,8,0:0:0:0:
240,24,105444,6,0,B|296:8|296:8|356:20|356:20|432:-4,1,165,4|0,0:0|0:0,0:0:0:0:
483,51,105778,2,0,B|464:84|464:84|395:106,1,110,8|0,0:0|0:0,0:0:0:0:
300,104,106110,1,0,0:0:0:0:
468,176,106278,2,0,P|488:240|452:300,1,110,8|0,0:0|0:0,0:0:0:0:
287,323,106611,2,0,L|302:69,1,220,0|0,0:0|0:0,0:0:0:0:
200,136,107111,5,8,0:0:0:0:
396,232,107277,1,0,0:0:0:0:
264,348,107444,1,0,0:0:0:0:
280,220,107610,1,8,0:0:0:0:
396,320,107778,1,8,0:0:0:0:
287,323,107944,1,8,0:0:0:0:
176,324,108111,6,0,L|52:328,2,110,4|8|2,0:0|0:0|0:0,0:0:0:0:
236,248,108944,1,0,0:0:0:0:
220,156,109278,1,8,0:0:0:0:
208,68,109611,1,0,0:0:0:0:
344,232,109778,2,0,L|252:244,1,82.5,8|0,0:0|0:0,0:0:0:0:
236,248,110111,1,2,0:0:0:0:
220,156,110278,1,0,0:0:0:0:
208,68,110444,1,8,0:0:0:0:
452,176,110778,6,0,L|448:304,2,110,0|8|2,0:0|0:0|0:0,0:0:0:0:
376,96,111611,1,0,0:0:0:0:
268,108,111944,1,8,0:0:0:0:
160,120,112278,1,0,0:0:0:0:
100,212,112444,2,0,L|112:284,1,55,8|0,0:0|0:0,0:0:0:0:
376,96,112778,1,2,0:0:0:0:
268,108,112944,1,0,0:0:0:0:
160,120,113111,1,8,0:0:0:0:
376,256,113444,6,0,L|368:352,1,82.5000031471254,4|0,0:0|0:0,0:0:0:0:
256,276,113778,2,0,L|248:380,1,82.5000031471254,8|0,0:0|0:0,0:0:0:0:
136,296,114111,1,2,0:0:0:0:
12,316,114278,2,0,L|28:148,2,165.000006294251,0|8|0,0:0|0:0|0:0,0:0:0:0:
136,296,115111,2,0,L|124:160,1,123.750004720688,8|0,0:0|0:0,0:0:0:0:
152,144,115444,1,2,0:0:0:0:
268,152,115611,1,0,0:0:0:0:
380,164,115778,1,8,0:0:0:0:
176,24,116111,6,0,L|64:32,1,82.5000031471254,0|0,0:0|0:0,0:0:0:0:
152,144,116444,2,0,L|32:152,1,82.5000031471254,8|0,0:0|0:0,0:0:0:0:
128,260,116778,1,2,0:0:0:0:
104,380,116944,2,0,L|292:368,2,165.000006294251,0|8|0,0:0|0:0|0:0,0:0:0:0:
128,260,117778,2,0,L|264:268,1,123.750004720688,8|0,0:0|0:0,0:0:0:0:
280,244,118111,1,2,0:0:0:0:
256,128,118278,1,0,0:0:0:0:
232,12,118444,1,8,0:0:0:0:
232,12,118778,5,4,0:0:0:0:
200,220,118944,1,0,0:0:0:0:
176,204,119028,1,0,0:0:0:0:
160,180,119111,2,0,P|148:144|168:68,1,110,8|0,0:0|0:0,0:0:0:0:
320,40,119444,2,0,L|432:56,1,110,2|0,0:0|0:0,0:0:0:0:
344,204,119778,1,2,0:0:0:0:
256,128,119944,1,8,0:0:0:0:
436,188,120111,6,0,P|422:253|385:288,1,110,2|0,0:0|0:0,0:0:0:0:
208,328,120444,2,0,P|239:300|309:289,1,110,8|0,0:0|0:0,0:0:0:0:
112,180,120778,2,0,P|139:244|68:328,1,165,2|0,0:0|0:0,0:0:0:0:
8,332,121111,2,0,L|124:340,1,110,8|0,0:0|0:0,0:0:0:0:
48,240,121444,5,2,0:0:0:0:
160,40,121611,1,0,0:0:0:0:
156,80,121694,1,0,0:0:0:0:
172,116,121778,2,0,P|224:148|312:124,1,110,8|0,0:0|0:0,0:0:0:0:
452,56,122111,2,0,P|404:56|340:104,1,110,2|0,0:0|0:0,0:0:0:0:
428,148,122444,1,2,0:0:0:0:
328,320,122611,6,0,L|352:188,1,110,8|0,0:0|0:0,0:0:0:0:
248,56,122944,1,0,0:0:0:0:
68,200,123111,2,0,L|96:48,1,110,8|0,0:0|0:0,0:0:0:0:
156,268,123444,1,2,0:0:0:0:
8,296,123611,1,0,0:0:0:0:
176,348,123778,2,0,L|196:240,1,110,8|0,0:0|0:0,0:0:0:0:
248,56,124111,5,4,0:0:0:0:
436,0,124278,1,0,0:0:0:0:
452,24,124361,1,0,0:0:0:0:
456,56,124444,2,0,L|432:188,1,110,8|0,0:0|0:0,0:0:0:0:
182,122,124778,2,0,P|154:50|174:2,1,110,2|0,0:0|0:0,0:0:0:0:
320,128,125111,1,2,0:0:0:0:
288,224,125278,1,8,0:0:0:0:
248,56,125444,6,0,P|300:32|396:48,1,110,0|0,0:0|0:0,0:0:0:0:
436,164,125778,1,8,0:0:0:0:
400,264,125944,1,0,0:0:0:0:
216,344,126111,2,0,P|160:284|56:324,1,165,2|0,0:0|0:0,0:0:0:0:
48,376,126444,2,0,L|36:236,1,110,8|0,0:0|0:0,0:0:0:0:
20,60,126778,5,2,0:0:0:0:
236,56,126944,1,0,0:0:0:0:
240,88,127028,1,0,0:0:0:0:
244,120,127111,2,0,L|260:264,1,110,8|0,0:0|0:0,0:0:0:0:
480,344,127444,2,0,P|504:304|484:224,1,110,2|0,0:0|0:0,0:0:0:0:
220,316,127778,1,2,0:0:0:0:
336,108,127944,1,8,0:0:0:0:
419,280,128111,6,0,L|312:304,1,110,2|0,0:0|0:0,0:0:0:0:
120,328,128444,2,0,L|14:297,1,110,10|0,0:0|0:0,0:0:0:0:
208,216,128778,1,2,0:0:0:0:
419,280,128944,1,0,0:0:0:0:
419,280,129111,6,0,L|264:316,1,123.750004720688,8|0,0:0|0:0,0:0:0:0:
264,316,129444,5,4,0:0:0:0:
156,120,129611,1,0,0:0:0:0:
156,120,129694,1,0,0:0:0:0:
156,120,129778,1,8,0:0:0:0:
332,168,129944,1,0,0:0:0:0:
128,224,130111,1,2,0:0:0:0:
336,144,130278,1,0,0:0:0:0:
176,16,130444,2,0,L|36:28,1,123.750004720688,8|0,0:0|0:0,0:0:0:0:
12,32,130778,5,2,0:0:0:0:
128,224,130944,1,0,0:0:0:0:
128,224,131028,1,0,0:0:0:0:
128,224,131111,1,8,0:0:0:0:
288,48,131278,1,0,0:0:0:0:
68,128,131444,1,2,0:0:0:0:
300,64,131611,1,0,0:0:0:0:
180,320,131778,2,0,L|312:324,1,123.750004720688,8|0,0:0|0:0,0:0:0:0:
336,324,132111,5,2,0:0:0:0:
216,136,132278,1,0,0:0:0:0:
216,136,132361,1,0,0:0:0:0:
216,136,132444,1,8,0:0:0:0:
432,216,132611,1,0,0:0:0:0:
284,52,132778,1,2,0:0:0:0:
424,240,132944,1,0,0:0:0:0:
148,224,133111,2,0,L|160:372,1,123.750004720688,8|0,0:0|0:0,0:0:0:0:
161,384,133444,5,2,0:0:0:0:
416,260,133611,1,0,0:0:0:0:
416,260,133694,1,0,0:0:0:0:
416,260,133778,1,8,0:0:0:0:
216,136,133944,1,0,0:0:0:0:
316,360,134111,1,2,0:0:0:0:
300,88,134278,1,0,0:0:0:0:
300,88,134444,2,0,P|256:48|120:116,1,197.99999395752,8|0,0:0|0:0,0:0:0:0:
44,52,134778,5,4,0:0:0:0:
44,52,134944,2,0,L|32:128,1,41.2500015735627,0|0,0:0|0:0,0:0:0:0:
56,192,135111,1,8,0:0:0:0:
56,192,135278,2,0,L|48:244,1,41.2500015735627,0|0,0:0|0:0,0:0:0:0:
68,336,135444,1,2,0:0:0:0:
68,336,135611,2,0,L|60:388,1,41.2500015735627,0|0,0:0|0:0,0:0:0:0:
160,268,135778,1,8,0:0:0:0:
160,268,135861,1,0,0:0:0:0:
160,268,135944,1,0,0:0:0:0:
264,300,136111,6,0,L|272:232,1,41.2500015735627,2|0,0:0|0:0,0:0:0:0:
292,76,136277,1,0,0:0:0:0:
292,76,136444,2,0,L|308:152,1,41.2500015735627,8|0,0:0|0:0,0:0:0:0:
364,284,136611,1,0,0:0:0:0:
364,284,136777,2,0,L|376:220,1,41.2500015735627,2|0,0:0|0:0,0:0:0:0:
376,32,136944,1,0,0:0:0:0:
376,32,137111,2,0,L|392:96,1,41.2500015735627,8|0,0:0|0:0,0:0:0:0:
464,272,137278,1,0,0:0:0:0:
464,272,137361,1,0,0:0:0:0:
464,272,137444,5,2,0:0:0:0:
484,172,137611,2,0,L|412:184,1,41.2500015735627,0|0,0:0|0:0,0:0:0:0:
240,120,137778,1,12,0:0:0:0:
240,120,137944,2,0,L|304:132,1,41.2500015735627,0|0,0:0|0:0,0:0:0:0:
348,36,138111,1,2,0:0:0:0:
376,112,138222,1,2,0:0:0:0:
352,192,138333,1,2,0:0:0:0:
392,264,138444,1,2,0:0:0:0:
364,340,138556,1,2,0:0:0:0:
288,368,138667,1,2,0:0:0:0:
224,316,138778,6,0,P|156:288|80:316,1,146.666666666667,0|0,0:0|0:0,0:0:0:0:
156,384,139111,1,2,0:0:0:0:
288,252,139278,1,0,0:0:0:0:
56,220,139444,1,2,0:0:0:0:
288,252,139611,1,0,0:0:0:0:
176,56,139778,2,0,L|164:144,1,82.5,2|0,0:0|0:0,0:0:0:0:
160,168,140111,5,4,0:0:0:0:
76,360,140278,2,0,B|88:340|88:340|176:352|176:352|196:404,1,131.99999597168,0|0,0:0|0:0,0:0:0:0:
235,240,140611,2,0,B|191:267|191:267|99:255|99:255|63:215,1,197.99999395752,8|0,0:0|0:0,0:0:0:0:
12,144,140944,1,0,0:0:0:0:
316,184,141111,1,0,0:0:0:0:
63,215,141278,6,0,B|43:247|43:247|59:375,1,131.99999597168,0|0,0:0|0:0,0:0:0:0:
392,240,141611,2,0,B|412:208|412:208|396:80,1,131.99999597168,8|0,0:0|0:0,0:0:0:0:
160,20,141944,1,0,0:0:0:0:
144,272,142111,1,0,0:0:0:0:
284,68,142278,1,0,0:0:0:0:
63,215,142444,2,0,B|44:248|44:248|56:348,1,131.99999597168,8|0,0:0|0:0,0:0:0:0:
308,276,142778,5,2,0:0:0:0:
128,144,142944,2,0,P|68:120|-12:156,1,131.99999597168,0|0,0:0|0:0,0:0:0:0:
256,352,143278,2,0,P|336:364|384:328,1,131.99999597168,8|0,0:0|0:0,0:0:0:0:
352,144,143611,1,0,0:0:0:0:
156,224,143778,1,0,0:0:0:0:
440,264,143944,2,0,B|472:304|472:304|460:404,1,131.99999597168,0|0,0:0|0:0,0:0:0:0:
289,214,144278,6,0,B|253:170|253:170|293:2,1,197.99999395752,8|0,0:0|0:0,0:0:0:0:
292,0,144611,1,0,0:0:0:0:
112,92,144778,1,0,0:0:0:0:
352,144,144944,1,0,0:0:0:0:
56,168,145111,2,0,P|28:140|32:44,1,131.99999597168,8|0,0:0|0:0,0:0:0:0:
289,214,145444,5,4,0:0:0:0:
124,352,145611,2,0,B|80:328|80:328|-36:352,1,131.99999597168,0|0,0:0|0:0,0:0:0:0:
364,268,145944,2,0,B|408:292|408:292|524:268,1,131.99999597168,8|0,0:0|0:0,0:0:0:0:
392,40,146278,1,0,0:0:0:0:
280,304,146444,1,0,0:0:0:0:
112,92,146611,6,0,L|328:104,1,197.99999395752,0|0,0:0|0:0,0:0:0:0:
336,124,146944,2,0,P|424:136|480:84,1,131.99999597168,8|0,0:0|0:0,0:0:0:0:
292,4,147278,1,0,0:0:0:0:
392,232,147444,1,0,0:0:0:0:
112,92,147611,1,0,0:0:0:0:
296,368,147778,2,0,B|321:292|321:292|301:244,1,131.99999597168,8|0,0:0|0:0,0:0:0:0:
0,272,148111,5,2,0:0:0:0:
220,292,148278,2,0,B|192:276|192:276|56:300|56:300|16:280,1,197.99999395752,0|0,0:0|0:0,0:0:0:0:
0,272,148611,2,0,L|152:244,1,131.99999597168,8|0,0:0|0:0,0:0:0:0:
252,108,148944,1,0,0:0:0:0:
56,32,149111,1,0,0:0:0:0:
328,32,149278,2,0,B|344:124|344:124|312:184,1,131.99999597168,0|0,0:0|0:0,0:0:0:0:
400,356,149611,6,0,B|384:264|384:264|416:204,1,131.99999597168,8|0,0:0|0:0,0:0:0:0:
420,196,149944,1,0,0:0:0:0:
252,108,150111,5,8,0:0:0:0:
208,112,150194,1,8,0:0:0:0:
164,116,150278,1,8,0:0:0:0:
120,120,150361,1,8,0:0:0:0:
60,204,150444,5,2,0:0:0:0:
88,208,150527,1,0,0:0:0:0:
116,212,150610,1,0,0:0:0:0:
144,216,150694,1,0,0:0:0:0:
188,296,150778,5,4,0:0:0:0:
188,296,150944,2,0,P|128:304|84:280,1,88,0|0,1:0|0:0,0:0:0:0:
120,120,151278,1,8,0:0:0:0:
256,236,151444,1,0,0:0:0:0:
60,204,151611,1,0,0:0:0:0:
224,132,151778,1,0,0:0:0:0:
227,326,151944,6,0,P|291:326|340:284,1,132,0|0,0:0|0:0,0:0:0:0:
376,248,152278,2,0,P|418:239|460:251,1,88,8|0,0:0|0:0,0:0:0:0:
512,360,152611,1,0,0:0:0:0:
484,260,152778,1,0,0:0:0:0:
416,324,152944,1,0,0:0:0:0:
460,164,153111,2,0,L|449:53,1,88,8|0,0:0|0:0,0:0:0:0:
496,0,153444,5,2,0:0:0:0:
358,61,153611,2,0,B|300:72|300:72|248:52|248:52|188:64,1,176,0|8,0:0|0:0,0:0:0:0:
76,192,154111,1,0,0:0:0:0:
180,204,154278,1,0,0:0:0:0:
68,200,154444,1,0,0:0:0:0:
244,144,154611,6,0,P|272:212|224:280,1,132,0|0,0:0|0:0,0:0:0:0:
224,288,154944,2,0,P|216:340|236:392,1,88,8|0,0:0|0:0,0:0:0:0:
180,204,155278,1,0,0:0:0:0:
308,332,155444,1,0,0:0:0:0:
124,284,155611,1,0,0:0:0:0:
264,149,155778,6,0,L|352:144,1,88,8|0,0:0|0:0,0:0:0:0:
512,136,156111,5,14,0:0:0:0:
416,384,156278,1,0,0:0:0:0:
416,384,156444,1,0,0:0:0:0:
512,136,156611,5,10,0:0:0:0:
304,332,156778,1,0,0:0:0:0:
304,332,156944,1,0,0:0:0:0:
512,136,157111,5,10,0:0:0:0:
196,276,157278,1,0,0:0:0:0:
196,276,157444,1,0,0:0:0:0:
512,136,157611,5,10,0:0:0:0:
100,216,157778,1,0,0:0:0:0:
376,16,157944,5,0,0:0:0:0:
376,16,158028,1,0,0:0:0:0:
376,16,158111,1,2,0:0:0:0:
304,332,158278,1,0,0:0:0:0:
136,48,158444,1,2,0:0:0:0:
472,236,158611,1,0,0:0:0:0:
128,384,158778,5,6,0:0:0:0:
19,275,158944,2,0,P|-4:215|19:155,1,132,0|0,0:0|0:0,0:0:0:0:
40,128,159278,2,0,L|32:12,1,88,2|0,0:0|0:0,0:0:0:0:
136,48,159611,5,0,0:0:0:0:
100,216,159778,1,0,0:0:0:0:
220,84,159944,2,0,P|228:44|208:-12,1,88,0|0,0:0|0:0,0:0:0:0:
192,172,160278,2,0,P|184:212|204:268,1,88,8|0,0:0|0:0,0:0:0:0:
288,208,160611,1,0,0:0:0:0:
484,356,160778,5,8,0:0:0:0:
480,312,160861,1,8,0:0:0:0:
476,268,160945,1,8,0:0:0:0:
472,224,161028,1,8,0:0:0:0:
388,180,161111,5,2,0:0:0:0:
384,208,161194,1,0,0:0:0:0:
380,236,161277,1,0,0:0:0:0:
376,264,161361,1,0,0:0:0:0:
400,352,161444,5,4,0:0:0:0:
400,352,161611,2,0,P|352:352|288:284,1,132,0|0,1:0|0:0,0:0:0:0:
176,180,161944,2,0,P|189:230|80:316,1,197.99999395752,8|0,0:0|0:0,0:0:0:0:
88,216,162277,1,0,0:0:0:0:
376,264,162444,1,0,0:0:0:0:
177,53,162611,6,0,B|159:143|159:143|175:179,1,131.99999597168,0|0,0:0|0:0,0:0:0:0:
452,220,162944,2,0,B|468:256|468:256|444:380,1,131.99999597168,8|0,0:0|0:0,0:0:0:0:
252,136,163277,1,0,0:0:0:0:
468,40,163444,1,0,0:0:0:0:
376,264,163611,1,0,0:0:0:0:
148,128,163777,2,0,L|2:119,1,131.99999597168,8|0,0:0|0:0,0:0:0:0:
252,136,164111,5,2,0:0:0:0:
44,328,164277,2,0,B|132:316|132:316|180:340,1,131.99999597168,0|0,0:0|0:0,0:0:0:0:
404,52,164611,2,0,B|316:64|316:64|268:40,1,131.99999597168,8|0,0:0|0:0,0:0:0:0:
80,228,164944,1,0,0:0:0:0:
376,316,165111,1,0,0:0:0:0:
44,328,165278,2,0,B|82:347|82:347|170:335,1,131.99999597168,0|0,0:0|0:0,0:0:0:0:
440,248,165611,6,0,B|384:224|384:224|208:256,1,197.99999395752,8|0,0:0|0:0,0:0:0:0:
216,256,165944,1,0,0:0:0:0:
456,160,166111,1,0,0:0:0:0:
280,352,166278,1,0,0:0:0:0:
296,80,166444,2,0,P|252:12|128:20,1,197.99999395752,8|0,0:0|0:0,0:0:0:0:
116,28,166777,5,4,0:0:0:0:
236,160,166944,2,0,B|304:173|304:173|364:157,1,131.99999597168,0|0,0:0|0:0,0:0:0:0:
180,336,167278,2,0,B|111:322|111:322|51:338,1,131.99999597168,8|0,0:0|0:0,0:0:0:0:
144,144,167611,1,0,0:0:0:0:
276,356,167777,1,0,0:0:0:0:
512,272,167944,6,0,B|419:298|419:298|321:270,1,197.99999395752,0|0,0:0|0:0,0:0:0:0:
288,260,168277,2,0,P|228:268|184:328,1,131.99999597168,8|0,0:0|0:0,0:0:0:0:
420,208,168611,1,0,0:0:0:0:
276,356,168778,1,0,0:0:0:0:
208,120,168944,1,0,0:0:0:0:
496,144,169111,2,0,P|516:196|480:288,1,131.99999597168,8|0,0:0|0:0,0:0:0:0:
196,232,169444,5,2,0:0:0:0:
420,208,169611,2,0,B|376:200|343:219|343:219|292:200|292:200|220:212,1,197.99999395752,0|0,0:0|0:0,0:0:0:0:
196,232,169944,2,0,P|144:260|44:216,1,131.99999597168,8|0,0:0|0:0,0:0:0:0:
117,36,170277,1,0,0:0:0:0:
344,120,170444,1,0,0:0:0:0:
128,168,170611,2,0,L|116:24,1,131.99999597168,0|0,0:0|0:0,0:0:0:0:
420,64,170944,6,0,B|440:100|440:100|428:200,1,131.99999597168,8|0,0:0|0:0,0:0:0:0:
344,120,171277,1,0,0:0:0:0:
312,316,171444,5,8,0:0:0:0:
280,344,171527,1,8,0:0:0:0:
236,352,171611,1,8,0:0:0:0:
196,336,171694,1,8,0:0:0:0:
228,248,171777,5,2,0:0:0:0:
203,238,171861,1,0,0:0:0:0:
175,240,171944,1,0,0:0:0:0:
152,254,172027,1,0,0:0:0:0:
75,314,172111,5,4,0:0:0:0:
75,314,172278,2,0,P|55:258|67:202,1,88,0|0,1:0|0:0,0:0:0:0:
96,112,172611,1,8,0:0:0:0:
212,160,172777,1,0,0:0:0:0:
152,254,172944,1,0,0:0:0:0:
100,156,173111,1,0,0:0:0:0:
188,72,173278,6,0,B|240:60|272:92|272:92|336:80,1,132,0|0,0:0|0:0,0:0:0:0:
340,60,173611,2,0,P|400:44|452:64,1,88,8|0,0:0|0:0,0:0:0:0:
488,204,173944,1,0,0:0:0:0:
392,136,174111,1,0,0:0:0:0:
496,100,174277,1,0,0:0:0:0:
384,244,174444,2,0,P|364:292|372:344,1,88,8|0,0:0|0:0,0:0:0:0:
456,300,174778,5,2,0:0:0:0:
292,376,174944,2,0,B|232:364|232:364|180:384|180:384|92:368,1,176,0|8,0:0|0:0,0:0:0:0:
48,240,175444,1,0,0:0:0:0:
172,304,175611,1,0,0:0:0:0:
44,256,175778,1,0,0:0:0:0:
176,288,175944,6,0,B|264:272|264:272|307:280,1,132,0|0,0:0|0:0,0:0:0:0:
340,292,176277,2,0,P|388:304|448:280,1,88,8|0,0:0|0:0,0:0:0:0:
412,76,176611,1,0,0:0:0:0:
384,212,176777,1,0,0:0:0:0:
512,112,176944,1,0,0:0:0:0:
308,40,177111,6,0,L|220:47,1,88,8|0,0:0|0:0,0:0:0:0:
92,348,177444,5,14,0:0:0:0:
424,295,177611,1,0,0:0:0:0:
424,295,177777,1,0,0:0:0:0:
68,256,177944,5,10,0:0:0:0:
436,192,178111,1,0,0:0:0:0:
436,192,178277,1,0,0:0:0:0:
44,160,178444,5,10,0:0:0:0:
448,92,178611,1,0,0:0:0:0:
448,92,178777,1,0,0:0:0:0:
20,64,178944,5,10,0:0:0:0:
344,360,179111,1,0,0:0:0:0:
336,16,179277,5,0,0:0:0:0:
336,16,179361,1,0,0:0:0:0:
336,16,179444,1,2,0:0:0:0:
68,256,179611,1,0,0:0:0:0:
448,352,179777,1,2,0:0:0:0:
212,16,179944,1,0,0:0:0:0:
80,380,180111,5,6,0:0:0:0:
80,380,180444,1,0,0:0:0:0:
80,380,180778,1,8,0:0:0:0:
80,380,181111,1,0,0:0:0:0:
212,216,181278,5,0,0:0:0:0:
224,184,181361,1,0,0:0:0:0:
228,140,181444,2,0,L|220:60,1,44,0|0,0:0|0:0,0:0:0:0:
112,212,181611,1,0,0:0:0:0:
116,252,181694,1,0,0:0:0:0:
144,292,181777,1,8,0:0:0:0:
184,312,181860,1,0,0:0:0:0:
228,316,181944,2,0,L|292:308,1,44,0|0,0:0|0:0,0:0:0:0:
448,300,182111,6,0,L|440:376,2,58.6666666666667,2|2|2,0:0|0:0|0:0,0:0:0:0:
352,192,182444,2,0,L|340:120,2,58.6666666666667,2|2|2,0:0|0:0|0:0,0:0:0:0:
384,24,182778,5,4,0:0:0:0:
384,24,182944,2,0,B|252:48|252:48|200:32,1,165,0|0,0:0|0:0,0:0:0:0:
196,28,183278,2,0,L|68:52,1,110,8|0,0:0|0:0,0:0:0:0:
52,212,183611,1,0,0:0:0:0:
196,112,183778,1,0,0:0:0:0:
52,212,183944,6,0,P|22:264|60:360,1,165,0|0,0:0|0:0,0:0:0:0:
76,376,184278,2,0,L|200:384,1,110,8|0,0:0|0:0,0:0:0:0:
112,284,184611,1,0,0:0:0:0:
232,176,184778,1,0,0:0:0:0:
112,284,184944,1,0,0:0:0:0:
232,176,185111,2,0,L|404:196,1,165,8|0,0:0|0:0,0:0:0:0:
512,268,185444,5,0,0:0:0:0:
512,268,185611,2,0,P|432:269|384:352,1,165,0|0,0:0|0:0,0:0:0:0:
378,365,185944,2,0,P|429:380|472:348,1,110,8|0,0:0|0:0,0:0:0:0:
432,172,186278,1,0,0:0:0:0:
300,272,186444,1,0,0:0:0:0:
432,172,186611,6,0,L|448:0,1,165,0|0,0:0|0:0,0:0:0:0:
416,12,186944,2,0,L|285:31,1,110,8|0,0:0|0:0,0:0:0:0:
340,164,187278,1,0,0:0:0:0:
200,81,187444,1,0,0:0:0:0:
340,164,187611,1,0,0:0:0:0:
200,81,187778,2,0,P|157:111|160:237,1,165,8|0,0:0|0:0,0:0:0:0:
192,336,188111,5,4,0:0:0:0:
192,336,188278,2,0,B|60:348,1,110,0|0,0:0|0:0,0:0:0:0:
230,172,188611,2,0,B|392:159,1,110,8|0,0:0|0:0,0:0:0:0:
456,260,188944,1,0,0:0:0:0:
292,332,189111,1,0,0:0:0:0:
456,260,189278,6,0,B|440:136|440:136|448:96,1,165,0|0,0:0|0:0,0:0:0:0:
456,68,189611,2,0,L|328:64,1,110,8|0,0:0|0:0,0:0:0:0:
356,208,189944,1,0,0:0:0:0:
204,168,190111,1,0,0:0:0:0:
356,208,190278,1,0,0:0:0:0:
204,168,190444,2,0,L|216:4,1,165,8|0,0:0|0:0,0:0:0:0:
120,124,190778,5,0,0:0:0:0:
120,124,190944,2,0,P|108:180|136:236,1,110,0|0,0:0|0:0,0:0:0:0:
304,132,191278,2,0,P|312:76|276:12,1,110,8|0,0:0|0:0,0:0:0:0:
352,232,191611,1,0,0:0:0:0:
204,168,191778,1,0,0:0:0:0:
352,232,191944,6,0,B|480:248|480:248|512:232,1,165,0|0,0:0|0:0,0:0:0:0:
464,168,192278,2,0,L|450:58,1,110,8|0,0:0|0:0,0:0:0:0:
304,132,192610,1,0,0:0:0:0:
384,316,192777,1,0,0:0:0:0:
304,132,192944,1,0,0:0:0:0:
384,316,193111,2,0,B|188:288,1,165,8|0,0:0|0:0,0:0:0:0:
52,272,193444,5,4,0:0:0:0:
52,272,193611,2,0,L|60:384,1,110,0|0,0:0|0:0,0:0:0:0:
212,208,193944,2,0,L|205:95,1,110,8|0,0:0|0:0,0:0:0:0:
52,76,194278,1,0,0:0:0:0:
200,8,194444,1,0,0:0:0:0:
52,76,194611,6,0,L|68:272,1,165,0|0,0:0|0:0,0:0:0:0:
52,272,194944,2,0,L|60:384,1,110,8|0,0:0|0:0,0:0:0:0:
220,296,195278,1,0,0:0:0:0:
304,160,195444,1,0,0:0:0:0:
220,296,195611,1,0,0:0:0:0:
304,160,195778,2,0,L|488:176,1,165,8|0,0:0|0:0,0:0:0:0:
392,272,196111,5,0,0:0:0:0:
392,272,196278,2,0,P|392:344|348:388,1,110,0|0,0:0|0:0,0:0:0:0:
216,196,196611,2,0,P|212:143|240:92,1,110,8|0,0:0|0:0,0:0:0:0:
312,304,196944,1,0,0:0:0:0:
304,160,197111,1,0,0:0:0:0:
312,304,197278,6,0,L|104:296,1,165,0|0,0:0|0:0,0:0:0:0:
120,316,197611,2,0,P|61:329|2:305,1,110,8|0,0:0|0:0,0:0:0:0:
140,96,197944,1,0,0:0:0:0:
72,244,198111,1,0,0:0:0:0:
140,96,198278,1,0,0:0:0:0:
72,244,198444,2,0,P|69:185|48:64,1,165,8|0,0:0|0:0,0:0:0:0:
156,176,198778,5,4,0:0:0:0:
284,80,198944,2,0,L|420:92,1,110,0|0,0:0|0:0,0:0:0:0:
280,264,199278,2,0,L|171:255,1,110,8|0,0:0|0:0,0:0:0:0:
192,92,199611,1,0,0:0:0:0:
332,168,199778,1,0,0:0:0:0:
192,92,199944,6,0,L|4:100,1,165,0|0,0:0|0:0,0:0:0:0:
0,100,200278,2,0,L|12:220,1,110,8|0,0:0|0:0,0:0:0:0:
56,352,200611,1,0,0:0:0:0:
100,184,200778,1,0,0:0:0:0:
56,352,200944,1,0,0:0:0:0:
100,184,201111,2,0,P|152:232|120:336,1,165,8|0,0:0|0:0,0:0:0:0:
76,264,201444,6,0,L|192:244,1,110,4|0,0:0|0:0,0:0:0:0:
396,320,201778,2,0,L|284:300,1,110,0|0,0:0|0:0,0:0:0:0:
100,184,202111,2,0,L|208:165,1,110,8|0,0:0|0:0,0:0:0:0:
452,244,202444,2,0,L|336:224,1,110,0|8,0:0|0:0,0:0:0:0:
316,216,202694,1,8,0:0:0:0:
316,216,202778,6,0,P|304:166|336:100,1,110,8|0,0:0|0:0,0:0:0:0:
444,52,203111,1,0,0:0:0:0:
208,164,203278,1,8,0:0:0:0:
352,312,203444,1,0,0:0:0:0:
320,84,203611,1,0,0:0:0:0:
96,240,203778,1,8,0:0:0:0:
388,196,203944,1,0,0:0:0:0:
136,12,204111,5,4,0:0:0:0:
256,192,204194,12,0,208444,0:0:0:0:
