osu file format v14

[General]
AudioFilename: audio.mp3
AudioLeadIn: 0
PreviewTime: 43444
Countdown: 0
SampleSet: Soft
StackLeniency: 0.7
Mode: 0
LetterboxInBreaks: 0
WidescreenStoryboard: 1

[Editor]
Bookmarks: 22778,33444,60111,65611,86778,108111,118778,129444,130944,132278,133611,134778,138111,140111,156111,177444,201444,208444
DistanceSpacing: 2.3
BeatDivisor: 4
GridSize: 16
TimelineZoom: 3.5

[Metadata]
Title:DREAMCATCHER
TitleUnicode:DREAMCATCHER
Artist:nano
ArtistUnicode:ナノ
Creator:Vert
Version:Depths' Starlight Future Extra
Source:魔法少女育成計画
Tags:Mahou Shoujo Ikusei Keikaku MahouIku Magical Girl Raising Project WESTGROUND ending ed full ver Depths Dored Koiyuki Minakami Yuki Kashima sahuang -Laura-
BeatmapID:1532896
BeatmapSetID:695957

[Difficulty]
HPDrainRate:6.7
CircleSize:4
OverallDifficulty:8.4
ApproachRate:9.2
SliderMultiplier:1.8
SliderTickRate:1

[Events]
//Background and Video events
0,0,"SwimxRuler.png",0,0
//Break Periods
2,4111,6208
2,9444,11541
//Storyboard Layer 0 (Background)
//Storyboard Layer 1 (Fail)
//Storyboard Layer 2 (Pass)
//Storyboard Layer 3 (Foreground)
//Storyboard Sound Samples

[TimingPoints]
1445,333.333333333333,4,2,0,40,1,0
1445,-166.666666666667,4,2,0,40,0,0
3778,-166.666666666667,4,2,0,5,0,0
6111,-100,4,2,88,15,0,0
6444,-100,4,2,88,25,0,0
6778,-166.666666666667,4,2,11,15,0,0
9111,-166.666666666667,4,2,0,5,0,0
11444,-100,4,2,88,15,0,0
11778,-100,4,2,88,25,0,0
12111,-200,4,2,11,20,0,0
12778,-200,4,2,11,20,0,0
13278,-100,4,2,11,20,0,0
13778,-200,4,2,11,20,0,0
14111,-100,4,2,11,20,0,0
14278,-200,4,2,11,20,0,0
14944,-100,4,2,11,20,0,0
15944,-200,4,2,11,20,0,0
16444,-200,4,2,11,20,0,0
16944,-200,4,2,11,20,0,0
17611,-100,4,2,11,20,0,0
18111,-200,4,2,11,20,0,0
18611,-200,4,2,11,20,0,0
19111,-200,4,2,11,20,0,0
19444,-200,4,2,11,20,0,0
19611,-200,4,2,11,20,0,0
20278,-200,4,2,11,20,0,0
21278,-200,4,2,11,20,0,0
21778,-200,4,2,11,20,0,0
22278,-200,4,2,11,20,0,0
22778,-133.333333333333,4,2,11,40,0,0
33111,-200,4,2,0,40,0,0
33444,-100,4,2,12,60,0,0
42778,-133.333333333333,4,2,0,40,0,0
43444,-200,4,2,11,60,0,0
44111,-83.3333333333333,4,2,12,75,0,1
49111,-83.3333333333333,4,2,12,75,0,1
49444,-83.3333333333333,4,2,12,75,0,1
54944,-125,4,2,12,80,0,1
59778,-100,4,2,12,80,0,1
62944,-125,4,2,12,75,0,1
63778,-100,4,2,12,75,0,1
65611,-83.3333333333333,4,2,12,80,0,1
70444,-83.3333333333333,4,2,12,75,0,1
70778,-83.3333333333333,4,2,12,75,0,1
76278,-125,4,2,12,80,0,1
81111,-100,4,2,12,80,0,1
84278,-100,4,2,12,75,0,1
84778,-100,4,2,12,75,0,1
86778,-100,4,2,12,60,0,0
108111,-100,4,2,12,40,0,0
118778,-100,4,2,11,50,0,0
129444,-100,4,2,11,60,0,0
134778,-100,4,2,12,60,0,0
138778,-100,4,2,11,15,0,0
139111,-100,4,2,12,50,0,0
139778,-200,4,2,12,30,0,0
140111,-83.3333333333333,4,2,12,60,0,1
145111,-83.3333333333333,4,2,12,60,0,1
145444,-83.3333333333333,4,2,12,60,0,1
150944,-125,4,2,12,80,0,1
155778,-100,4,2,12,80,0,1
158944,-100,4,2,12,60,0,1
159611,-100,4,2,12,60,0,1
161444,-83.3333333333333,4,2,12,80,0,1
166444,-83.3333333333333,4,2,12,60,0,1
166778,-83.3333333333333,4,2,12,60,0,1
172111,-125,4,2,12,80,0,1
177111,-100,4,2,12,80,0,1
180278,-100,4,2,12,60,0,1
180778,-100,4,2,12,60,0,1
182778,-100,4,2,0,60,0,0
208444,-166.666666666667,4,2,0,5,0,0

[Colours]
Combo1 : 97,10,214
Combo2 : 242,166,253
Combo3 : 170,126,250
Combo4 : 254,46,51

[HitObjects]
117,199,1445,6,0,B|172:220|218:194|218:194|260:180|320:155|368:97|313:14|207:15|149:85|281:251|281:251|285:324|251:353|209:357|174:330|175:281,1,755.999976928712,2|0,0:0|0:0,0:0:0:0:
473,138,6778,6,0,B|419:152|380:114|380:114|345:160|288:157|288:157|209:201|129:173|133:84|178:25|319:37|286:233|286:233|241:272|161:250,1,755.999976928712,2|0,0:0|0:0,0:0:0:0:
438,338,12111,5,2,0:0:0:0:
377,271,12278,1,0,0:0:0:0:
410,187,12444,1,2,0:0:0:0:
347,122,12611,1,0,0:0:0:0:
328,33,12778,6,0,P|369:33|421:69,1,90,2|0,0:0|0:0,0:0:0:0:
348,122,13278,1,0,0:0:0:0:
272,169,13444,1,2,0:0:0:0:
185,142,13611,1,0,0:0:0:0:
262,188,13778,6,0,L|318:199,1,45,2|0,0:0|0:0,0:0:0:0:
429,262,14111,1,0,0:0:0:0:
429,262,14278,2,0,L|373:273,1,45,0|0,0:0|0:0,0:0:0:0:
272,169,14611,6,0,L|328:180,1,45,2|0,0:0|0:0,0:0:0:0:
381,240,14944,1,0,0:0:0:0:
462,200,15111,1,2,0:0:0:0:
392,257,15278,1,0,0:0:0:0:
314,302,15444,1,2,0:0:0:0:
234,260,15611,1,0,0:0:0:0:
157,307,15778,1,0,0:0:0:0:
81,258,15944,2,0,P|35:268|-1:297,1,90,2|0,0:0|0:0,0:0:0:0:
74,346,16444,5,2,0:0:0:0:
81,258,16611,2,0,L|67:199,1,45,0|0,0:0|0:0,0:0:0:0:
234,260,16944,2,0,L|255:171,1,90,2|0,0:0|0:0,0:0:0:0:
216,37,17444,5,0,0:0:0:0:
162,109,17611,1,0,0:0:0:0:
169,198,17778,1,2,0:0:0:0:
150,286,17945,1,0,0:0:0:0:
94,355,18111,2,0,L|2:369,1,90,2|0,0:0|0:0,0:0:0:0:
150,286,18611,5,0,0:0:0:0:
222,339,18778,1,2,0:0:0:0:
305,305,18944,1,0,0:0:0:0:
380,354,19111,2,0,L|431:360,1,45,2|0,0:0|0:0,0:0:0:0:
511,249,19444,1,2,2:0:0:0:
511,249,19611,2,0,L|460:255,1,45,0|0,0:0|0:0,0:0:0:0:
367,375,19944,2,0,L|418:381,1,45,2|0,0:0|0:0,0:0:0:0:
382,281,20278,5,0,0:0:0:0:
333,205,20444,1,2,0:0:0:0:
376,126,20611,1,0,0:0:0:0:
332,46,20778,1,2,0:0:0:0:
355,132,20944,1,0,0:0:0:0:
321,215,21111,1,0,0:0:0:0:
368,291,21278,6,0,P|412:291|453:314,1,90,2|0,0:0|0:0,0:0:0:0:
257,350,21778,1,2,0:0:0:0:
257,350,21944,2,0,L|243:291,1,45,0|0,0:0|0:0,0:0:0:0:
464,153,22277,2,0,L|485:64,1,90,2|0,0:0|0:0,0:0:0:0:
414,248,22778,5,4,0:0:0:0:
372,44,22944,1,0,0:0:0:0:
374,64,23028,1,0,0:0:0:0:
377,83,23111,2,0,L|364:168,1,67.5000025749208,0|0,1:0|0:0,0:0:0:0:
319,4,23444,5,0,0:0:0:0:
341,88,23611,1,0,0:0:0:0:
364,172,23778,2,0,L|385:241,1,67.5000025749208,0|0,1:0|0:0,0:0:0:0:
189,91,24111,6,0,L|169:155,1,67.5000025749208,0|0,0:0|0:0,0:0:0:0:
240,324,24444,1,0,1:0:0:0:
262,102,24611,2,0,P|255:61|229:30,1,67.5000025749208,0|0,0:0|0:0,0:0:0:0:
169,155,24944,2,0,L|182:240,1,67.5000025749208,0|0,0:0|1:0,0:0:0:0:
240,40,25278,1,0,0:0:0:0:
349,237,25444,6,0,L|365:164,1,67.5000025749208,0|0,0:0|0:0,0:0:0:0:
364,150,25694,1,0,0:0:0:0:
363,129,25778,2,0,P|331:126|296:137,1,67.5000025749208,0|0,1:0|0:0,0:0:0:0:
88,83,26111,2,0,P|120:86|155:75,1,67.5000025749208,0|0,0:0|0:0,0:0:0:0:
260,10,26444,1,0,1:0:0:0:
204,190,26611,6,0,L|45:217,1,135.000005149842,0|0,0:0|0:0,0:0:0:0:
260,10,27111,2,0,L|352:26,1,67.5000025749208,0|0,1:0|0:0,0:0:0:0:
80,73,27444,5,0,0:0:0:0:
177,99,27611,1,0,0:0:0:0:
275,125,27778,2,0,L|352:146,1,67.5000025749208,0|0,1:0|0:0,0:0:0:0:
198,301,28111,5,2,0:0:0:0:
177,99,28278,1,0,0:0:0:0:
177,99,28361,1,0,0:0:0:0:
177,99,28444,2,0,L|167:12,1,67.5000025749208,0|0,1:0|0:0,0:0:0:0:
280,270,28778,2,0,P|283:315|269:351,1,67.5000025749208,0|0,0:0|0:0,0:0:0:0:
67,363,29111,1,0,1:0:0:0:
198,301,29278,1,0,0:0:0:0:
61,224,29444,6,0,L|47:155,1,67.5000025749208,0|0,0:0|0:0,0:0:0:0:
133,333,29778,1,0,1:0:0:0:
268,177,29944,2,0,P|229:178|194:197,1,67.5000025749208,0|0,0:0|0:0,0:0:0:0:
68,320,30278,2,0,P|107:321|142:340,1,67.5000025749208,0|0,0:0|1:0,0:0:0:0:
300,163,30611,6,0,P|233:160|167:200,1,135.000005149842,0|0,0:0|0:0,0:0:0:0:
161,211,31028,1,0,0:0:0:0:
151,232,31111,2,0,L|142:140,1,67.5000025749208,0|0,1:0|0:0,0:0:0:0:
303,23,31444,2,0,L|312:115,1,67.5000025749208,0|0,0:0|0:0,0:0:0:0:
255,257,31778,1,0,1:0:0:0:
365,192,31944,6,0,L|518:209,2,135.000005149842,0|0|0,0:0|0:0|0:0,0:0:0:0:
214,203,32778,1,0,0:0:0:0:
382,116,32944,1,0,0:0:0:0:
346,286,33111,1,0,1:0:0:0:
346,286,33444,6,0,P|402:323|484:291,1,135,4|0,0:0|0:0,0:0:0:0:
415,243,33778,2,0,L|313:255,1,90,8|0,0:0|0:0,0:0:0:0:
258,291,34028,1,0,0:0:0:0:
258,291,34111,1,0,0:0:0:0:
415,243,34278,1,2,0:0:0:0:
259,178,34444,1,0,0:0:0:0:
301,355,34611,1,0,0:0:0:0:
351,171,34778,6,0,P|329:117|303:94,1,90,8|0,0:0|0:0,0:0:0:0:
248,182,35028,1,0,0:0:0:0:
248,182,35111,2,0,L|263:277,1,90,0|0,0:0|0:0,0:0:0:0:
194,105,35444,2,0,L|178:9,1,90,2|0,0:0|0:0,0:0:0:0:
306,96,35778,1,8,0:0:0:0:
167,178,35944,1,0,0:0:0:0:
325,253,36111,5,0,0:0:0:0:
325,253,36278,1,0,0:0:0:0:
150,97,36444,2,0,P|106:122|83:175,1,90,8|0,0:0|0:0,0:0:0:0:
92,235,36694,1,0,0:0:0:0:
92,235,36778,1,0,0:0:0:0:
306,96,36944,1,2,0:0:0:0:
101,34,37111,1,0,0:0:0:0:
167,178,37278,1,0,0:0:0:0:
263,14,37444,6,0,L|360:32,1,90,8|0,0:0|0:0,0:0:0:0:
413,76,37694,1,0,0:0:0:0:
413,76,37778,2,0,P|420:121|402:180,1,90,0|0,0:0|0:0,0:0:0:0:
227,202,38111,1,2,0:0:0:0:
345,114,38278,1,0,0:0:0:0:
251,275,38444,1,8,0:0:0:0:
202,127,38611,1,0,0:0:0:0:
338,250,38778,6,0,B|370:260|408:238|408:238|440:268|440:268|478:260|520:274,2,180,4|0|0,0:0|0:0|0:0,0:0:0:0:
167,178,39611,1,0,0:0:0:0:
345,114,39778,1,8,0:0:0:0:
251,357,39944,1,0,0:0:0:0:
259,177,40111,6,0,L|232:-1,2,180,0|8|0,0:0|0:0|0:0,0:0:0:0:
98,207,40944,1,0,0:0:0:0:
311,51,41111,1,8,0:0:0:0:
248,327,41278,1,0,0:0:0:0:
170,153,41444,6,0,L|153:57,1,90,0|0,0:0|0:0,0:0:0:0:
336,354,41778,2,0,L|351:265,1,90,12|0,0:0|0:0,0:0:0:0:
321,92,42111,6,0,L|333:21,2,60,2|2|10,0:0|0:0|0:0,0:0:0:0:
423,212,42444,2,0,L|432:271,2,60,10|2|10,0:0|0:0|0:0,0:0:0:0:
441,131,42778,5,14,0:0:0:0:
441,131,43444,6,0,B|346:120|394:188|279:162,1,157.5,0|0,0:0|0:0,0:0:0:0:
219,197,44111,5,4,0:0:0:0:
401,356,44278,2,0,P|425:306|418:248,1,107.999996704102,0|0,0:0|0:0,0:0:0:0:
236,35,44611,2,0,L|218:201,1,161.999995056153,8|0,0:0|0:0,0:0:0:0:
210,270,44944,1,0,0:0:0:0:
253,15,45111,1,0,0:0:0:0:
48,136,45278,2,0,B|100:155|100:155|164:133,1,107.999996704102,0|0,0:0|0:0,0:0:0:0:
354,16,45611,6,0,B|302:-3|302:-3|238:19,1,107.999996704102,8|0,0:0|0:0,0:0:0:0:
149,137,45944,1,0,0:0:0:0:
317,192,46111,1,0,0:0:0:0:
129,151,46278,1,0,0:0:0:0:
252,14,46444,1,8,0:0:0:0:
209,247,46611,1,0,0:0:0:0:
247,33,46778,5,2,0:0:0:0:
470,207,46944,2,0,P|395:253|319:216,1,161.999995056153,0|0,0:0|0:0,0:0:0:0:
392,162,47278,2,0,L|511:182,1,107.999996704102,8|0,0:0|0:0,0:0:0:0:
242,57,47611,1,0,0:0:0:0:
266,270,47778,1,0,0:0:0:0:
418,78,47944,6,0,P|338:105|311:182,1,161.999995056153,0|0,0:0|0:0,0:0:0:0:
380,266,48278,2,0,P|397:212|390:157,1,107.999996704102,8|0,0:0|0:0,0:0:0:0:
187,197,48611,1,0,0:0:0:0:
322,336,48778,1,0,0:0:0:0:
247,103,48944,1,0,0:0:0:0:
28,324,49111,2,0,B|73:347|73:347|204:312,1,161.999995056153,8|0,0:0|0:0,0:0:0:0:
251,293,49444,5,4,0:0:0:0:
119,29,49611,2,0,L|95:191,1,161.999995056153,0|0,0:0|0:0,0:0:0:0:
80,268,49944,2,0,L|60:152,1,107.999996704102,8|0,0:0|0:0,0:0:0:0:
208,220,50278,1,0,0:0:0:0:
28,324,50444,1,0,0:0:0:0:
179,142,50611,6,0,P|242:146|285:249,1,161.999995056153,0|0,0:0|0:0,0:0:0:0:
267,298,50944,1,8,0:0:0:0:
106,112,51111,2,0,P|154:69|213:66,1,107.999996704102,0|0,0:0|0:0,0:0:0:0:
407,156,51444,1,0,0:0:0:0:
208,218,51611,1,0,0:0:0:0:
322,33,51778,2,0,B|289:11|289:11|306:139,1,161.999995056153,8|0,0:0|0:0,0:0:0:0:
314,207,52111,5,2,0:0:0:0:
512,65,52278,2,0,P|434:50|379:114,1,161.999995056153,0|0,0:0|0:0,0:0:0:0:
449,228,52611,2,0,L|459:107,1,107.999996704102,8|0,0:0|0:0,0:0:0:0:
412,298,52944,1,0,0:0:0:0:
512,71,53111,1,0,0:0:0:0:
159,185,53278,6,0,B|209:162|209:162|309:208,1,161.999995056153,0|0,0:0|0:0,0:0:0:0:
192,352,53611,2,0,L|207:244,1,107.999996704102,8|0,0:0|0:0,0:0:0:0:
332,49,53944,2,0,L|340:108,1,53.9999983520508,0|0,0:0|0:0,0:0:0:0:
376,356,54111,5,8,0:0:0:0:
392,304,54194,1,0,0:0:0:0:
357,261,54278,1,8,0:0:0:0:
303,260,54361,1,0,0:0:0:0:
251,331,54444,5,10,0:0:0:0:
223,348,54528,1,8,0:0:0:0:
191,354,54611,1,8,0:0:0:0:
161,340,54694,1,8,0:0:0:0:
142,313,54778,5,4,0:0:0:0:
241,27,54944,2,0,L|256:159,1,108,0|0,0:0|0:0,0:0:0:0:
246,173,55278,1,8,0:0:0:0:
131,84,55444,1,0,0:0:0:0:
333,116,55611,1,0,0:0:0:0:
175,237,55778,1,0,0:0:0:0:
321,40,55944,6,0,P|362:46|413:120,1,108,0|0,0:0|0:0,0:0:0:0:
346,186,56278,2,0,L|329:94,1,72,8|0,0:0|0:0,0:0:0:0:
289,231,56611,1,0,0:0:0:0:
321,40,56778,1,0,0:0:0:0:
346,186,56944,1,0,0:0:0:0:
131,84,57111,2,0,L|256:57,1,108,8|0,0:0|0:0,0:0:0:0:
275,52,57444,5,0,0:0:0:0:
221,354,57611,2,0,L|194:229,1,108,0|0,0:0|0:0,0:0:0:0:
189,209,57944,1,8,0:0:0:0:
384,333,58111,2,0,L|403:246,1,72,0|0,0:0|0:0,0:0:0:0:
221,351,58444,1,0,0:0:0:0:
275,52,58611,6,0,L|264:188,1,108,0|0,0:0|0:0,0:0:0:0:
279,196,58944,2,0,L|294:107,1,72,8|0,0:0|0:0,0:0:0:0:
155,75,59278,1,0,0:0:0:0:
271,228,59444,1,0,0:0:0:0:
379,102,59611,1,0,0:0:0:0:
201,330,59778,6,0,L|192:281,1,45,10|0,0:0|0:0,0:0:0:0:
280,202,59944,2,0,L|288:157,1,45,10|0,0:0|0:0,0:0:0:0:
255,48,60111,5,6,0:0:0:0:
282,314,60278,1,0,0:0:0:0:
282,314,60444,1,0,0:0:0:0:
360,87,60611,5,6,0:0:0:0:
201,330,60778,1,0,0:0:0:0:
201,330,60944,1,0,0:0:0:0:
155,75,61111,5,14,0:0:0:0:
353,346,61278,1,0,0:0:0:0:
353,346,61444,1,0,0:0:0:0:
304,26,61611,5,14,0:0:0:0:
254,265,61778,1,0,0:0:0:0:
116,123,61944,5,0,0:0:0:0:
116,123,62028,1,8,0:0:0:0:
116,123,62111,1,2,0:0:0:0:
445,194,62278,1,8,0:0:0:0:
186,345,62444,1,10,0:0:0:0:
257,35,62611,1,8,0:0:0:0:
312,358,62778,5,6,0:0:0:0:
312,358,62944,2,0,L|296:227,1,108
282,180,63278,2,0,L|264:109,1,72,10|0,0:0|0:0,0:0:0:0:
267,248,63611,1,0,0:0:0:0:
203,29,63778,6,0,B|172:74|172:74|204:198,1,180
298,250,64278,2,0,B|391:238,1,90,8|0,0:0|0:0,0:0:0:0:
497,184,64611,1,0,0:0:0:0:
377,29,64778,5,8,0:0:0:0:
344,57,64861,1,0,0:0:0:0:
336,99,64944,1,8,0:0:0:0:
351,139,65028,1,0,0:0:0:0:
414,183,65111,5,10,0:0:0:0:
427,208,65194,1,8,0:0:0:0:
430,236,65278,1,8,0:0:0:0:
424,264,65361,1,8,0:0:0:0:
413,290,65444,5,4,0:0:0:0:
101,249,65611,2,0,L|237:221,1,107.999996704102,0|0,0:0|0:0,0:0:0:0:
498,54,65944,2,0,B|398:37|439:104|320:77,1,161.999995056153,8|0,0:0|0:0,0:0:0:0:
267,71,66278,1,0,0:0:0:0:
512,30,66444,1,0,0:0:0:0:
317,240,66611,6,0,P|295:203|309:119,1,107.999996704102,0|0,0:0|0:0,0:0:0:0:
469,273,66944,2,0,L|449:396,1,107.999996704102,8|0,0:0|0:0,0:0:0:0:
199,243,67278,1,0,0:0:0:0:
367,298,67445,1,0,0:0:0:0:
179,257,67612,1,0,0:0:0:0:
302,120,67778,1,8,0:0:0:0:
259,353,67945,1,0,0:0:0:0:
297,139,68112,5,0,0:0:0:0:
469,273,68278,2,0,P|394:319|318:282,1,161.999995056153,0|0,0:0|0:0,0:0:0:0:
391,228,68612,2,0,L|510:248,1,107.999996704102,8|0,0:0|0:0,0:0:0:0:
292,115,68944,1,0,0:0:0:0:
259,353,69111,1,0,0:0:0:0:
345,56,69278,6,0,P|288:40|208:123,1,161.999995056153,0|0,0:0|0:0,0:0:0:0:
271,216,69611,2,0,P|296:161|278:89,1,107.999996704102,8|0,0:0|0:0,0:0:0:0:
71,75,69944,1,0,0:0:0:0:
222,148,70111,1,0,0:0:0:0:
149,21,70278,1,0,0:0:0:0:
55,250,70444,2,0,L|226:288,1,161.999995056153,8|0,0:0|0:0,0:0:0:0:
130,223,70778,1,4,0:0:0:0:
130,223,70944,6,0,L|1:237,1,107.999996704102,0|0,0:0|0:0,0:0:0:0:
257,6,71278,2,0,P|285:67|277:120,1,107.999996704102,8|0,0:0|0:0,0:0:0:0:
42,162,71611,1,0,0:0:0:0:
207,66,71778,1,0,0:0:0:0:
189,293,71944,6,0,B|222:314|222:314|208:182,1,161.999995056153,0|0,0:0|0:0,0:0:0:0:
153,122,72278,2,0,P|126:185|131:228,1,107.999996704102,8|0,0:0|0:0,0:0:0:0:
41,68,72611,1,0,0:0:0:0:
209,191,72778,1,0,0:0:0:0:
57,288,72944,1,0,0:0:0:0:
207,66,73111,2,0,L|387:107,1,161.999995056153,8|0,0:0|0:0,0:0:0:0:
427,143,73444,5,0,0:0:0:0:
275,376,73611,2,0,B|255:327|255:327|277:264,1,107.999996704102,0|0,0:0|0:0,0:0:0:0:
428,42,73944,2,0,B|446:93|446:93|426:142,1,107.999996704102,8|0,0:0|0:0,0:0:0:0:
201,191,74278,1,0,0:0:0:0:
364,101,74444,1,0,0:0:0:0:
166,276,74611,6,0,P|114:210|151:121,1,161.999995056153,0|0,0:0|0:0,0:0:0:0:
253,102,74944,2,0,P|237:157|192:193,1,107.999996704102,8|0,0:0|0:0,0:0:0:0:
32,272,75278,1,0,0:0:0:0:
26,55,75444,5,8,0:0:0:0:
76,74,75528,1,0,0:0:0:0:
125,93,75611,1,8,0:0:0:0:
175,112,75694,1,0,0:0:0:0:
199,189,75778,5,10,0:0:0:0:
167,194,75861,1,8,0:0:0:0:
135,199,75944,1,8,0:0:0:0:
104,204,76028,1,8,0:0:0:0:
72,209,76111,5,4,0:0:0:0:
244,364,76278,2,0,L|256:242,1,108,0|0,0:0|0:0,0:0:0:0:
273,221,76611,1,8,0:0:0:0:
115,294,76778,1,0,0:0:0:0:
270,383,76944,1,0,0:0:0:0:
106,309,77111,1,0,0:0:0:0:
344,190,77278,6,0,P|307:153|239:148,1,108,0|0,0:0|0:0,0:0:0:0:
194,197,77611,2,0,P|156:204|108:193,1,72,8|0,0:0|0:0,0:0:0:0:
0,89,77944,1,0,0:0:0:0:
156,125,78111,1,0,0:0:0:0:
63,269,78278,1,0,0:0:0:0:
187,107,78444,2,0,L|262:118,1,72,8|0,0:0|0:0,0:0:0:0:
54,376,78778,5,0,0:0:0:0:
54,376,78944,2,0,L|64:246,1,108,0|0,0:0|0:0,0:0:0:0:
78,231,79278,1,8,0:0:0:0:
250,324,79444,2,0,P|215:343|156:341,1,72,0|0,0:0|0:0,0:0:0:0:
197,157,79778,1,0,0:0:0:0:
197,157,79944,6,0,P|254:175|317:149,1,108,0|0,0:0|0:0,0:0:0:0:
327,134,80278,2,0,L|321:215,1,72,8|0,0:0|0:0,0:0:0:0:
254,366,80611,1,0,0:0:0:0:
196,270,80778,1,0,0:0:0:0:
356,330,80944,1,0,0:0:0:0:
129,313,81111,6,0,P|120:281|124:253,1,45,10|0,0:0|0:0,0:0:0:0:
118,156,81278,2,0,P|130:125|155:105,1,45,2|0,0:0|0:0,0:0:0:0:
258,43,81444,5,6,0:0:0:0:
192,273,81611,1,0,0:0:0:0:
192,273,81778,1,0,0:0:0:0:
370,122,81944,5,14,0:0:0:0:
129,313,82111,1,0,0:0:0:0:
129,313,82278,1,0,0:0:0:0:
371,351,82444,5,14,0:0:0:0:
169,119,82611,1,0,0:0:0:0:
169,119,82778,1,0,0:0:0:0:
414,206,82944,1,14,0:0:0:0:
211,330,83111,1,0,0:0:0:0:
259,45,83278,1,0,0:0:0:0:
259,45,83361,1,8,0:0:0:0:
259,45,83444,1,2,0:0:0:0:
420,36,83611,5,8,0:0:0:0:
183,210,83778,1,10,0:0:0:0:
360,309,83944,1,8,0:0:0:0:
259,45,84111,6,0,L|290:233,2,180,6|0|8,0:0|0:0|0:0,0:0:0:0:
115,217,85111,1,0,0:0:0:0:
416,353,85278,1,8,0:0:0:0:
399,346,85361,1,8,0:0:0:0:
382,339,85444,2,0,L|373:272,1,45,0|0,0:0|0:0,0:0:0:0:
426,72,85611,5,8,0:0:0:0:
384,37,85694,1,0,0:0:0:0:
330,45,85778,1,8,0:0:0:0:
302,90,85861,1,8,0:0:0:0:
316,141,85944,1,8,0:0:0:0:
362,169,86028,1,8,0:0:0:0:
415,170,86111,6,0,L|450:110,2,60,2|2|10,0:0|0:0|0:0,0:0:0:0:
354,273,86444,2,0,L|380:327,2,60,10|2|10,0:0|0:0|0:0,0:0:0:0:
507,332,86778,6,0,B|460:310|460:310|374:341,1,135,4|0,0:0|0:0,0:0:0:0:
354,273,87111,2,0,L|444:240,1,90,8|0,0:0|0:0,0:0:0:0:
243,330,87444,1,0,0:0:0:0:
243,330,87611,2,0,L|100:344,1,135,8|0,0:0|0:0,0:0:0:0:
158,323,87944,2,0,L|251:297,1,90,0|0,0:0|0:0,0:0:0:0:
97,191,88278,1,0,0:0:0:0:
264,113,88444,1,8,0:0:0:0:
168,243,88611,1,0,0:0:0:0:
326,200,88778,5,0,0:0:0:0:
174,148,88944,1,8,0:0:0:0:
198,42,89111,5,0,0:0:0:0:
178,275,89278,1,8,0:0:0:0:
51,26,89444,6,0,L|76:181,1,135,4|0,0:0|0:0,0:0:0:0:
110,231,89778,2,0,P|143:190|151:145,1,90,8|0,0:0|0:0,0:0:0:0:
13,241,90111,1,0,0:0:0:0:
146,377,90278,2,0,L|160:287,1,90,8|0,0:0|0:0,0:0:0:0:
331,22,90611,6,0,L|192:42,1,135,0|0,0:0|0:0,0:0:0:0:
169,63,90944,1,0,0:0:0:0:
355,5,91111,1,8,0:0:0:0:
243,194,91278,1,0,0:0:0:0:
197,41,91444,5,0,0:0:0:0:
245,214,91611,1,8,0:0:0:0:
391,172,91778,5,0,0:0:0:0:
224,132,91945,1,8,0:0:0:0:
465,107,92111,6,0,L|326:128,1,135,4|0,0:0|0:0,0:0:0:0:
302,154,92444,2,0,L|408:175,1,90,8|0,0:0|0:0,0:0:0:0:
254,296,92778,1,0,0:0:0:0:
237,5,92944,2,0,B|209:53|209:53|227:148,1,135,8|0,0:0|0:0,0:0:0:0:
280,188,93278,6,0,L|257:88,1,90,0|0,0:0|0:0,0:0:0:0:
117,159,93611,1,0,0:0:0:0:
288,215,93778,1,8,0:0:0:0:
237,5,93944,1,0,0:0:0:0:
297,242,94111,5,0,0:0:0:0:
87,152,94278,1,8,0:0:0:0:
259,100,94444,5,0,0:0:0:0:
140,229,94611,1,8,0:0:0:0:
280,20,94778,6,0,P|320:57|324:143,1,135,4|0,0:0|0:0,0:0:0:0:
176,122,95111,2,0,P|222:97|266:103,1,90,8|0,0:0|0:0,0:0:0:0:
384,194,95444,1,0,0:0:0:0:
245,258,95611,2,0,L|233:166,1,90,8|0,0:0|0:0,0:0:0:0:
400,60,95944,6,0,L|383:194,1,135,0|0,0:0|0:0,0:0:0:0:
380,221,96278,1,0,0:0:0:0:
258,99,96444,1,8,0:0:0:0:
473,153,96611,1,0,0:0:0:0:
306,278,96778,5,0,0:0:0:0:
484,166,96944,1,8,0:0:0:0:
322,44,97111,5,0,0:0:0:0:
498,184,97278,1,8,0:0:0:0:
306,278,97444,6,0,B|345:260|345:260|440:294,1,135,4|0,0:0|0:0,0:0:0:0:
432,372,97778,2,0,L|340:339,1,90,8|0,0:0|0:0,0:0:0:0:
138,305,98111,1,0,0:0:0:0:
258,99,98278,2,0,L|272:192,1,90,8|0,0:0|0:0,0:0:0:0:
25,161,98611,6,0,P|52:107|154:92,1,135,0|0,0:0|0:0,0:0:0:0:
151,83,98944,1,0,0:0:0:0:
129,265,99111,1,8,0:0:0:0:
104,161,99278,1,0,0:0:0:0:
246,250,99444,5,0,0:0:0:0:
109,346,99611,1,8,0:0:0:0:
260,259,99778,5,0,0:0:0:0:
115,176,99944,1,8,0:0:0:0:
294,333,100111,6,0,P|330:289|309:200,1,135,4|0,0:0|0:0,0:0:0:0:
256,172,100444,2,0,P|249:226|276:281,1,90,8|0,0:0|0:0,0:0:0:0:
445,194,100778,1,0,0:0:0:0:
259,64,100944,2,0,L|167:84,1,90,8|0,0:0|0:0,0:0:0:0:
445,194,101278,6,0,P|471:123|449:65,1,135,0|0,0:0|0:0,0:0:0:0:
428,48,101611,1,0,0:0:0:0:
321,215,101778,1,8,0:0:0:0:
247,52,101944,1,0,0:0:0:0:
428,121,102111,5,0,0:0:0:0:
256,172,102278,1,8,0:0:0:0:
445,194,102444,5,0,0:0:0:0:
253,76,102611,1,8,0:0:0:0:
328,324,102778,6,0,L|348:182,1,135,4|0,0:0|0:0,0:0:0:0:
326,160,103111,2,0,L|311:259,1,90,8|0,0:0|0:0,0:0:0:0:
230,372,103444,1,0,0:0:0:0:
90,262,103611,2,0,B|137:246|137:246|180:262,1,90,8|0,0:0|0:0,0:0:0:0:
461,304,103944,6,0,L|317:325,1,135,0|0,0:0|0:0,0:0:0:0:
299,346,104278,1,0,0:0:0:0:
481,285,104444,1,8,0:0:0:0:
311,183,104611,1,0,0:0:0:0:
484,101,104778,5,0,0:0:0:0:
299,204,104944,1,8,0:0:0:0:
252,28,105111,5,0,0:0:0:0:
287,222,105278,1,8,0:0:0:0:
496,13,105444,6,0,P|438:27|399:88,1,135,4|0,0:0|0:0,0:0:0:0:
441,152,105778,2,0,P|397:161|344:144,1,90,8|0,0:0|0:0,0:0:0:0:
237,47,106111,1,0,0:0:0:0:
91,203,106278,2,0,P|135:204|175:225,1,90,8|0,0:0|0:0,0:0:0:0:
382,246,106611,6,0,P|325:254|272:337,1,135,0|0,0:0|0:0,0:0:0:0:
266,344,106944,1,0,0:0:0:0:
117,274,107111,1,8,0:0:0:0:
264,187,107278,5,0,0:0:0:0:
113,298,107444,1,0,0:0:0:0:
266,344,107611,5,8,0:0:0:0:
109,326,107778,1,8,0:0:0:0:
146,178,107944,1,8,0:0:0:0:
14,212,108111,6,0,B|93:187|72:282|189:252,1,180,4|8,0:0|0:0,0:0:0:0:
57,374,108778,1,2,0:0:0:0:
57,374,108945,1,0,0:0:0:0:
119,0,109278,6,0,L|146:182,1,180,8|0,0:0|0:0,0:0:0:0:
336,98,109778,1,8,0:0:0:0:
23,149,110111,5,2,0:0:0:0:
67,237,110278,1,0,0:0:0:0:
145,178,110444,1,8,0:0:0:0:
316,337,110778,6,0,B|255:301|255:301|156:349,1,180,0|8,0:0|0:0,0:0:0:0:
255,195,111444,5,2,0:0:0:0:
255,195,111611,1,0,0:0:0:0:
495,57,111944,6,0,B|441:47|441:47|387:88|387:88|316:80,1,180,8|0,0:0|0:0,0:0:0:0:
139,191,112444,1,8,0:0:0:0:
471,223,112778,5,2,0:0:0:0:
458,126,112944,1,0,0:0:0:0:
365,158,113111,1,8,0:0:0:0:
223,336,113444,6,0,B|256:370|256:370|243:235,1,180,4|8,0:0|0:0,0:0:0:0:
157,36,114111,5,2,0:0:0:0:
157,36,114278,1,0,0:0:0:0:
278,161,114611,6,0,P|228:159|173:283,1,180,8|0,0:0|0:0,0:0:0:0:
392,188,115111,1,8,0:0:0:0:
253,336,115444,5,2,0:0:0:0:
243,237,115610,1,0,0:0:0:0:
341,247,115777,1,8,0:0:0:0:
166,104,116111,6,0,B|122:54|42:70|42:70|70:112,1,180,0|8,0:0|0:0,0:0:0:0:
203,349,116778,5,2,0:0:0:0:
203,349,116944,1,0,0:0:0:0:
463,156,117278,6,0,B|368:139|404:225|273:192,1,180,8|0,0:0|0:0,0:0:0:0:
81,316,117778,1,8,0:0:0:0:
339,27,118111,5,2,0:0:0:0:
325,124,118278,1,0,0:0:0:0:
232,90,118444,1,8,0:0:0:0:
406,90,118611,2,0,P|412:121|405:157,1,45
340,279,118778,6,0,P|306:226|317:138,1,135,4|0,0:0|0:0,0:0:0:0:
325,124,119111,2,0,L|342:220,1,90,8|0,0:0|0:0,0:0:0:0:
169,302,119444,2,0,L|76:316,1,90,2|0,0:0|0:0,0:0:0:0:
223,196,119778,1,2,0:0:0:0:
259,354,119944,1,8,0:0:0:0:
135,210,120111,6,0,P|138:170|166:124,1,90,2|0,0:0|0:0,0:0:0:0:
391,153,120444,1,8,0:0:0:0:
223,196,120611,1,0,0:0:0:0:
236,23,120778,1,0,0:0:0:0:
236,23,120944,2,0,L|250:127,2,90,0|8|0,0:0|0:0|0:0,0:0:0:0:
391,153,121444,6,0,B|290:137|317:221|204:191,1,180,2|8,0:0|0:0,0:0:0:0:
369,266,121944,1,0,0:0:0:0:
284,33,122111,2,0,P|254:73|249:126,1,90,2|0,0:0|0:0,0:0:0:0:
184,347,122444,1,2,0:0:0:0:
184,347,122611,6,0,L|167:250,1,90,8|0,0:0|0:0,0:0:0:0:
391,153,122944,2,0,L|406:64,1,90,0|8,0:0|0:0,0:0:0:0:
210,117,123278,1,0,0:0:0:0:
318,192,123444,1,2,0:0:0:0:
168,258,123611,1,0,0:0:0:0:
307,358,123778,2,0,P|314:309|291:252,1,90,8|0,0:0|0:0,0:0:0:0:
398,108,124111,6,0,L|495:133,1,90,4|0,0:0|0:0,0:0:0:0:
318,192,124444,2,0,L|221:217,1,90,8|0,0:0|0:0,0:0:0:0:
363,28,124778,2,0,P|395:76|395:124,1,90,2|0,0:0|0:0,0:0:0:0:
230,214,125111,1,2,0:0:0:0:
323,94,125278,1,8,0:0:0:0:
269,287,125444,6,0,P|196:287|162:174,1,180,2|8,0:0|0:0,0:0:0:0:
311,4,125944,2,0,L|324:109,2,90,0|2|0,0:0|0:0|0:0,0:0:0:0:
206,130,126444,5,8,0:0:0:0:
417,65,126611,2,0,B|514:88,1,90,0|2,0:0|0:0,0:0:0:0:
311,4,126944,1,0,0:0:0:0:
512,115,127111,1,8,0:0:0:0:
358,196,127278,1,0,0:0:0:0:
424,20,127444,6,0,L|439:136,1,90,2|0,0:0|0:0,0:0:0:0:
294,182,127778,1,2,0:0:0:0:
294,182,127944,6,0,B|397:159|349:249|473:222,1,180,8|0,0:0|0:0,0:0:0:0:
316,360,128444,2,0,P|308:305|324:261,1,90,8|0,0:0|0:0,0:0:0:0:
500,78,128778,6,0,P|472:74|438:80,1,45,2|0,0:0|0:0,0:0:0:0:
339,179,128944,2,0,P|311:183|277:177,1,45,0|0,0:0|0:0,0:0:0:0:
180,52,129111,2,0,P|245:45|310:100,1,135,8|0,0:0|0:0,0:0:0:0:
311,107,129444,5,4,0:0:0:0:
160,283,129611,1,0,0:0:0:0:
164,252,129694,1,0,0:0:0:0:
169,220,129778,1,8,0:0:0:0:
262,289,129944,1,0,0:0:0:0:
66,192,130111,1,2,0:0:0:0:
227,118,130278,1,0,0:0:0:0:
158,312,130444,1,8,0:0:0:0:
134,63,130611,6,0,L|148:173,1,90,0|2,0:0|0:0,0:0:0:0:
253,352,130944,1,0,0:0:0:0:
257,321,131027,1,0,0:0:0:0:
262,289,131111,1,8,0:0:0:0:
292,69,131278,1,0,0:0:0:0:
169,220,131444,1,2,0:0:0:0:
365,185,131611,1,0,0:0:0:0:
211,35,131778,1,8,0:0:0:0:
211,35,131944,2,0,L|217:90,1,45,0|0,0:0|0:0,0:0:0:0:
254,319,132111,6,0,P|272:270|263:222,1,90,2|0,0:0|0:0,0:0:0:0:
256,203,132361,1,0,0:0:0:0:
257,203,132444,2,0,L|150:222,1,90,8|0,0:0|0:0,0:0:0:0:
355,111,132778,2,0,L|462:130,1,90,2|0,0:0|0:0,0:0:0:0:
331,354,133111,2,0,P|316:307|324:245,1,90,8|0,0:0|0:0,0:0:0:0:
390,21,133444,6,0,L|298:38,1,90,2|0,0:0|0:0,0:0:0:0:
269,54,133694,1,0,0:0:0:0:
269,54,133778,2,0,P|268:108|302:153,1,90,8|0,0:0|0:0,0:0:0:0:
480,143,134111,1,2,0:0:0:0:
341,82,134278,1,0,0:0:0:0:
393,298,134444,1,8,0:0:0:0:
393,298,134778,6,0,L|303:312,1,90,4|0,0:0|0:0,0:0:0:0:
54,190,135111,2,0,L|142:203,1,90,8|0,0:0|0:0,0:0:0:0:
230,368,135444,6,0,P|215:320|226:257,1,90,2|0,0:0|0:0,0:0:0:0:
296,113,135778,1,8,0:0:0:0:
296,113,135944,6,0,L|392:128,1,90,0|2,0:0|0:0,0:0:0:0:
256,195,136278,2,0,L|160:210,1,90,0|8,0:0|0:0,0:0:0:0:
362,362,136611,6,0,P|373:318|364:269,1,90,0|2,0:0|0:0,0:0:0:0:
210,29,136944,2,0,P|199:73|208:122,1,90,0|8,0:0|0:0,0:0:0:0:
249,313,137278,1,0,0:0:0:0:
474,115,137444,6,0,L|382:127,1,90,2|0,0:0|0:0,0:0:0:0:
99,192,137778,2,0,L|188:203,1,90,12|0,0:0|0:0,0:0:0:0:
427,275,138111,6,8,L|492:261,2,60,10|10|10,0:0|0:0|0:0,0:0:0:0:
361,317,138444,2,0,L|302:304,2,60,10|2|10,0:0|0:0|0:0,0:0:0:0:
431,351,138778,5,8,0:0:0:0:
109,193,139111,5,2,0:0:0:0:
407,104,139278,1,0,0:0:0:0:
213,6,139444,5,2,0:0:0:0:
302,304,139611,1,0,0:0:0:0:
483,181,139778,2,0,L|408:192,1,67.5,2|0,0:0|0:0,0:0:0:0:
381,207,140111,5,4,0:0:0:0:
213,6,140278,2,0,P|187:70|200:131,1,107.999996704102,0|0,0:0|0:0,0:0:0:0:
288,356,140611,2,0,L|304:188,1,161.999995056153,8|0,0:0|0:0,0:0:0:0:
312,119,140944,1,0,0:0:0:0:
266,373,141111,1,0,0:0:0:0:
410,181,141278,6,0,L|298:195,1,107.999996704102
159,360,141611,2,0,L|271:374,1,107.999996704102,8|0,0:0|0:0,0:0:0:0:
437,309,141944,1,0,0:0:0:0:
247,226,142111,1,0,0:0:0:0:
411,327,142278,1,0,0:0:0:0:
182,286,142444,2,0,P|169:266|180:171,1,107.999996704102,8|0,0:0|0:0,0:0:0:0:
256,30,142778,5,2,0:0:0:0:
436,180,142944,2,0,P|376:178|314:262,1,161.999995056153,0|0,0:0|0:0,0:0:0:0:
387,353,143278,2,0,P|408:297|389:238,1,107.999996704102,8|0,0:0|0:0,0:0:0:0:
189,167,143611,1,0,0:0:0:0:
262,348,143778,1,0,0:0:0:0:
359,148,143944,6,0,P|359:59|275:16,1,161.999995056153,0|0,0:0|0:0,0:0:0:0:
294,99,144278,2,0,L|330:220,1,107.999996704102,8|0,0:0|0:0,0:0:0:0:
100,195,144611,1,0,0:0:0:0:
266,84,144778,1,0,0:0:0:0:
195,272,144944,1,0,0:0:0:0:
20,176,145111,2,0,P|78:117|162:139,1,161.999995056153,8|0,0:0|0:0,0:0:0:0:
193,191,145444,5,4,0:0:0:0:
467,98,145611,2,0,P|422:49|331:66,1,161.999995056153,0|0,0:0|0:0,0:0:0:0:
392,115,145944,2,0,L|513:146,1,107.999996704102,8|0,0:0|0:0,0:0:0:0:
217,200,146278,1,0,0:0:0:0:
334,62,146444,1,0,0:0:0:0:
395,369,146611,6,0,B|415:322|415:322|381:210,1,161.999995056153,0|0,0:0|0:0,0:0:0:0:
307,211,146944,2,0,L|341:321,1,107.999996704102,8|0,0:0|0:0,0:0:0:0:
334,62,147278,1,0,0:0:0:0:
177,193,147444,1,0,0:0:0:0:
382,215,147611,1,0,0:0:0:0:
251,59,147778,2,0,B|156:41|188:115|73:87,1,161.999995056153,8|0,0:0|0:0,0:0:0:0:
28,123,148111,5,2,0:0:0:0:
260,164,148278,1,0,0:0:0:0:
123,8,148444,1,0,0:0:0:0:
42,239,148611,2,0,L|220:277,1,161.999995056153,8|0,0:0|0:0,0:0:0:0:
263,314,148944,1,0,0:0:0:0:
18,214,149111,1,0,0:0:0:0:
279,3,149278,6,0,L|257:184,1,161.999995056153,0|0,0:0|0:0,0:0:0:0:
255,195,149611,2,0,L|236:79,1,107.999996704102,8|0,0:0|0:0,0:0:0:0:
417,314,149944,2,0,L|429:242,1,53.9999983520508,0|0,0:0|0:0,0:0:0:0:
358,22,150110,5,8,0:0:0:0:
349,70,150194,1,0,0:0:0:0:
342,117,150277,1,8,0:0:0:0:
335,164,150360,1,0,0:0:0:0:
335,251,150444,5,10,0:0:0:0:
366,239,150528,1,8,0:0:0:0:
398,243,150611,1,8,0:0:0:0:
425,260,150694,1,8,0:0:0:0:
439,289,150778,5,4,0:0:0:0:
261,381,150944,2,0,L|249:267,1,108,0|0,0:0|0:0,0:0:0:0:
261,235,151278,1,8,0:0:0:0:
138,329,151444,1,0,0:0:0:0:
352,337,151611,1,0,0:0:0:0:
155,350,151778,1,0,0:0:0:0:
249,159,151944,6,0,P|290:165|341:239,1,108,0|0,0:0|0:0,0:0:0:0:
274,305,152278,2,0,L|257:213,1,72,8|0,0:0|0:0,0:0:0:0:
221,65,152611,1,0,0:0:0:0:
192,210,152778,1,0,0:0:0:0:
239,31,152944,1,0,0:0:0:0:
118,195,153111,1,8,0:0:0:0:
295,165,153278,1,0,0:0:0:0:
105,51,153444,5,2,0:0:0:0:
105,51,153611,2,0,L|119:176,1,108,0|0,0:0|0:0,0:0:0:0:
120,197,153944,1,8,0:0:0:0:
332,96,154111,2,0,P|289:81|258:80,1,72,0|0,0:0|0:0,0:0:0:0:
197,283,154444,1,0,0:0:0:0:
21,172,154611,6,0,P|74:169|125:204,1,108,0|0,0:0|0:0,0:0:0:0:
78,308,154944,2,0,P|60:273|67:213,1,72,8|0,0:0|0:0,0:0:0:0:
227,194,155278,1,0,0:0:0:0:
260,348,155444,1,0,0:0:0:0:
260,348,155611,1,0,0:0:0:0:
327,1,155778,6,0,L|318:65,1,45,10|0,0:0|0:0,0:0:0:0:
220,149,155944,2,0,L|226:193,1,45,10|0,0:0|0:0,0:0:0:0:
260,348,156111,5,6,0:0:0:0:
356,150,156278,1,0,0:0:0:0:
140,220,156444,1,0,0:0:0:0:
358,288,156611,1,14,0:0:0:0:
250,68,156778,5,0,0:0:0:0:
194,293,156944,1,0,0:0:0:0:
363,172,157111,1,14,0:0:0:0:
149,117,157278,1,0,0:0:0:0:
355,311,157444,5,0,0:0:0:0:
257,31,157611,1,14,0:0:0:0:
133,241,157778,1,0,0:0:0:0:
364,105,157944,5,0,0:0:0:0:
364,105,158028,1,8,0:0:0:0:
364,105,158111,1,2,0:0:0:0:
151,229,158278,1,8,0:0:0:0:
379,350,158444,1,10,0:0:0:0:
251,60,158611,1,8,0:0:0:0:
261,298,158778,5,6,0:0:0:0:
236,48,158944,2,0,B|217:96|217:96|241:175,1,135,0|0,0:0|0:0,0:0:0:0:
298,228,159278,2,0,L|408:213,1,90,2|0,0:0|0:0,0:0:0:0:
483,95,159611,1,0,0:0:0:0:
512,307,159778,1,0,0:0:0:0:
512,307,159944,6,0,B|444:334|444:334|335:297,1,180,0|8,0:0|0:0,0:0:0:0:
154,181,160444,1,0,0:0:0:0:
360,32,160611,2,0,L|368:94,1,45,0|0,0:0|0:0,0:0:0:0:
405,327,160778,1,8,0:0:0:0:
422,275,160861,1,0,0:0:0:0:
387,232,160944,1,8,0:0:0:0:
333,229,161028,1,0,0:0:0:0:
272,294,161111,5,10,0:0:0:0:
244,311,161195,1,8,0:0:0:0:
212,317,161278,1,8,0:0:0:0:
182,303,161361,1,8,0:0:0:0:
163,276,161445,5,4,0:0:0:0:
250,35,161611,2,0,L|263:151,1,107.999996704102
399,209,161944,2,0,B|314:186|324:270|228:238,1,161.999995056153,8|0,0:0|0:0,0:0:0:0:
175,238,162278,1,0,0:0:0:0:
365,76,162444,1,0,0:0:0:0:
337,384,162611,6,0,P|366:339|369:286,1,107.999996704102,0|0,0:0|0:0,0:0:0:0:
262,142,162944,2,0,L|150:165,1,107.999996704102,8|0,0:0|0:0,0:0:0:0:
298,312,163278,1,0,0:0:0:0:
249,67,163444,1,0,0:0:0:0:
106,211,163611,1,0,0:0:0:0:
322,193,163778,2,0,P|336:133|299:71,1,107.999996704102,8|0,0:0|0:0,0:0:0:0:
0,57,164111,5,2,0:0:0:0:
89,222,164278,2,0,B|120:165|120:165|94:63,1,161.999995056153,0|0,0:0|0:0,0:0:0:0:
22,197,164611,2,0,P|39:275|78:295,1,107.999996704102,8|0,0:0|0:0,0:0:0:0:
258,245,164944,1,0,0:0:0:0:
89,222,165111,1,0,0:0:0:0:
157,380,165278,6,0,B|178:326|178:326|156:266,1,107.999996704102,0|0,0:0|0:0,0:0:0:0:
0,36,165611,2,0,L|23:208,1,161.999995056153,8|0,0:0|0:0,0:0:0:0:
19,234,165944,1,0,0:0:0:0:
16,16,166111,1,0,0:0:0:0:
215,103,166278,1,0,0:0:0:0:
44,206,166444,2,0,L|28:85,1,107.999996704102,8|0,0:0|0:0,0:0:0:0:
21,311,166778,5,4,0:0:0:0:
21,311,166944,2,0,B|74:289|74:289|182:324,1,161.999995056153,0|0,0:0|0:0,0:0:0:0:
247,341,167278,2,0,P|263:275|228:223,1,107.999996704102,8|0,0:0|0:0,0:0:0:0:
127,68,167611,1,0,0:0:0:0:
218,233,167778,1,0,0:0:0:0:
345,110,167944,6,0,P|400:136|482:74,1,161.999995056153,0|0,0:0|0:0,0:0:0:0:
405,60,168278,2,0,L|292:85,1,107.999996704102,8|0,0:0|0:0,0:0:0:0:
168,190,168611,1,0,0:0:0:0:
385,240,168778,1,0,0:0:0:0:
178,206,168944,1,0,0:0:0:0:
277,81,169111,1,8,0:0:0:0:
250,303,169278,1,0,0:0:0:0:
256,62,169444,5,2,0:0:0:0:
270,325,169611,2,0,B|290:276|290:276|262:154,1,161.999995056153,0|0,0:0|0:0,0:0:0:0:
247,135,169944,2,0,L|238:259,1,107.999996704102,8|0,0:0|0:0,0:0:0:0:
262,351,170278,1,0,0:0:0:0:
229,114,170444,1,0,0:0:0:0:
31,247,170611,6,0,P|89:236|176:311,1,161.999995056153,0|0,0:0|0:0,0:0:0:0:
184,326,170944,1,8,0:0:0:0:
10,123,171111,1,0,0:0:0:0:
96,366,171278,2,0,L|87:304,1,53.9999983520508,0|0,0:0|0:0,0:0:0:0:
40,38,171444,5,8,0:0:0:0:
67,78,171528,1,0,0:0:0:0:
113,90,171611,1,8,0:0:0:0:
159,77,171694,1,0,0:0:0:0:
220,23,171778,5,10,0:0:0:0:
250,33,171861,1,8,0:0:0:0:
280,42,171944,1,8,0:0:0:0:
310,52,172028,1,8,0:0:0:0:
333,60,172111,5,4,0:0:0:0:
255,305,172278,2,0,L|240:173,1,108,0|0,0:0|0:0,0:0:0:0:
251,158,172612,1,8,0:0:0:0:
238,341,172778,1,0,0:0:0:0:
135,196,172944,1,0,0:0:0:0:
345,243,173111,1,0,0:0:0:0:
130,213,173278,6,0,L|140:95,1,108,0|0,0:0|0:0,0:0:0:0:
167,82,173611,2,0,L|160:155,1,72,8|0,0:0|0:0,0:0:0:0:
106,300,173944,1,0,0:0:0:0:
232,190,174111,1,0,0:0:0:0:
44,146,174278,1,0,0:0:0:0:
174,348,174444,2,0,P|184:306|183:276,1,72,8|0,0:0|0:0,0:0:0:0:
63,80,174778,5,2,0:0:0:0:
63,80,174944,2,0,P|120:94|180:74,1,108,0|0,0:0|0:0,0:0:0:0:
197,61,175278,2,0,L|269:73,1,72,8|0,0:0|0:0,0:0:0:0:
117,19,175611,1,0,0:0:0:0:
285,99,175778,1,0,0:0:0:0:
177,192,175944,6,0,P|114:184|76:203,1,108,0|0,0:0|0:0,0:0:0:0:
133,256,176278,2,0,L|224:243,1,72,8|0,0:0|0:0,0:0:0:0:
379,189,176611,1,0,0:0:0:0:
214,121,176778,1,0,0:0:0:0:
314,326,176944,1,0,0:0:0:0:
327,1,177111,6,0,L|318:65,1,45,10|0,0:0|0:0,0:0:0:0:
220,149,177278,2,0,L|226:193,1,45,10|0,0:0|0:0,0:0:0:0:
307,348,177444,5,6,0:0:0:0:
109,195,177611,1,0,0:0:0:0:
322,135,177778,1,0,0:0:0:0:
171,324,177944,1,14,0:0:0:0:
202,77,178111,5,0,0:0:0:0:
376,264,178278,1,0,0:0:0:0:
126,217,178444,1,14,0:0:0:0:
332,63,178611,1,0,0:0:0:0:
256,263,178778,5,0,0:0:0:0:
143,79,178944,1,14,0:0:0:0:
360,197,179111,1,0,0:0:0:0:
164,322,179278,1,0,0:0:0:0:
164,322,179361,1,8,0:0:0:0:
164,322,179444,1,2,0:0:0:0:
357,337,179611,5,8,0:0:0:0:
119,210,179778,1,10,0:0:0:0:
296,77,179944,1,8,0:0:0:0:
256,347,180111,6,0,L|239:168,2,180,6|0|8,0:0|0:0|0:0,0:0:0:0:
132,235,181111,1,0,0:0:0:0:
380,147,181278,1,8,0:0:0:0:
373,164,181361,1,0,0:0:0:0:
366,181,181444,2,0,L|299:190,1,45,8|0,0:0|0:0,0:0:0:0:
74,105,181611,5,0,0:0:0:0:
39,147,181694,1,0,0:0:0:0:
47,201,181778,1,0,0:0:0:0:
92,229,181861,1,8,0:0:0:0:
143,215,181944,1,8,0:0:0:0:
171,169,182028,1,0,0:0:0:0:
172,116,182111,6,0,L|159:45,2,60,10|2|10,0:0|0:0|0:0,0:0:0:0:
258,216,182444,2,0,L|249:275,2,60,10|2|10,0:0|0:0|0:0,0:0:0:0:
301,116,182778,5,4,0:0:0:0:
301,116,182944,2,0,P|368:136|439:92,1,135,0|0,0:0|0:0,0:0:0:0:
359,63,183278,2,0,L|255:73,1,90,8|0,0:0|0:0,0:0:0:0:
106,189,183611,1,0,0:0:0:0:
259,260,183778,1,0,0:0:0:0:
218,4,183944,6,0,P|188:56|205:132,1,135,0|0,0:0|0:0,0:0:0:0:
260,170,184278,2,0,L|379:178,1,90,8|0,0:0|0:0,0:0:0:0:
188,204,184611,1,0,0:0:0:0:
417,147,184778,1,0,0:0:0:0:
302,322,184944,1,0,0:0:0:0:
279,162,185111,2,0,L|262:58,1,90,8|0,0:0|0:0,0:0:0:0:
349,245,185444,5,0,0:0:0:0:
349,245,185611,2,0,P|269:246|217:282,1,135,0|0,0:0|0:0,0:0:0:0:
205,310,185944,2,0,L|191:200,1,90,8|0,0:0|0:0,0:0:0:0:
373,261,186278,1,0,0:0:0:0:
447,45,186444,1,0,0:0:0:0:
447,45,186611,6,0,L|308:63,1,135,0|0,0:0|0:0,0:0:0:0:
275,77,186944,2,0,P|274:126|297:173,1,90,8|0,0:0|0:0,0:0:0:0:
465,202,187278,1,0,0:0:0:0:
346,109,187444,1,0,0:0:0:0:
306,272,187611,1,0,0:0:0:0:
450,118,187778,2,0,P|407:148|390:229,1,135,8|0,0:0|0:0,0:0:0:0:
401,263,188111,5,4,0:0:0:0:
456,94,188278,2,0,B|409:110|409:110|360:97,1,90,0|0,0:0|0:0,0:0:0:0:
161,34,188611,2,0,B|208:18|208:18|257:31,1,90,8|0,0:0|0:0,0:0:0:0:
407,0,188944,1,0,0:0:0:0:
256,136,189111,1,0,0:0:0:0:
256,136,189278,6,0,L|272:277,1,135,0|0,0:0|0:0,0:0:0:0:
247,339,189611,2,0,P|210:309|199:263,1,90,8|0,0:0|0:0,0:0:0:0:
249,108,189944,1,0,0:0:0:0:
365,213,190111,1,0,0:0:0:0:
157,179,190278,1,0,0:0:0:0:
157,179,190444,2,0,L|167:38,1,135,8|0,0:0|0:0,0:0:0:0:
188,9,190778,5,0,0:0:0:0:
149,204,190944,2,0,B|196:216|196:216|245:201,1,90,0|0,0:0|0:0,0:0:0:0:
465,76,191278,2,0,B|418:64|418:64|369:79,1,90,8|0,0:0|0:0,0:0:0:0:
247,125,191611,1,0,0:0:0:0:
357,283,191778,1,0,0:0:0:0:
357,283,191944,6,0,L|341:139,1,135,0|0,0:0|0:0,0:0:0:0:
319,114,192278,2,0,L|331:227,1,90,8|0,0:0|0:0,0:0:0:0:
467,162,192610,1,0,0:0:0:0:
279,280,192777,1,0,0:0:0:0:
306,91,192944,1,0,0:0:0:0:
362,357,193111,2,0,B|383:306|383:306|358:230,1,135,8|0,0:0|0:0,0:0:0:0:
328,203,193444,5,4,0:0:0:0:
362,357,193611,2,0,L|462:366,1,90,0|0,0:0|0:0,0:0:0:0:
328,203,193944,2,0,L|228:212,1,90,8|0,0:0|0:0,0:0:0:0:
83,262,194278,1,0,0:0:0:0:
214,338,194444,1,0,0:0:0:0:
170,125,194611,6,0,L|159:266,1,135,0|0,0:0|0:0,0:0:0:0:
122,330,194944,2,0,P|83:341|34:325,1,90,8|0,0:0|0:0,0:0:0:0:
237,252,195278,1,0,0:0:0:0:
68,190,195444,1,0,0:0:0:0:
205,341,195611,1,0,0:0:0:0:
29,176,195778,2,0,L|174:194,1,135,8|0,0:0|0:0,0:0:0:0:
192,214,196111,5,0,0:0:0:0:
13,156,196278,2,0,P|8:114|23:65,1,90,0|0,0:0|0:0,0:0:0:0:
200,189,196611,2,0,L|184:278,1,90,8|0,0:0|0:0,0:0:0:0:
81,116,196944,1,0,0:0:0:0:
272,192,197111,1,0,0:0:0:0:
132,284,197278,6,0,L|159:137,1,135,0|0,0:0|0:0,0:0:0:0:
184,85,197611,2,0,P|231:80|290:104,1,90,8|0,0:0|0:0,0:0:0:0:
401,185,197944,1,0,0:0:0:0:
247,266,198111,1,0,0:0:0:0:
247,266,198278,1,0,0:0:0:0:
358,110,198444,2,0,P|417:107|488:174,1,135,8|0,0:0|0:0,0:0:0:0:
488,184,198778,5,4,0:0:0:0:
365,365,198944,2,0,L|338:209,1,135,0|0,0:0|0:0,0:0:0:0:
293,172,199278,2,0,P|237:178|191:165,1,90,8|0,0:0|0:0,0:0:0:0:
31,224,199611,1,0,0:0:0:0:
198,313,199778,1,0,0:0:0:0:
111,155,199944,6,0,P|91:113|130:15,1,135,0|0,0:0|0:0,0:0:0:0:
165,91,200278,2,0,L|152:193,1,90,8|0,0:0|0:0,0:0:0:0:
130,51,200611,1,0,0:0:0:0:
171,248,200778,1,0,0:0:0:0:
296,144,200944,1,0,0:0:0:0:
53,60,201111,2,0,P|106:51|177:93,1,135,8|0,0:0|0:0,0:0:0:0:
97,139,201444,6,0,L|-7:154,1,90,4|0,0:0|0:0,0:0:0:0:
148,320,201778,2,0,L|44:305,1,90,0|0,0:0|0:0,0:0:0:0:
306,82,202111,2,0,L|216:94,1,90,8|0,0:0|0:0,0:0:0:0:
390,325,202444,2,0,L|300:337,1,90,0|0,0:0|0:0,0:0:0:0:
257,350,202694,1,8,0:0:0:0:
257,350,202778,6,0,P|245:300|263:258,1,90,8|0,0:0|0:0,0:0:0:0:
427,148,203111,1,0,0:0:0:0:
187,216,203278,1,8,0:0:0:0:
319,307,203444,1,0,0:0:0:0:
247,92,203611,1,0,0:0:0:0:
300,336,203778,1,8,0:0:0:0:
472,189,203944,1,0,0:0:0:0:
248,272,204111,5,4,0:0:0:0:
256,192,204194,12,0,208444,0:0:0:0:
