osu file format v14

[General]
AudioFilename: audio.mp3
AudioLeadIn: 0
PreviewTime: 43444
Countdown: 0
SampleSet: Soft
StackLeniency: 0.7
Mode: 0
LetterboxInBreaks: 0
WidescreenStoryboard: 1

[Editor]
DistanceSpacing: 1
BeatDivisor: 2
GridSize: 16
TimelineZoom: 1.500001

[Metadata]
Title:DREAMCATCHER
TitleUnicode:DREAMCATCHER
Artist:nano
ArtistUnicode:ナノ
Creator:Vert
Version:Dored's Easy
Source:魔法少女育成計画
Tags:Mahou Shoujo Ikusei Keikaku MahouIku Magical Girl Raising Project WESTGROUND ending ed full ver Depths Dored Koiyuki Minakami Yuki Kashima sahuang -Laura-
BeatmapID:1578624
BeatmapSetID:695957

[Difficulty]
HPDrainRate:2
CircleSize:3
OverallDifficulty:2
ApproachRate:3
SliderMultiplier:0.9
SliderTickRate:1

[Events]
//Background and Video events
0,0,"SwimxRuler.png",0,0
//Break Periods
2,2811,5338
2,8144,10671
2,89644,106671
//Storyboard Layer 0 (Background)
//Storyboard Layer 1 (Fail)
//Storyboard Layer 2 (Pass)
//Storyboard Layer 3 (Foreground)
//Storyboard Sound Samples

[TimingPoints]
1445,333.333333333333,4,2,11,15,1,0
1445,-100.0,4,2,11,15,0,0
44111,-100.0,4,2,12,75,0,1
86778,-100.0,4,2,12,60,0,0
140111,-100.0,4,2,12,60,0,1
182778,-100.0,4,2,0,60,0,0
6111,-100.0,4,2,88,15,0,0
6444,-100.0,4,2,88,25,0,0
6778,-100.0,4,2,11,15,0,0
11444,-100.0,4,2,88,15,0,0
11778,-100.0,4,2,88,25,0,0
12111,-100.0,4,2,11,20,0,0
22778,-100.0,4,2,11,40,0,0
33444,-100.0,4,2,12,60,0,0
43444,-100.0,4,2,11,60,0,0
108111,-100.0,4,2,12,40,0,0
118778,-100.0,4,2,11,50,0,0
129444,-100.0,4,2,11,60,0,0
134778,-100.0,4,2,12,60,0,0
138778,-100.0,4,2,11,15,0,0
139111,-100.0,4,2,12,50,0,0
139778,-100.0,4,2,12,30,0,0

[Colours]
Combo1 : 97,10,214
Combo2 : 242,166,253
Combo3 : 170,126,250
Combo4 : 255,0,255

[HitObjects]
128,96,1445,6,0,B|192:64|240:112|240:112|272:64|272:64|336:112|396:66,1,315,2|2,0:0|0:0,0:0:0:0:
384,288,6778,6,0,B|320:256|272:304|272:304|240:256|240:256|176:304|116:258,1,315,2|2,0:0|0:0,0:0:0:0:
390,320,12111,6,0,P|432:244|390:169,1,180,2|2,0:0|0:0,0:0:0:0:
309,130,13111,1,0,0:0:0:0:
228,169,13444,2,0,L|138:169,1,90,2|2,0:0|0:0,0:0:0:0:
48,169,14111,1,0,0:0:0:0:
138,269,14611,6,0,L|273:269,2,135,2|2|0,0:0|0:0|0:0,0:0:0:0:
48,269,15944,1,2,0:0:0:0:
138,369,16444,2,0,L|273:369,1,135,2|2,0:0|0:0,0:0:0:0:
408,369,17444,6,0,P|450:293|408:218,1,180,0|2,0:0|0:0,0:0:0:0:
322,193,18444,1,0,0:0:0:0:
273,269,18778,2,0,L|183:269,1,90,2|2,0:0|0:0,0:0:0:0:
93,269,19444,1,2,2:0:0:0:
19,156,19944,6,0,P|27:90|79:49,2,135,2|2|0,0:0|0:0|0:0,0:0:0:0:
107,136,21278,1,2,0:0:0:0:
211,50,21778,2,0,L|346:50,1,135,2|2,0:0|0:0,0:0:0:0:
450,136,22778,5,4,0:0:0:0:
450,226,23111,2,0,P|425:308|342:332,1,180,0|0,1:0|1:0,0:0:0:0:
362,244,24111,2,0,L|374:109,2,135,0|0|0,0:0|0:0|1:0,0:0:0:0:
276,271,25444,5,0,0:0:0:0:
198,226,25778,2,0,B|150:194|150:194|31:225,1,180,0|0,1:0|1:0,0:0:0:0:
32,316,26778,2,0,B|150:347|150:347|198:315,1,180,0|0,0:0|0:0,0:0:0:0:
276,271,27778,1,0,1:0:0:0:
276,182,28111,5,2,0:0:0:0:
354,226,28444,2,0,P|440:223|484:149,1,180,0|0,1:0|1:0,0:0:0:0:
420,85,29444,2,0,L|285:96,2,135,0|0|0,0:0|0:0|1:0,0:0:0:0:
507,61,30778,5,0,0:0:0:0:
484,148,31111,2,0,P|493:237|499:327,1,180,0|0,1:0|1:0,0:0:0:0:
410,335,32111,2,0,P|338:288|259:323,1,180,0|0,0:0|0:0,0:0:0:0:
183,372,33111,1,0,1:0:0:0:
108,323,33444,6,0,L|108:233,1,90,4|8,0:0|0:0,0:0:0:0:
60,157,34111,2,0,L|60:67,1,90,0|0,0:0|0:0,0:0:0:0:
138,22,34778,1,8,0:0:0:0:
216,67,35111,2,0,L|306:67,2,90,0|2|8,0:0|0:0|0:0,0:0:0:0:
193,154,36111,6,0,L|283:154,1,90,0|8,0:0|0:0,0:0:0:0:
369,130,36778,2,0,L|459:130,1,90,0|0,0:0|0:0,0:0:0:0:
512,203,37444,1,8,0:0:0:0:
512,293,37778,2,0,L|512:383,2,90,0|2|8,0:0|0:0|0:0,0:0:0:0:
434,248,38778,6,0,L|344:240,1,90,4|0,0:0|0:0,0:0:0:0:
262,203,39444,2,0,L|172:210,1,90,0|8,0:0|0:0,0:0:0:0:
172,121,40111,2,0,L|261:113,1,90,0|0,0:0|0:0,0:0:0:0:
344,76,40777,2,0,L|433:83,1,90,0|8,0:0|0:0,0:0:0:0:
256,192,41444,12,0,42778,0:0:0:0:
176,304,44111,6,0,L|41:292,1,135,4|8,0:0|0:0,0:0:0:0:
30,158,45111,2,0,L|18:23,2,135,0|8|0,0:0|0:0|0:0,0:0:0:0:
94,220,46444,1,8,0:0:0:0:
159,158,46778,6,0,L|294:146,1,135,2|8,0:0|0:0,0:0:0:0:
366,94,47611,2,0,L|362:49,2,45,0|0|0,0:0|0:0|0:0,0:0:0:0:
374,184,48278,2,0,L|386:319,1,135,8|0,0:0|0:0,0:0:0:0:
312,370,49111,1,8,0:0:0:0:
230,332,49444,6,0,L|95:320,1,135,4|8,0:0|0:0,0:0:0:0:
16,210,50444,2,0,P|8:144|48:92,2,135,0|8|0,0:0|0:0|0:0,0:0:0:0:
96,169,51778,1,8,0:0:0:0:
160,232,52111,6,0,P|225:239|277:199,1,135,2|8,0:0|0:0,0:0:0:0:
278,109,52944,2,0,L|238:86,2,45,0|0|0,0:0|0:0|0:0,0:0:0:0:
356,154,53611,1,8,0:0:0:0:
446,154,53944,2,0,P|496:195|505:260,1,135,0|2,0:0|0:0,0:0:0:0:
464,342,54778,6,0,L|329:354,1,135,4|8,0:0|0:0,0:0:0:0:
247,315,55611,2,0,L|202:319,2,45,0|0|0,0:0|0:0|0:0,0:0:0:0:
321,263,56278,2,0,L|333:128,1,135,8|0,0:0|0:0,0:0:0:0:
339,39,57111,1,8,0:0:0:0:
258,77,57444,6,0,L|123:65,1,135,0|8,0:0|0:0,0:0:0:0:
32,164,58444,2,0,P|24:230|64:282,2,135,0|8|0,0:0|0:0|0:0,0:0:0:0:
111,206,59778,1,8,0:0:0:0:
190,164,60111,6,0,P|255:157|307:197,1,135,14|10,0:0|0:0,0:0:0:0:
394,301,61111,2,0,P|459:307|511:267,1,135,10|10,0:0|0:0,0:0:0:0:
512,132,62111,1,2,0:0:0:0:
449,69,62444,1,2,0:0:0:0:
385,132,62778,6,0,L|250:120,1,135,6|2,0:0|0:0,0:0:0:0:
128,64,63778,2,0,P|62:58|10:98,1,135,0|8,0:0|0:0,0:0:0:0:
10,234,64778,2,0,L|17:323,1,90,8|2,0:0|0:0,0:0:0:0:
96,368,65444,6,0,L|231:356,1,135,4|8,0:0|0:0,0:0:0:0:
206,223,66444,2,0,P|154:182|88:188,2,135,0|8|0,0:0|0:0|0:0,0:0:0:0:
276,279,67778,1,8,0:0:0:0:
346,223,68111,6,0,L|357:87,1,135,0|8,0:0|0:0,0:0:0:0:
312,10,68944,2,0,L|267:6,2,45,0|0|0,0:0|0:0|0:0,0:0:0:0:
402,10,69611,2,0,P|442:62|436:127,1,135,8|0,0:0|0:0,0:0:0:0:
357,88,70444,1,8,0:0:0:0:
275,119,70778,6,0,L|140:108,1,135,4|8,0:0|0:0,0:0:0:0:
26,180,71778,2,0,P|0:240|23:301,2,135,0|8|0,0:0|0:0|0:0,0:0:0:0:
90,242,73111,1,8,0:0:0:0:
166,194,73444,6,0,P|227:170|287:196,1,135,0|8,0:0|0:0,0:0:0:0:
369,235,74278,2,0,L|414:231,2,45,0|0|0,0:0|0:0|0:0,0:0:0:0:
295,286,74944,1,8,0:0:0:0:
377,325,75278,2,0,L|512:314,1,135,0|2,0:0|0:0,0:0:0:0:
503,224,76111,6,0,L|492:89,1,135,4|8,0:0|0:0,0:0:0:0:
430,26,76944,2,0,L|385:22,2,45,0|0|0,0:0|0:0|0:0,0:0:0:0:
405,112,77611,2,0,L|270:101,1,135,8|0,0:0|0:0,0:0:0:0:
219,27,78444,1,8,0:0:0:0:
144,76,78778,6,0,P|105:129|114:194,1,135,0|8,0:0|0:0,0:0:0:0:
224,272,79778,2,0,L|359:261,2,135,0|8|0,0:0|0:0|0:0,0:0:0:0:
160,335,81111,1,8,0:0:0:0:
70,335,81444,6,0,P|31:281|40:216,1,135,14|10,0:0|0:0,0:0:0:0:
117,105,82444,2,0,L|252:94,1,135,10|10,0:0|0:0,0:0:0:0:
385,82,83444,1,2,0:0:0:0:
457,136,83778,1,2,0:0:0:0:
396,202,84111,6,0,L|306:209,2,90,6|0|0,0:0|0:0|0:0,0:0:0:0:
468,256,85111,1,0,0:0:0:0:
407,322,85444,2,0,L|272:333,1,135,0|0,0:0|0:0,0:0:0:0:
182,333,86278,2,0,L|47:322,1,135,0|4,0:0|0:0,0:0:0:0:
256,192,87111,12,4,89444,0:0:0:0:
400,327,108111,6,0,L|310:327,1,90,4|8,0:0|0:0,0:0:0:0:
232,282,108778,2,0,L|97:282,2,135,2|8|8,0:0|0:0|0:0,0:0:0:0:
310,237,110111,2,0,L|400:237,1,90,2|8,0:0|0:0,0:0:0:0:
400,147,110778,6,0,L|310:147,1,90,0|8,0:0|0:0,0:0:0:0:
232,102,111445,2,0,L|97:102,2,135,2|8|8,0:0|0:0|0:0,0:0:0:0:
310,57,112778,2,0,L|400:57,1,90,2|8,0:0|0:0,0:0:0:0:
478,102,113444,5,4,0:0:0:0:
399,146,113778,2,0,P|300:183|302:288,1,225,8|8,0:0|0:0,0:0:0:0:
408,372,115111,2,0,L|497:364,1,90,8|2,0:0|0:0,0:0:0:0:
498,274,115778,1,8,0:0:0:0:
498,184,116111,6,0,L|497:94,1,90,0|8,0:0|0:0,0:0:0:0:
435,29,116778,2,0,P|375:3|314:26,2,135,2|8|8,0:0|0:0|0:0,0:0:0:0:
373,94,118111,2,0,L|373:184,1,90,2|8,0:0|0:0,0:0:0:0:
373,274,118778,5,4,0:0:0:0:
328,351,119111,2,0,P|223:361|178:266,1,225,8|8,0:0|0:0,0:0:0:0:
283,184,120444,2,0,L|373:184,2,90,8|2|8,0:0|0:0|0:0,0:0:0:0:
193,184,121444,6,0,L|103:184,1,90,2|8,0:0|0:0,0:0:0:0:
38,121,122111,2,0,P|12:61|35:0,2,135,2|8|8,0:0|0:0|0:0,0:0:0:0:
103,59,123444,2,0,L|193:59,1,90,2|8,0:0|0:0,0:0:0:0:
258,121,124111,5,4,0:0:0:0:
323,59,124444,2,0,P|425:84|434:189,1,225,8|8,0:0|0:0,0:0:0:0:
320,260,125778,2,0,L|320:350,2,90,8|2|8,0:0|0:0|0:0,0:0:0:0:
253,200,126778,6,0,L|163:200,1,90,2|8,0:0|0:0,0:0:0:0:
98,263,127445,2,0,P|72:323|95:384,2,135,2|8|10,0:0|0:0|0:0,0:0:0:0:
163,325,128778,2,0,L|253:325,1,90,2|8,0:0|0:0,0:0:0:0:
343,325,129444,6,0,L|433:325,2,90,4|8|2,0:0|0:0|0:0,0:0:0:0:
298,247,130444,1,8,0:0:0:0:
253,169,130778,2,0,L|163:169,1,90,2|8,0:0|0:0,0:0:0:0:
163,79,131444,2,0,L|253:79,1,90,2|8,0:0|0:0,0:0:0:0:
343,79,132111,6,0,L|433:79,2,90,2|8|2,0:0|0:0|0:0,0:0:0:0:
298,157,133111,1,8,0:0:0:0:
343,234,133444,2,0,P|341:319|268:365,1,180,2|2,0:0|0:0,0:0:0:0:
178,366,134444,1,8,0:0:0:0:
100,321,134778,6,0,L|10:321,2,90,4|8|2,0:0|0:0|0:0,0:0:0:0:
178,276,135778,1,8,0:0:0:0:
100,231,136111,2,0,L|10:231,1,90,2|8,0:0|0:0,0:0:0:0:
10,141,136778,2,0,L|100:141,1,90,2|8,0:0|0:0,0:0:0:0:
256,192,137444,12,2,138778,0:0:0:0:
46,127,140111,6,0,P|106:101|167:124,1,135,4|8,0:0|0:0,0:0:0:0:
167,260,141111,2,0,P|106:286|45:262,2,135,0|8|0,0:0|0:0|0:0,0:0:0:0:
226,192,142444,1,8,0:0:0:0:
285,124,142778,6,0,P|346:100|406:126,1,135,2|8,0:0|0:0,0:0:0:0:
467,192,143611,2,0,L|512:191,2,45,0|0|0,0:0|0:0|0:0,0:0:0:0:
407,260,144278,2,0,P|345:283|285:257,1,135,8|0,0:0|0:0,0:0:0:0:
226,192,145111,1,8,0:0:0:0:
167,260,145444,6,0,P|106:286|45:262,1,135,4|8,0:0|0:0,0:0:0:0:
46,127,146444,2,0,P|106:103|167:128,2,135,0|8|0,0:0|0:0|0:0,0:0:0:0:
106,194,147778,1,8,0:0:0:0:
166,261,148111,6,0,L|301:249,1,135,2|8,0:0|0:0,0:0:0:0:
351,322,148944,2,0,L|355:367,2,45,0|0|0,0:0|0:0|0:0,0:0:0:0:
389,241,149611,1,8,0:0:0:0:
338,168,149944,2,0,L|202:156,1,135,0|2,0:0|0:0,0:0:0:0:
154,80,150778,6,0,P|88:87|47:139,1,135,4|8,0:0|0:0,0:0:0:0:
47,228,151611,2,0,L|1:228,2,45,0|0|0,0:0|0:0|0:0,0:0:0:0:
47,318,152278,2,0,P|88:369|153:377,1,135,8|0,0:0|0:0,0:0:0:0:
240,352,153111,1,8,0:0:0:0:
240,262,153444,6,0,L|240:125,1,135,2|8,0:0|0:0,0:0:0:0:
336,32,154444,2,0,P|402:39|443:91,2,135,0|8|0,0:0|0:0|0:0,0:0:0:0:
360,118,155778,1,8,0:0:0:0:
427,177,156111,6,0,L|415:311,1,135,14|10,0:0|0:0,0:0:0:0:
288,358,157111,2,0,L|153:346,1,135,10|10,0:0|0:0,0:0:0:0:
65,244,158111,1,2,0:0:0:0:
65,154,158444,1,2,0:0:0:0:
128,89,158778,6,0,P|188:65|249:90,1,135,6|2,0:0|0:0,0:0:0:0:
249,225,159778,2,0,P|288:275|354:284,1,135,0|8,0:0|0:0,0:0:0:0:
476,225,160778,2,0,L|476:135,1,90,8|2,0:0|0:0,0:0:0:0:
421,64,161444,6,0,P|361:40|300:65,1,135,4|8,0:0|0:0,0:0:0:0:
256,192,162444,2,0,L|268:327,2,135,0|8|0,0:0|0:0|0:0,0:0:0:0:
220,109,163778,1,8,0:0:0:0:
166,181,164111,6,0,P|102:171|61:119,1,135,2|8,0:0|0:0,0:0:0:0:
46,29,164944,2,0,L|0:29,2,45,0|0|0,0:0|0:0|0:0,0:0:0:0:
136,29,165611,2,0,L|271:29,1,135,8|0,0:0|0:0,0:0:0:0:
349,74,166444,1,8,0:0:0:0:
271,119,166778,6,0,P|247:179|272:240,1,135,4|8,0:0|0:0,0:0:0:0:
378,325,167778,2,0,L|512:313,2,135,0|8|0,0:0|0:0|0:0,0:0:0:0:
300,370,169111,1,8,0:0:0:0:
222,325,169444,6,0,L|87:313,1,135,2|8,0:0|0:0,0:0:0:0:
48,232,170278,2,0,L|2:231,2,45,0|0|0,0:0|0:0|0:0,0:0:0:0:
98,157,170944,1,8,0:0:0:0:
188,157,171278,2,0,P|253:164|294:216,1,135,0|2,0:0|0:0,0:0:0:0:
321,301,172111,6,0,P|373:340|438:330,1,135,4|8,0:0|0:0,0:0:0:0:
396,251,172944,2,0,L|399:205,2,45,0|0|0,0:0|0:0|0:0,0:0:0:0:
486,254,173611,2,0,L|498:119,1,135,8|0,0:0|0:0,0:0:0:0:
452,41,174444,1,8,0:0:0:0:
407,119,174778,6,0,P|341:128|288:89,1,135,2|8,0:0|0:0,0:0:0:0:
166,32,175778,2,0,L|31:20,2,135,0|8|0,0:0|0:0|0:0,0:0:0:0:
202,113,177111,1,8,0:0:0:0:
166,195,177444,6,0,L|31:207,1,135,14|10,0:0|0:0,0:0:0:0:
31,342,178444,2,0,L|166:354,1,135,10|10,0:0|0:0,0:0:0:0:
275,275,179444,1,2,0:0:0:0:
334,343,179778,1,2,0:0:0:0:
402,284,180111,6,0,L|492:291,2,90,6|0|8,0:0|0:0|0:0,0:0:0:0:
343,216,181111,1,0,0:0:0:0:
284,148,181444,2,0,P|218:138|165:177,1,135,0|0,0:0|0:0,0:0:0:0:
166,268,182278,2,0,P|222:302|286:287,1,135,0|4,0:0|0:0,0:0:0:0:
