osu file format v14

[General]
AudioFilename: audio.mp3
AudioLeadIn: 0
PreviewTime: 43444
Countdown: 0
SampleSet: Soft
StackLeniency: 0.7
Mode: 0
LetterboxInBreaks: 0
WidescreenStoryboard: 0

[Editor]
Bookmarks: 108111
DistanceSpacing: 0.8
BeatDivisor: 4
GridSize: 16
TimelineZoom: 1.500001

[Metadata]
Title:DREAMCATCHER
TitleUnicode:DREAMCATCHER
Artist:nano
ArtistUnicode:ナノ
Creator:Vert
Version:Collab Normal
Source:魔法少女育成計画
Tags:Mahou Shoujo Ikusei Keikaku MahouIku Magical Girl Raising Project WESTGROUND ending ed full ver Depths Dored Koiyuki Minakami Yuki Kashima sahuang -Laura-
BeatmapID:1571692
BeatmapSetID:695957

[Difficulty]
HPDrainRate:4
CircleSize:3.5
OverallDifficulty:5
ApproachRate:5.5
SliderMultiplier:1.25
SliderTickRate:1

[Events]
//Background and Video events
0,0,"SwimxRuler.png",0,0
//Break Periods
2,4111,5653
2,9444,10986
2,89644,104319
//Storyboard Layer 0 (Background)
//Storyboard Layer 1 (Fail)
//Storyboard Layer 2 (Pass)
//Storyboard Layer 3 (Foreground)
//Storyboard Sound Samples

[TimingPoints]
1445,333.333333333333,4,2,11,15,1,0
1445,-100,4,2,11,15,0,0
6111,-100,4,2,88,15,0,0
6444,-100,4,2,88,25,0,0
6778,-100,4,2,11,15,0,0
11444,-100,4,2,88,15,0,0
11778,-100,4,2,88,25,0,0
12111,-100,4,2,11,20,0,0
22778,-100,4,2,11,40,0,0
33444,-100,4,2,12,60,0,0
42778,-100,4,2,12,60,0,0
43444,-100,4,2,11,60,0,0
44111,-100,4,2,12,75,0,1
86778,-100,4,2,12,60,0,0
108111,-100,4,2,12,40,0,0
118778,-100,4,2,11,50,0,0
129111,-100,4,2,11,50,0,0
129444,-100,4,2,11,60,0,0
134778,-100,4,2,12,60,0,0
138778,-100,4,2,11,15,0,0
139111,-100,4,2,12,50,0,0
139778,-100,4,2,12,30,0,0
140111,-100,4,2,12,60,0,1
182778,-100,4,2,0,60,0,0

[Colours]
Combo1 : 97,10,214
Combo2 : 242,166,253
Combo3 : 170,126,250
Combo4 : 255,0,255

[HitObjects]
126,272,1445,6,0,B|160:144|256:110|256:110|351:143|382:285,1,437.5,2|2,0:0|0:0,0:0:0:0:
126,112,6778,6,0,B|160:240|256:274|256:274|351:241|382:99,1,437.5,2|2,0:0|0:0,0:0:0:0:
46,316,12111,6,0,L|66:169,1,125,2|2,0:0|0:0,0:0:0:0:
133,120,12778,2,0,P|190:136|254:119,1,125,2|0,0:0|0:0,0:0:0:0:
305,36,13444,2,0,P|364:20|424:36,1,125,2|2,0:0|0:0,0:0:0:0:
501,99,14111,2,0,L|503:180,1,62.5,0|0,0:0|0:0,0:0:0:0:
484,260,14611,6,0,P|446:318|347:261,1,187.5,2|2,0:0|0:0,0:0:0:0:
276,214,15444,2,0,L|300:56,1,125,2|0,0:0|0:0,0:0:0:0:
286,40,15944,2,0,P|248:107|113:123,1,187.5,2|2,0:0|0:0,0:0:0:0:
101,111,16611,1,0,0:0:0:0:
36,186,16944,1,2,0:0:0:0:
83,328,17444,6,0,L|214:308,1,125,0|2,0:0|0:0,0:0:0:0:
306,310,18111,2,0,L|429:328,1,125,2|0,0:0|0:0,0:0:0:0:
493,251,18778,2,0,P|509:191|492:132,1,125,2|2,0:0|0:0,0:0:0:0:
425,57,19444,2,0,P|392:48|344:55,1,62.5,2|0,2:0|0:0,0:0:0:0:
264,62,19944,6,0,P|184:110|175:204,1,187.5,2|2,0:0|0:0,0:0:0:0:
270,165,20777,2,0,L|428:141,1,125,2|0,0:0|0:0,0:0:0:0:
439,125,21278,2,0,B|404:184|404:184|420:311,1,187.5,2|2,0:0|0:0,0:0:0:0:
422,351,21944,1,0,0:0:0:0:
330,309,22278,1,2,0:0:0:0:
190,362,22777,6,0,L|178:225,1,125,4|0,0:0|1:0,0:0:0:0:
100,174,23444,2,0,L|31:199,2,62.5,0|0|0,0:0|1:0|1:0,0:0:0:0:
160,94,24111,2,0,P|229:120|300:108,1,125,0|0,0:0|1:0,0:0:0:0:
324,94,24611,2,0,L|312:239,2,125,0|0|0,0:0|0:0|0:0,0:0:0:0:
418,61,25611,6,0,L|410:-5,2,62.5,0|0|0,0:0|1:0|0:0,0:0:0:0:
438,106,26111,2,0,L|430:168,1,62.5,0|0,0:0|1:0,0:0:0:0:
410,213,26444,1,0,1:0:0:0:
410,213,26611,2,0,P|449:264|449:352,2,125,0|0|0,0:0|0:0|0:0,0:0:0:0:
362,229,27444,2,0,L|290:236,1,62.5,0|0,0:0|0:0,0:0:0:0:
249,242,27778,1,0,1:0:0:0:
151,271,28111,6,0,P|182:321|244:346,2,125,2|0|0,0:0|1:0|0:0,0:0:0:0:
132,172,29111,1,0,1:0:0:0:
187,88,29444,2,0,L|337:67,1,125,0|0,0:0|1:0,0:0:0:0:
360,68,29944,2,0,P|426:88|477:148,2,125,0|0|0,0:0|0:0|0:0,0:0:0:0:
283,132,30944,6,0,L|304:213,2,62.5,0|0|0,0:0|1:0|0:0,0:0:0:0:
243,100,31444,1,0,0:0:0:0:
149,64,31778,1,0,1:0:0:0:
107,91,31944,2,0,B|57:172|140:177|94:270,1,187.5,0|0,0:0|1:0,0:0:0:0:
65,364,32778,2,0,L|-11:348,2,62.5,0|0|0,0:0|0:0|1:0,0:0:0:0:
161,337,33444,6,0,L|237:321,1,62.5,4|0,0:0|0:0,0:0:0:0:
270,309,33778,2,0,L|415:321,1,125,8|0,0:0|0:0,0:0:0:0:
444,322,34278,1,2,0:0:0:0:
508,245,34611,1,0,0:0:0:0:
463,155,34944,1,0,0:0:0:0:
463,155,35111,2,0,L|489:17,2,125,0|2|8,0:0|0:0|0:0,0:0:0:0:
372,197,36111,6,0,P|339:181|301:174,1,62.5,0|0,0:0|0:0,0:0:0:0:
268,196,36444,2,0,P|204:218|140:210,1,125,8|0,0:0|0:0,0:0:0:0:
103,189,36944,1,2,0:0:0:0:
45,106,37278,1,0,0:0:0:0:
94,18,37611,1,0,0:0:0:0:
94,18,37778,2,0,P|162:22|207:79,2,125,0|2|8,0:0|0:0|0:0,0:0:0:0:
45,106,38778,6,0,L|49:182,1,62.5,4|0,0:0|0:0,0:0:0:0:
87,199,39111,2,0,L|75:352,1,125,0|0,0:0|0:0,0:0:0:0:
169,363,39778,1,8,0:0:0:0:
259,320,40111,2,0,L|338:308,1,62.5,0|0,0:0|0:0,0:0:0:0:
370,307,40444,2,0,P|358:237|390:183,1,125,0|0,0:0|0:0,0:0:0:0:
443,111,41111,1,8,0:0:0:0:
343,98,41444,6,0,B|203:96,1,125,0|12,0:0|0:0,0:0:0:0:
168,101,41944,1,0,0:0:0:0:
168,101,42111,2,0,P|115:142|107:215,1,125,2|10,0:0|0:0,0:0:0:0:
203,196,42778,1,6,0:0:0:0:
203,196,44111,5,4,0:0:0:0:
203,196,44278,1,0,0:0:0:0:
275,127,44611,2,0,L|408:133,1,125,8|0,0:0|0:0,0:0:0:0:
442,158,45111,1,0,0:0:0:0:
442,158,45278,2,0,P|456:212|442:292,1,125,0|8,0:0|0:0,0:0:0:0:
361,331,45944,1,0,0:0:0:0:
361,331,46111,2,0,L|228:337,1,125,0|8,0:0|0:0,0:0:0:0:
139,310,46778,6,0,P|120:285|116:247,1,62.5,2|0,0:0|0:0,0:0:0:0:
156,163,47278,2,0,L|294:141,1,125,8|0,0:0|0:0,0:0:0:0:
328,131,47778,1,0,0:0:0:0:
328,131,47944,1,0,0:0:0:0:
275,45,48278,2,0,L|151:64,1,125,8|0,0:0|0:0,0:0:0:0:
101,64,48778,2,0,P|74:56|40:7,2,62.5,0|0|8,0:0|0:0|0:0,0:0:0:0:
40,143,49444,6,0,P|10:216|103:252,1,187.5,4|8,0:0|0:0,0:0:0:0:
134,231,50111,2,0,L|270:234,1,125,0|0,0:0|0:0,0:0:0:0:
309,231,50611,1,0,0:0:0:0:
386,293,50944,1,8,0:0:0:0:
482,266,51278,1,0,0:0:0:0:
482,266,51444,2,0,L|490:341,2,62.5,0|0|8,0:0|0:0|0:0,0:0:0:0:
411,194,52111,6,0,L|404:131,1,62.5,2|0,0:0|0:0,0:0:0:0:
339,55,52611,2,0,P|287:101|204:92,1,125,8|0,0:0|0:0,0:0:0:0:
187,86,53111,1,0,0:0:0:0:
187,86,53278,1,0,0:0:0:0:
93,119,53611,2,0,L|100:248,1,125,8|0,0:0|0:0,0:0:0:0:
105,293,54111,2,0,P|128:318|183:326,1,62.5,8|8,0:0|0:0,0:0:0:0:
204,326,54444,2,0,P|232:314|253:291,1,62.5,2|0,0:0|0:0,0:0:0:0:
271,244,54778,5,4,0:0:0:0:
271,244,54944,2,0,L|416:254,1,125,0|8,1:0|0:0,0:0:0:0:
443,236,55444,1,0,0:0:0:0:
496,151,55778,1,0,0:0:0:0:
496,151,55944,1,0,0:0:0:0:
463,56,56278,2,0,L|319:40,1,125,8|0,0:0|0:0,0:0:0:0:
292,62,56778,2,0,L|287:139,2,62.5,0|0|8,0:0|0:0|0:0,0:0:0:0:
198,27,57444,5,0,0:0:0:0:
198,27,57610,2,0,L|188:172,1,125,0|8,0:0|0:0,0:0:0:0:
168,197,58110,1,0,0:0:0:0:
102,272,58444,1,0,0:0:0:0:
102,272,58611,1,0,0:0:0:0:
153,357,58944,2,0,L|294:333,1,125,8|0,0:0|0:0,0:0:0:0:
325,341,59444,2,0,P|351:355|399:354,2,62.5,0|0|8,0:0|0:0|0:0,0:0:0:0:
290,246,60111,6,0,P|264:232|216:233,2,62.5,14|0|0,0:0|0:0|0:0,0:0:0:0:
337,262,60611,2,0,L|324:97,1,125,10|0,0:0|0:0,0:0:0:0:
324,87,61111,1,10,0:0:0:0:
237,37,61444,2,0,P|207:25|162:23,1,62.5,0|10,0:0|0:0,0:0:0:0:
148,62,61778,2,0,P|122:81|98:119,1,62.5,0|0,0:0|0:0,0:0:0:0:
125,151,62111,2,0,P|129:182|150:222,1,62.5,2|0,0:0|0:0,0:0:0:0:
190,215,62444,2,0,P|220:227|265:229,1,62.5,2|0,0:0|0:0,0:0:0:0:
295,209,62778,6,0,B|343:171|419:186|419:186|416:259,2,187.5,6|2|0,0:0|0:0|0:0,0:0:0:0:
203,328,64278,2,0,P|136:316|97:243,1,125,8|0,0:0|0:0,0:0:0:0:
95,223,64778,2,0,L|115:151,1,62.5,8|8,0:0|0:0,0:0:0:0:
127,115,65111,1,2,0:0:0:0:
194,41,65444,6,0,P|252:95|314:79,1,125,4|0,0:0|0:0,0:0:0:0:
333,62,65944,2,0,L|489:58,1,125,8|0,0:0|0:0,0:0:0:0:
500,84,66444,1,0,0:0:0:0:
500,84,66611,1,0,0:0:0:0:
453,172,66944,2,0,L|473:310,1,125,8|0,0:0|0:0,0:0:0:0:
434,329,67444,2,0,L|360:313,1,62.5,0|0,0:0|0:0,0:0:0:0:
324,303,67778,1,8,0:0:0:0:
224,304,68111,6,0,L|146:325,1,62.5,0|0,0:0|0:0,0:0:0:0:
64,303,68611,2,0,P|63:241|42:165,1,125,8|0,0:0|0:0,0:0:0:0:
23,136,69111,1,0,0:0:0:0:
23,136,69277,1,0,0:0:0:0:
67,46,69611,2,0,L|191:27,1,125,8|0,0:0|0:0,0:0:0:0:
239,36,70111,2,0,P|247:63|296:97,2,62.5,0|0|8,0:0|0:0|0:0,0:0:0:0:
335,10,70778,6,0,P|372:84|317:179,1,187.5,4|8,0:0|0:0,0:0:0:0:
285,197,71444,2,0,L|150:186,1,125,0|0,0:0|0:0,0:0:0:0:
110,182,71944,1,0,0:0:0:0:
33,246,72277,1,8,0:0:0:0:
73,337,72611,1,0,0:0:0:0:
73,337,72777,2,0,L|148:329,2,62.5,0|0|8,0:0|0:0|0:0,0:0:0:0:
33,246,73444,6,0,L|96:239,1,62.5,0|0,0:0|0:0,0:0:0:0:
164,166,73944,2,0,P|136:110|152:22,1,125,8|0,0:0|0:0,0:0:0:0:
175,13,74444,1,0,0:0:0:0:
175,13,74611,1,0,0:0:0:0:
239,89,74944,2,0,P|296:114|378:99,1,125,8|0,0:0|0:0,0:0:0:0:
406,98,75444,2,0,L|418:188,1,62.5,8|8,0:0|0:0,0:0:0:0:
457,185,75778,2,0,L|445:275,1,62.5,2|0,0:0|0:0,0:0:0:0:
426,291,76111,5,4,0:0:0:0:
426,291,76278,2,0,P|369:316|287:301,1,125,0|8,1:0|0:0,0:0:0:0:
266,283,76777,1,0,0:0:0:0:
184,341,77111,1,0,0:0:0:0:
184,341,77277,1,0,0:0:0:0:
89,307,77611,2,0,L|105:163,1,125,8|0,0:0|0:0,0:0:0:0:
120,135,78111,2,0,L|104:55,2,62.5,0|0|8,0:0|0:0|0:0,0:0:0:0:
200,194,78777,5,0,0:0:0:0:
200,194,78944,2,0,P|261:211|345:184,1,125,0|8,0:0|0:0,0:0:0:0:
363,173,79443,1,0,0:0:0:0:
407,83,79777,1,0,0:0:0:0:
407,83,79944,1,0,0:0:0:0:
326,23,80278,2,0,P|265:6|181:33,1,125,8|0,0:0|0:0,0:0:0:0:
165,47,80777,2,0,L|77:33,2,62.5,0|0|8,0:0|0:0|0:0,0:0:0:0:
115,134,81444,6,0,L|27:120,2,62.5,14|0|0,0:0|0:0|0:0,0:0:0:0:
156,161,81944,2,0,L|141:315,1,125,10|0,0:0|0:0,0:0:0:0:
138,335,82444,1,10,0:0:0:0:
237,348,82778,2,0,P|267:360|312:362,1,62.5,0|10,0:0|0:0,0:0:0:0:
326,323,83112,2,0,P|352:304|376:266,1,62.5,0|0,0:0|0:0,0:0:0:0:
349,234,83445,2,0,P|345:203|324:163,1,62.5,2|0,0:0|0:0,0:0:0:0:
284,170,83778,2,0,P|254:158|209:156,1,62.5,2|0,0:0|0:0,0:0:0:0:
177,173,84111,6,0,L|27:190,2,125,6|0|0,0:0|0:0|0:0,0:0:0:0:
227,259,85111,1,0,0:0:0:0:
283,341,85444,2,0,L|407:326,1,125,0|8,0:0|0:0,0:0:0:0:
451,302,85944,1,0,0:0:0:0:
451,302,86111,2,0,L|436:223,1,62.5,2|0,0:0|0:0,0:0:0:0:
395,217,86444,2,0,L|410:138,1,62.5,2|0,0:0|0:0,0:0:0:0:
256,192,86778,12,4,89444,0:0:0:0:
256,192,105444,12,0,107444,0:0:0:0:
254,148,108111,6,0,P|203:127|127:139,1,125,4|8,0:0|0:0,0:0:0:0:
51,190,108778,2,0,L|58:265,1,62.5,2|0,0:0|0:0,0:0:0:0:
112,335,109278,2,0,P|163:356|239:344,1,125,8|0,0:0|0:0,0:0:0:0:
273,321,109778,1,8,0:0:0:0:
315,230,110111,2,0,L|402:235,2,62.5,2|0|8,0:0|0:0|0:0,0:0:0:0:
254,148,110778,6,0,P|244:79|266:26,1,125,0|8,0:0|0:0,0:0:0:0:
362,15,111444,2,0,L|442:18,1,62.5,2|0,0:0|0:0,0:0:0:0:
501,80,111944,2,0,P|493:148|486:215,1,125,8|0,0:0|0:0,0:0:0:0:
472,252,112444,1,8,0:0:0:0:
390,310,112778,2,0,P|393:343|397:378,2,62.5,2|0|8,0:0|0:0|0:0,0:0:0:0:
305,256,113444,6,0,B|234:247|249:287|157:273,1,125,4|8,0:0|0:0,0:0:0:0:
90,237,114111,2,0,L|85:165,1,62.5,2|0,0:0|0:0,0:0:0:0:
114,78,114611,2,0,P|159:48|242:44,1,125,8|0,0:0|0:0,0:0:0:0:
276,52,115111,1,8,0:0:0:0:
357,109,115444,2,0,L|350:172,2,62.5,2|0|8,0:0|0:0|0:0,0:0:0:0:
412,25,116111,6,0,P|449:69|448:153,1,125,0|8,0:0|0:0,0:0:0:0:
430,231,116778,2,0,L|438:295,1,62.5,2|0,0:0|0:0,0:0:0:0:
355,349,117278,2,0,B|312:330|312:330|225:340,1,125,8|0,0:0|0:0,0:0:0:0:
185,347,117778,1,8,0:0:0:0:
102,291,118111,2,0,L|35:286,2,62.5,2|0|8,0:0|0:0|0:0,0:0:0:0:
176,223,118778,6,0,P|216:197|296:198,1,125,4|8,0:0|0:0,0:0:0:0:
379,243,119444,1,2,0:0:0:0:
468,197,119778,2,0,L|472:131,1,62.5,2|8,0:0|0:0,0:0:0:0:
475,84,120111,2,0,P|435:58|355:59,1,125,2|8,0:0|0:0,0:0:0:0:
320,88,120611,1,0,0:0:0:0:
320,88,120778,2,0,P|258:84|204:114,1,125,2|8,0:0|0:0,0:0:0:0:
142,193,121444,6,0,L|-10:178,1,125,2|8,0:0|0:0,0:0:0:0:
1,81,122111,2,0,L|153:66,1,125,2|2,0:0|0:0,0:0:0:0:
167,41,122611,2,0,L|319:56,1,125,8|0,0:0|0:0,0:0:0:0:
340,63,123111,1,8,0:0:0:0:
420,122,123444,1,2,0:0:0:0:
431,221,123778,1,8,0:0:0:0:
385,310,124111,6,0,P|311:325|248:298,1,125,4|8,0:0|0:0,0:0:0:0:
193,239,124778,1,2,0:0:0:0:
139,154,125111,2,0,L|143:87,1,62.5,2|8,0:0|0:0,0:0:0:0:
142,41,125444,2,0,P|68:26|5:53,1,125,0|8,0:0|0:0,0:0:0:0:
1,86,125944,2,0,L|10:220,1,125,0|0,0:0|0:0,0:0:0:0:
13,260,126444,1,8,0:0:0:0:
96,315,126778,6,0,B|181:304|181:304|231:321,1,125,2|8,0:0|0:0,0:0:0:0:
314,344,127444,2,0,P|332:291|312:214,1,125,2|2,0:0|0:0,0:0:0:0:
298,178,127944,2,0,P|351:196|428:176,1,125,8|0,0:0|0:0,0:0:0:0:
459,156,128444,1,10,0:0:0:0:
487,60,128778,1,2,0:0:0:0:
400,9,129111,1,8,0:0:0:0:
311,55,129444,6,0,L|172:49,2,125,4|8|2,0:0|0:0|0:0,0:0:0:0:
384,133,130444,1,8,0:0:0:0:
384,133,130611,2,0,P|397:212|377:276,2,125,0|0|0,0:0|0:0|0:0,0:0:0:0:
287,148,131611,1,0,0:0:0:0:
287,148,131778,2,0,L|211:144,1,62.5,8|0,0:0|0:0,0:0:0:0:
174,144,132111,6,0,P|132:125|49:141,2,125,2|8|2,0:0|0:0|0:0,0:0:0:0:
217,234,133111,1,8,0:0:0:0:
217,234,133278,2,0,B|320:209|309:278|410:259,1,187.5,0|8,0:0|0:0,0:0:0:0:
486,214,134111,1,2,0:0:0:0:
504,115,134444,1,8,0:0:0:0:
434,43,134778,6,0,P|373:35|308:64,1,125,4|8,0:0|0:0,0:0:0:0:
233,115,135444,2,0,P|175:91|114:99,1,125,2|8,0:0|0:0,0:0:0:0:
76,132,135944,1,0,0:0:0:0:
76,132,136111,2,0,L|83:268,1,125,2|8,0:0|0:0,0:0:0:0:
117,350,136778,1,2,0:0:0:0:
212,377,137111,1,8,0:0:0:0:
298,327,137444,6,0,P|317:268|303:200,1,125,2|12,0:0|0:0,0:0:0:0:
215,164,138111,2,0,B|210:126|210:126|225:89|225:89|219:42,1,125,2|2,0:0|0:0,0:0:0:0:
121,19,138778,2,0,P|56:24|2:63,1,125,0|2,0:0|0:0,0:0:0:0:
1,106,139278,2,0,L|15:245,1,125,0|0,0:0|0:0,0:0:0:0:
17,280,139778,1,2,0:0:0:0:
86,351,140111,6,0,P|127:358|164:353,1,62.5,4|0,0:0|0:0,0:0:0:0:
211,279,140611,2,0,B|291:269|291:269|346:284,1,125,8|0,0:0|0:0,0:0:0:0:
384,302,141111,1,0,0:0:0:0:
384,302,141278,2,0,L|459:299,1,62.5,0|0,0:0|0:0,0:0:0:0:
496,296,141611,2,0,P|512:231|498:170,1,125,8|0,0:0|0:0,0:0:0:0:
480,129,142111,1,0,0:0:0:0:
390,85,142444,1,8,0:0:0:0:
297,122,142778,6,0,L|224:117,1,62.5,2|0,0:0|0:0,0:0:0:0:
163,47,143278,2,0,B|122:32|122:32|27:50,1,125,8|0,0:0|0:0,0:0:0:0:
11,87,143778,1,0,0:0:0:0:
11,87,143944,2,0,L|18:171,1,62.5,0|0,0:0|0:0,0:0:0:0:
24,199,144278,2,0,P|86:222|157:208,1,125,8|0,0:0|0:0,0:0:0:0:
188,192,144778,1,0,0:0:0:0:
255,118,145111,1,8,0:0:0:0:
272,19,145444,6,0,L|347:15,1,62.5,4|0,0:0|0:0,0:0:0:0:
434,14,145944,2,0,P|455:75|434:148,1,125,8|0,0:0|0:0,0:0:0:0:
411,171,146444,1,0,0:0:0:0:
411,171,146611,2,0,L|418:253,1,62.5,0|0,0:0|0:0,0:0:0:0:
418,283,146944,2,0,P|357:304|284:283,1,125,8|0,0:0|0:0,0:0:0:0:
258,262,147444,1,0,0:0:0:0:
196,183,147778,1,8,0:0:0:0:
187,83,148111,6,0,L|116:78,1,62.5,2|0,0:0|0:0,0:0:0:0:
38,128,148611,2,0,P|17:183|30:251,1,125,8|0,0:0|0:0,0:0:0:0:
58,293,149111,1,0,0:0:0:0:
58,293,149278,2,0,L|129:288,1,62.5,0|0,0:0|0:0,0:0:0:0:
166,270,149611,2,0,P|206:244|308:254,1,125,8|0,0:0|0:0,0:0:0:0:
325,265,150111,2,0,L|316:338,2,62.5,8|8|2,0:0|0:0|0:0,0:0:0:0:
403,202,150778,5,4,0:0:0:0:
403,202,150944,2,0,L|394:129,1,62.5,0|0,1:0|0:0,0:0:0:0:
384,90,151278,2,0,P|315:76|242:100,1,125,8|0,0:0|0:0,0:0:0:0:
224,121,151778,1,0,0:0:0:0:
224,121,151944,2,0,L|151:116,1,62.5,0|0,0:0|0:0,0:0:0:0:
111,113,152278,2,0,P|83:175|94:251,1,125,8|0,0:0|0:0,0:0:0:0:
100,278,152778,1,0,0:0:0:0:
186,328,153111,1,8,0:0:0:0:
284,299,153444,5,2,0:0:0:0:
284,299,153611,2,0,L|367:301,1,62.5,0|0,0:0|0:0,0:0:0:0:
396,298,153944,2,0,P|412:241|387:167,1,125,8|0,0:0|0:0,0:0:0:0:
360,151,154444,1,0,0:0:0:0:
360,151,154611,2,0,L|367:82,1,62.5,0|0,0:0|0:0,0:0:0:0:
366,38,154944,2,0,P|310:13|230:22,1,125,8|0,0:0|0:0,0:0:0:0:
205,43,155444,1,0,0:0:0:0:
156,130,155778,1,8,0:0:0:0:
213,211,156111,6,0,P|222:280|203:345,1,125,14|0,0:0|0:0,0:0:0:0:
178,372,156611,2,0,L|46:358,1,125,10|0,0:0|0:0,0:0:0:0:
10,333,157111,2,0,P|1:264|20:199,1,125,10|0,0:0|0:0,0:0:0:0:
46,172,157611,2,0,L|178:186,1,125,10|0,0:0|0:0,0:0:0:0:
213,211,158111,1,2,0:0:0:0:
304,171,158444,1,2,0:0:0:0:
276,78,158778,5,6,0:0:0:0:
276,78,158944,2,0,L|214:72,1,62.5,0|0,0:0|0:0,0:0:0:0:
169,48,159278,2,0,P|119:37|40:69,1,125,2|0,0:0|0:0,0:0:0:0:
20,99,159778,1,0,0:0:0:0:
9,200,160111,1,0,0:0:0:0:
9,200,160278,2,0,L|29:348,1,125,8|0,0:0|0:0,0:0:0:0:
61,359,160778,2,0,B|103:339|147:354|147:354|162:368|162:368|207:384|258:361,1,187.5,8|0,0:0|0:0,0:0:0:0:
283,345,161444,6,0,L|288:278,1,62.5,4|0,0:0|1:0,0:0:0:0:
296,182,161944,2,0,P|359:191|423:164,1,125,8|0,0:0|0:0,0:0:0:0:
453,137,162444,1,0,0:0:0:0:
453,137,162611,2,0,L|445:63,1,62.5,0|0,0:0|0:0,0:0:0:0:
419,32,162944,2,0,P|356:23|292:50,1,125,8|0,0:0|0:0,0:0:0:0:
260,75,163444,1,0,0:0:0:0:
163,102,163778,1,8,0:0:0:0:
80,46,164111,6,0,L|17:51,1,62.5,2|0,0:0|0:0,0:0:0:0:
4,150,164611,2,0,P|14:214|20:283,1,125,8|0,0:0|0:0,0:0:0:0:
25,328,165111,1,0,0:0:0:0:
25,328,165278,2,0,L|88:333,1,62.5,0|0,0:0|0:0,0:0:0:0:
136,343,165611,2,0,P|191:324|259:335,1,125,8|0,0:0|0:0,0:0:0:0:
301,354,166111,1,0,0:0:0:0:
399,337,166444,1,8,0:0:0:0:
461,258,166778,6,0,L|453:186,1,62.5,4|0,0:0|0:0,0:0:0:0:
401,110,167278,2,0,P|332:100|269:130,1,125,8|0,0:0|0:0,0:0:0:0:
244,153,167778,1,0,0:0:0:0:
244,153,167944,2,0,L|251:222,1,62.5,0|0,0:0|0:0,0:0:0:0:
255,265,168278,2,0,P|196:285|135:274,1,125,8|0,0:0|0:0,0:0:0:0:
92,249,168778,1,0,0:0:0:0:
48,159,169111,1,8,0:0:0:0:
95,70,169444,6,0,L|171:65,1,62.5,2|0,0:0|0:0,0:0:0:0:
254,40,169944,2,0,P|323:20|393:38,1,125,8|0,0:0|0:0,0:0:0:0:
418,64,170444,1,0,0:0:0:0:
418,64,170611,2,0,L|421:137,1,62.5,0|0,0:0|0:0,0:0:0:0:
451,165,170944,2,0,L|445:289,1,125,8|0,0:0|0:0,0:0:0:0:
444,339,171444,2,0,P|482:350|506:351,2,62.5,8|8|2,0:0|0:0|0:0,0:0:0:0:
354,301,172111,5,4,0:0:0:0:
354,301,172278,2,0,P|322:303|293:313,1,62.5,0|0,1:0|0:0,0:0:0:0:
245,328,172611,2,0,P|197:309|114:313,1,125,8|0,0:0|0:0,0:0:0:0:
80,327,173111,1,0,0:0:0:0:
80,327,173278,2,0,L|74:263,1,62.5,0|0,0:0|0:0,0:0:0:0:
39,228,173611,2,0,L|48:100,1,125,8|0,0:0|0:0,0:0:0:0:
56,53,174111,1,0,0:0:0:0:
150,19,174444,1,8,0:0:0:0:
245,62,174778,5,2,0:0:0:0:
245,62,174944,2,0,P|297:61|317:54,1,62.5,0|0,0:0|0:0,0:0:0:0:
352,36,175278,2,0,P|335:99|353:171,1,125,8|0,0:0|0:0,0:0:0:0:
370,205,175778,1,0,0:0:0:0:
370,205,175944,2,0,L|439:199,1,62.5,0|0,0:0|0:0,0:0:0:0:
482,193,176278,2,0,P|499:256|481:328,1,125,8|0,0:0|0:0,0:0:0:0:
456,352,176778,1,0,0:0:0:0:
356,365,177111,1,8,0:0:0:0:
271,312,177444,6,0,L|141:321,1,125,14|0,0:0|0:0,0:0:0:0:
96,321,177944,2,0,P|78:259|94:191,1,125,10|0,0:0|0:0,0:0:0:0:
112,156,178444,2,0,L|242:147,1,125,10|0,0:0|0:0,0:0:0:0:
286,147,178944,2,0,P|304:209|288:277,1,125,10|0,0:0|0:0,0:0:0:0:
271,312,179444,1,2,0:0:0:0:
353,369,179778,1,2,0:0:0:0:
449,341,180111,6,0,P|452:280|455:200,1,125,6|0,0:0|0:0,0:0:0:0:
460,116,180778,1,8,0:0:0:0:
382,53,181111,2,0,P|343:53|310:60,1,62.5,0|0,0:0|0:0,0:0:0:0:
271,70,181444,2,0,B|232:48|232:48|131:60,1,125,0|8,0:0|0:0,0:0:0:0:
105,74,181944,2,0,P|82:129|97:206,1,125,0|0,0:0|0:0,0:0:0:0:
124,229,182444,2,0,L|119:305,1,62.5,2|0,0:0|0:0,0:0:0:0:
115,341,182778,5,4,0:0:0:0:
