osu file format v14

[General]
AudioFilename: audio.mp3
AudioLeadIn: 0
PreviewTime: 42264
Countdown: 0
SampleSet: Normal
StackLeniency: 0.7
Mode: 0
LetterboxInBreaks: 0
WidescreenStoryboard: 0

[Editor]
DistanceSpacing: 1.1
BeatDivisor: 4
GridSize: 4
TimelineZoom: 0.9999998

[Metadata]
Title:DREAMCATCHER (TV Size)
TitleUnicode:DREAMCATCHER (TV Size)
Artist:nano
ArtistUnicode:ナノ
Creator:Senko-san
Version:Normal
Source:魔法少女育成計画
Tags:Magical Girl Raising Project Mahou Shoujo Ikusei Keikaku ED Ending Snow White Ripple Kocari Winnie Crowie HPK Hiicantpk
BeatmapID:1193410
BeatmapSetID:537022

[Difficulty]
HPDrainRate:3
CircleSize:3.5
OverallDifficulty:4
ApproachRate:5
SliderMultiplier:1
SliderTickRate:1

[Events]
//Background and Video events
0,0,"BG.jpg",0,0
//Break Periods
//Storyboard Layer 0 (Background)
//Storyboard Layer 1 (Fail)
//Storyboard Layer 2 (Pass)
//Storyboard Layer 3 (Foreground)
//Storyboard Layer 4 (Overlay)
//Storyboard Sound Samples

[TimingPoints]
598,333.333333333333,4,2,1,20,1,0
598,-133.333333333333,4,2,1,20,0,0
21931,-120.481927710843,4,1,1,45,0,0
32597,-111.111111111111,4,1,1,45,0,0
41764,-100,4,1,1,45,0,0
42264,-100,4,1,1,5,0,0
42598,-100,4,1,1,45,0,0
43264,-100,4,1,1,65,0,1
63264,-100,4,1,1,55,0,0
64597,-100,4,1,1,65,0,1
85931,-100,4,1,1,55,0,0
88264,-100,4,1,1,5,0,0

[Colours]
Combo1 : 200,214,199
Combo2 : 248,215,205
Combo3 : 192,197,233
Combo4 : 233,233,233

[HitObjects]
285,80,598,6,0,P|312:98|332:142,1,75.0000028610231,2|0,0:0|0:0,0:0:0:0:
335,175,1097,2,0,L|329:260,1,75.0000028610231,2|0,0:0|0:0,0:0:0:0:
317,331,1764,2,0,P|229:350|140:219,1,262.500010013581,2|0,0:0|0:0,0:0:0:0:
148,142,3264,2,0,P|183:124|224:124,1,75.0000028610231,2|0,0:0|0:0,0:0:0:0:
258,129,3764,2,0,L|343:140,1,75.0000028610231,2|0,0:0|0:0,0:0:0:0:
413,153,4431,2,0,P|441:203|350:277,1,187.500007152558,2|0,0:0|0:0,0:0:0:0:
280,134,5931,6,0,P|246:118|209:119,1,75.0000028610231,2|0,0:0|0:0,0:0:0:0:
169,129,6431,2,0,L|77:150,1,75.0000028610231,2|0,0:0|0:0,0:0:0:0:
16,168,7097,2,0,P|21:211|212:246,1,262.500010013581,2|0,0:0|0:0,0:0:0:0:
261,205,8597,2,0,P|302:186|346:191,1,75.0000028610231,2|0,0:0|0:0,0:0:0:0:
371,197,9097,2,0,L|451:225,1,75.0000028610231,2|0,0:0|0:0,0:0:0:0:
511,265,9764,2,0,P|473:297|411:297,1,112.500004291535,2|0,0:0|0:0,0:0:0:0:
334,268,10597,1,0,0:0:0:0:
271,322,10931,1,0,0:0:0:0:
255,241,11264,6,0,L|231:141,2,75.0000028610231,4|0|0,0:0|0:0|0:0,0:0:0:0:
144,363,12597,2,0,P|106:329|122:217,1,150.000005722046,2|0,0:0|0:0,0:0:0:0:
225,271,13764,2,0,P|268:236|283:183,1,112.500004291535,4|0,0:0|0:0,0:0:0:0:
275,100,14597,1,0,0:0:0:0:
372,23,15097,2,0,P|425:38|460:81,1,112.500004291535,2|0,0:0|0:0,0:0:0:0:
474,120,15764,2,0,L|467:266,1,112.500004291535,2|0,0:0|0:0,0:0:0:0:
458,314,16597,6,0,L|367:345,2,75.0000028610231,4|0|0,0:0|0:0|0:0,0:0:0:0:
398,256,17597,1,0,0:0:0:0:
340,197,17931,2,0,L|249:228,1,75.0000028610231,2|0,0:0|0:0,0:0:0:0:
188,238,18597,2,0,L|163:190,1,37.5000014305115,0|0,0:0|0:0,0:0:0:0:
135,129,19097,2,0,P|178:144|264:111,1,112.500004291535,4|0,0:0|0:0,0:0:0:0:
308,80,19931,2,0,L|391:98,1,75.0000028610231,0|0,0:0|0:0,0:0:0:0:
420,107,20431,2,0,P|422:146|362:246,1,150.000005722046,2|2,0:0|0:0,0:0:0:0:
162,335,21931,5,4,0:0:0:0:
79,296,22264,2,0,P|56:261|51:220,1,83.0000012031555,0|0,0:0|0:0,0:0:0:0:
67,130,22931,1,0,0:0:0:0:
156,115,23264,2,0,P|158:170|122:246,2,124.500001804733,2|2|0,0:0|0:0|0:0,0:0:0:0:
145,70,24431,6,0,P|201:94|263:93,1,124.500001804733,2|0,0:0|0:0,0:0:0:0:
317,19,25264,1,0,0:0:0:0:
390,82,25597,1,0,0:0:0:0:
390,82,25764,2,0,L|337:146,1,83.0000012031555,2|0,0:0|0:0,0:0:0:0:
269,208,26431,1,0,0:0:0:0:
269,208,26597,2,0,P|210:208|168:175,1,83.0000012031555,2|0,0:0|0:0,0:0:0:0:
100,216,27264,5,4,0:0:0:0:
89,308,27597,2,0,P|107:343|142:367,1,83.0000012031555,0|0,0:0|0:0,0:0:0:0:
231,384,28264,1,0,0:0:0:0:
304,329,28597,2,0,P|300:287|279:251,1,83.0000012031555,2|0,0:0|0:0,0:0:0:0:
246,221,29097,2,0,P|210:242|169:247,1,83.0000012031555,2|0,0:0|0:0,0:0:0:0:
84,219,29764,6,0,P|123:172|188:159,1,124.500001804733,2|0,0:0|0:0,0:0:0:0:
271,133,30597,1,0,0:0:0:0:
337,71,30931,1,0,0:0:0:0:
337,71,31097,2,0,L|401:161,1,83.0000012031555,2|0,0:0|0:0,0:0:0:0:
378,279,31931,2,0,P|341:248|330:189,1,83.0000012031555,2|0,0:0|0:0,0:0:0:0:
242,163,32597,6,0,L|214:256,1,89.9999972534181,0|0,0:0|0:0,0:0:0:0:
175,339,33264,2,0,P|124:326|82:239,1,134.999995880127,0|0,0:0|0:0,0:0:0:0:
78,209,33931,2,0,L|96:105,1,89.9999972534181,2|0,3:2|0:0,0:0:0:0:
165,53,34597,2,0,P|189:99|186:152,1,89.9999972534181,0|0,0:0|0:0,0:0:0:0:
177,234,35264,6,0,L|248:300,1,89.9999972534181,4|0,3:2|0:0,0:0:0:0:
324,350,35931,2,0,P|388:323|430:247,1,134.999995880127,0|0,0:0|0:0,0:0:0:0:
437,222,36598,2,0,L|410:113,1,89.9999972534181,2|0,3:2|0:0,0:0:0:0:
366,48,37264,2,0,P|332:77|316:118,1,89.9999972534181,0|0,0:0|0:0,0:0:0:0:
296,216,37931,6,0,P|257:255|190:269,1,89.9999972534181,4|0,0:0|0:0,0:0:0:0:
126,268,38597,1,0,0:0:0:0:
52,201,38931,1,0,0:0:0:0:
73,104,39264,6,0,P|120:131|189:127,1,89.9999972534181,4|0,0:0|0:0,0:0:0:0:
250,110,39930,1,0,0:0:0:0:
304,31,40264,1,0,0:0:0:0:
391,76,40597,6,0,P|401:140|362:193,1,134.999995880127,0|0,0:0|0:0,0:0:0:0:
319,217,41264,1,0,0:0:0:0:
162,270,41764,2,0,B|109:266|72:231|72:231|119:204|132:175,1,150,0|0,0:0|0:0,0:0:0:0:
167,106,42597,1,2,0:0:0:0:
377,42,43264,5,4,0:1:0:0:
377,42,43431,2,0,P|412:99|397:169,1,100,0|0,0:0|0:0,0:0:0:0:
371,232,44097,2,0,L|313:251,2,50,0|0|2,0:0|0:0|0:0,0:0:0:0:
288,158,44764,2,0,P|233:142|165:151,1,100,0|0,0:0|0:0,0:0:0:0:
136,151,45264,2,0,L|143:266,1,100,0|0,0:0|0:0,0:0:0:0:
193,354,45931,5,0,0:0:0:0:
193,354,46097,2,0,P|250:316|288:254,1,100,0|0,0:0|0:0,0:0:0:0:
334,202,46764,2,0,L|391:147,2,50,0|0|0,0:0|0:0|0:0,0:0:0:0:
225,184,47431,2,0,P|176:152|138:59,1,150,0|2,0:0|0:2,0:0:0:0:
248,76,48264,1,2,0:2:0:0:
347,29,48597,5,4,0:0:0:0:
347,29,48764,2,0,P|412:50|444:96,1,100,0|0,0:0|0:0,0:0:0:0:
475,173,49431,2,0,L|406:192,2,50,0|0|2,0:0|0:0|0:0,0:0:0:0:
417,266,50097,2,0,P|366:267|294:219,1,100,0|0,0:0|0:0,0:0:0:0:
277,214,50597,2,0,L|259:152,2,50,0|0|0,0:0|0:0|0:0,0:0:0:0:
167,198,51264,5,0,0:0:0:0:
167,198,51431,2,0,P|158:149|177:104,1,100,0|0,0:0|0:0,0:0:0:0:
287,95,52097,2,0,L|338:47,2,50,0|0|0,0:0|0:0|0:0,0:0:0:0:
303,204,52764,2,0,P|323:254|361:295,1,100,0|0,0:0|0:0,0:0:0:0:
407,295,53264,2,0,L|457:257,2,50,0|0|0,3:0|3:0|3:0,0:0:0:0:
303,329,53931,6,0,P|237:337|164:300,1,150,4|0,0:0|0:0,0:0:0:0:
129,258,54597,2,0,L|113:155,1,100,2|0,0:0|0:0,0:0:0:0:
111,104,55097,2,0,P|152:54|230:77,1,150,2|0,0:0|0:0,0:0:0:0:
298,156,55931,1,0,3:0:0:0:
225,237,56264,1,0,3:0:0:0:
330,270,56597,6,0,P|388:266|448:191,1,150,2|0,0:0|0:0,0:0:0:0:
450,146,57264,2,0,L|394:63,1,100,2|0,0:0|0:0,0:0:0:0:
358,21,57764,2,0,P|294:60|212:41,1,150,2|0,0:0|0:0,0:0:0:0:
119,12,58597,2,0,L|53:48,2,50,0|0|0,3:0|0:0|3:0,0:0:0:0:
145,119,59264,6,0,P|177:156|222:176,1,100,4|0,0:0|0:0,0:0:0:0:
268,165,59764,2,0,P|324:160|373:182,1,100,4|0,0:0|0:0,0:0:0:0:
413,185,60264,2,0,P|428:138|422:88,2,100,4|0|0,0:0|0:0|0:0,0:0:0:0:
355,266,61264,5,0,3:0:0:0:
254,309,61597,2,0,B|198:305|155:322|155:322|165:238|270:251|269:138,1,300,0|0,0:0|0:0,0:0:0:0:
266,54,62931,1,0,0:0:0:0:
160,82,63264,6,0,L|75:153,1,100,2|0,0:0|0:0,0:0:0:0:
0,219,63931,2,0,P|47:270|92:297,1,100,2|0,0:0|0:0,0:0:0:0:
147,366,64597,5,4,0:1:0:0:
147,366,64764,2,0,P|178:297|168:243,1,100,0|0,0:0|0:0,0:0:0:0:
146,168,65431,1,0,0:0:0:0:
146,168,65597,2,0,P|182:103|288:61,1,150,0|0,0:0|0:0,0:0:0:0:
355,51,66431,1,0,0:0:0:0:
355,51,66597,2,0,P|397:103|386:167,1,100,0|0,0:0|0:0,0:0:0:0:
389,243,67264,5,0,0:0:0:0:
389,243,67431,2,0,L|268:299,1,100,0|0,0:0|0:0,0:0:0:0:
198,330,68097,2,0,L|122:320,2,50,0|0|0,0:0|0:0|0:0,0:0:0:0:
138,236,68764,2,0,P|98:197|78:103,1,150,0|2,0:0|0:0,0:0:0:0:
184,134,69597,1,2,0:0:0:0:
237,230,69931,5,4,0:0:0:0:
237,230,70097,2,0,P|304:205|347:161,1,100,0|0,0:0|0:0,0:0:0:0:
435,179,70764,2,0,L|463:240,2,50,0|2|0,0:0|0:0|0:0,0:0:0:0:
394,281,71431,2,0,P|365:326|307:351,1,100
271,358,71931,2,0,L|243:297,2,50,0|2|0,0:0|0:0|0:0,0:0:0:0:
161,355,72597,5,0,0:0:0:0:
161,355,72764,2,0,P|161:304|148:257,1,100,0|0,0:0|0:0,0:0:0:0:
83,181,73431,1,0,0:0:0:0:
83,181,73597,2,0,P|153:190|225:140,1,150,0|0,0:0|0:0,0:0:0:0:
332,45,74597,2,0,L|313:115,2,50,0|0|0,3:0|3:0|3:0,0:0:0:0:
419,118,75264,6,0,P|436:188|391:254,1,150,4|0,0:0|0:0,0:0:0:0:
349,280,75931,2,0,L|246:255,1,100,2|0,0:0|0:0,0:0:0:0:
198,241,76431,2,0,P|249:189|246:117,1,150,2|0,0:0|0:0,0:0:0:0:
176,32,77264,1,0,3:0:0:0:
78,82,77597,1,0,3:0:0:0:
28,180,77931,6,0,P|42:240|111:315,1,150,2|0,0:0|0:0,0:0:0:0:
149,324,78597,2,0,L|282:289,1,100,2|0,0:0|0:0,0:0:0:0:
297,280,79097,2,0,P|243:225|242:138,1,150,0|0,0:0|0:0,0:0:0:0:
344,181,79931,2,0,L|407:188,2,50,0|0|0,3:0|3:0|3:0,0:0:0:0:
413,95,80597,6,0,P|368:53|308:46,1,100,4|0,0:0|0:0,0:0:0:0:
277,55,81097,2,0,P|228:65|181:51,1,100,4|0,0:0|0:0,0:0:0:0:
132,25,81597,1,4,0:0:0:0:
27,59,81931,2,0,L|7:200,2,100,0|0|0,0:0|0:0|3:0,0:0:0:0:
109,132,82931,6,0,B|101:187|78:227|78:227|162:231|168:125|279:146,1,300,2|0,0:0|0:0,0:0:0:0:
358,175,84264,1,2,0:0:0:0:
462,208,84597,6,0,P|454:155|480:102,1,100,4|0,0:0|0:0,0:0:0:0:
500,66,85097,2,0,P|408:98|323:76,1,150,0|2,0:0|0:0,0:0:0:0:
256,192,85931,12,2,88264,0:0:0:0:
