osu file format v14

[General]
AudioFilename: audio.mp3
AudioLeadIn: 0
PreviewTime: 42264
Countdown: 0
SampleSet: Normal
StackLeniency: 0.5
Mode: 0
LetterboxInBreaks: 0
WidescreenStoryboard: 0

[Editor]
DistanceSpacing: 1.3
BeatDivisor: 4
GridSize: 4
TimelineZoom: 1.8

[Metadata]
Title:DREAMCATCHER (TV Size)
TitleUnicode:DREAMCATCHER (TV Size)
Artist:nano
ArtistUnicode:ナノ
Creator:Senko-san
Version:Advanced
Source:魔法少女育成計画
Tags:Magical Girl Raising Project Mahou Shoujo Ikusei Keikaku ED Ending Snow White Ripple Kocari Winnie Crowie HPK Hiicantpk
BeatmapID:1207810
BeatmapSetID:537022

[Difficulty]
HPDrainRate:4
CircleSize:4
OverallDifficulty:5.5
ApproachRate:7
SliderMultiplier:1.3
SliderTickRate:1

[Events]
//Background and Video events
0,0,"BG.jpg",0,0
//Break Periods
//Storyboard Layer 0 (Background)
//Storyboard Layer 1 (Fail)
//Storyboard Layer 2 (Pass)
//Storyboard Layer 3 (Foreground)
//Storyboard Layer 4 (Overlay)
//Storyboard Sound Samples

[TimingPoints]
598,333.333333333333,4,2,1,20,1,0
598,-125,4,2,1,20,0,0
11264,-111.111111111111,4,2,1,20,0,0
21931,-100,4,1,1,45,0,0
32597,-100,4,1,1,45,0,0
43264,-90.9090909090909,4,1,1,65,0,1
63264,-100,4,1,1,55,0,0
64597,-90.9090909090909,4,1,1,65,0,1
85931,-100,4,1,1,55,0,0
88264,-100,4,1,1,5,0,0

[Colours]
Combo1 : 200,214,199
Combo2 : 248,215,205
Combo3 : 192,197,233
Combo4 : 233,233,233

[HitObjects]
98,48,598,6,0,P|76:88|68:166,1,104,2|0,0:0|0:0,0:0:0:0:
72,217,1097,2,0,L|197:186,1,104,2|0,0:0|0:0,0:0:0:0:
316,166,1764,2,0,P|388:295|256:249,1,364,2|0,0:0|0:0,0:0:0:0:
242,112,3264,6,0,P|280:86|344:80,1,104,2|0,0:0|0:0,0:0:0:0:
408,91,3764,2,0,P|444:92|521:59,1,104,2|0,0:0|0:0,0:0:0:0:
491,213,4431,2,0,B|482:317|482:317|464:290|424:281,1,156,2|0,0:0|0:0,0:0:0:0:
298,273,5264,2,0,L|243:290,1,52,0|0,0:0|0:0,0:0:0:0:
180,260,5597,2,0,L|125:243,1,52,0|0,0:0|0:0,0:0:0:0:
210,193,5931,6,0,P|227:142|221:73,1,104,2|0,0:0|0:0,0:0:0:0:
200,23,6431,2,0,L|93:38,1,104,2|0,0:0|0:0,0:0:0:0:
23,163,7097,2,0,P|98:289|124:152,1,364,2|0,0:0|0:0,0:0:0:0:
254,236,8597,6,0,P|313:253|370:246,1,104,2|0,0:0|0:0,0:0:0:0:
426,234,9097,2,0,P|409:175|416:118,1,104,2|0,0:0|0:0,0:0:0:0:
333,9,9764,2,0,B|297:106|297:106|286:75|250:56,1,156,2|0,0:0|0:0,0:0:0:0:
124,27,10597,2,0,L|108:100,1,52,0|0,0:0|0:0,0:0:0:0:
159,134,10931,2,0,L|175:207,1,52,0|0,0:0|0:0,0:0:0:0:
196,271,11264,5,4,0:0:0:0:
268,299,11431,1,0,0:0:0:0:
264,221,11597,2,0,P|278:175|348:126,2,116.999996429443
268,299,12431,1,0,0:0:0:0:
340,269,12597,2,0,P|386:258|464:294,2,116.999996429443,2|0|0,0:0|0:0|0:0,0:0:0:0:
106,246,13764,6,0,P|118:196|171:136,1,116.999996429443,4|0,0:0|0:0,0:0:0:0:
227,114,14264,1,0,0:0:0:0:
217,191,14431,1,0,0:0:0:0:
208,268,14597,2,0,L|236:342,2,58.4999982147217
281,240,15097,2,0,P|330:211|354:159,1,116.999996429443,2|0,0:0|0:0,0:0:0:0:
348,83,15597,1,0,0:0:0:0:
348,83,15764,2,0,B|283:103|283:103|221:111,1,116.999996429443,2|0,0:0|0:0,0:0:0:0:
15,170,16597,5,4,0:0:0:0:
57,237,16764,1,0,0:0:0:0:
93,168,16931,2,0,P|93:108|48:40,2,116.999996429443
57,237,17764,1,0,0:0:0:0:
134,231,17931,2,0,P|185:201|222:128,2,116.999996429443,2|0|0,0:0|0:0|0:0,0:0:0:0:
350,320,19097,6,0,P|371:280|364:190,1,116.999996429443,4|0,0:0|0:0,0:0:0:0:
324,149,19597,1,0,0:0:0:0:
253,119,19764,1,0,0:0:0:0:
177,111,19931,2,0,L|117:50,2,58.4999982147217
208,180,20431,2,0,P|201:218|244:298,1,116.999996429443,2|0,0:0|0:0,0:0:0:0:
299,322,20931,1,0,0:0:0:0:
299,322,21097,2,0,B|326:257|326:257|356:203,1,116.999996429443,2|0,0:0|0:0,0:0:0:0:
158,47,21931,6,0,P|134:106|73:153,1,130,4|0,0:0|0:0,0:0:0:0:
11,176,22431,1,0,0:0:0:0:
74,221,22597,2,0,B|140:254|140:254|201:267,1,130,0|0,0:0|0:0,0:0:0:0:
335,197,23264,2,0,L|395:132,2,65,2|0|0,0:0|0:0|0:0,0:0:0:0:
271,242,23764,2,0,P|233:197|210:127,1,130,2|0,0:0|0:0,0:0:0:0:
317,16,24431,6,0,P|375:20|441:54,1,130,2|0,0:0|0:0,0:0:0:0:
481,117,24931,2,0,L|506:201,2,65,0|0|0,0:0|0:0|0:0,0:0:0:0:
410,256,25597,1,0,0:0:0:0:
410,256,25764,2,0,P|343:243|257:258,2,130,2|0|0,0:0|0:0|0:0,0:0:0:0:
431,331,26597,2,0,L|347:353,1,65,2|0,0:0|0:0,0:0:0:0:
289,346,26931,1,0,0:0:0:0:
161,256,27264,5,4,0:0:0:0:
161,177,27431,1,0,0:0:0:0:
228,215,27597,2,0,L|298:259,2,65,0|0|0,0:0|0:0|0:0,0:0:0:0:
71,219,28264,2,0,L|15:184,1,65,0|0,0:0|0:0,0:0:0:0:
74,132,28597,2,0,L|129:97,2,65,2|0|0,0:0|0:0|0:0,0:0:0:0:
12,83,29097,2,0,P|45:44|131:25,1,130,2|0,0:0|0:0,0:0:0:0:
240,122,29764,6,0,P|261:171|329:231,1,130,2|0,0:0|0:0,0:0:0:0:
386,255,30264,2,0,L|447:224,2,65,0|0|0,0:0|0:0|0:0,0:0:0:0:
241,315,30931,1,0,0:0:0:0:
241,315,31097,2,0,P|171:293|107:310,1,130,2|0,0:0|0:0,0:0:0:0:
19,187,31764,1,0,0:0:0:0:
19,187,31931,2,0,L|2:99,2,65,2|0|0,0:0|0:0|0:0,0:0:0:0:
172,158,32597,6,0,L|260:141,2,65,0|0|0,0:0|0:0|0:0,0:0:0:0:
280,45,33264,1,0,0:0:0:0:
338,96,33431,1,0,0:0:0:0:
272,237,33764,1,0,0:0:0:0:
272,237,33931,6,0,P|317:269|408:249,1,130,2|0,3:2|0:0,0:0:0:0:
451,216,34431,1,0,0:0:0:0:
467,133,34597,2,0,P|396:148|336:133,1,130,0|0,0:0|0:0,0:0:0:0:
202,63,35264,6,0,L|114:80,2,65,4|0|0,3:2|0:0|0:0,0:0:0:0:
94,176,35931,1,0,0:0:0:0:
36,125,36098,1,0,0:0:0:0:
188,157,36431,1,0,0:0:0:0:
188,157,36597,6,0,P|212:206|212:292,1,130,2|0,3:2|0:0,0:0:0:0:
235,355,37097,1,0,0:0:0:0:
290,300,37264,2,0,L|371:282,2,65,0|0|0,0:0|0:0|0:0,0:0:0:0:
134,284,37931,6,0,B|81:225|81:225|46:160,1,130,4|0,0:0|0:0,0:0:0:0:
28,27,38597,1,0,0:0:0:0:
102,49,38764,1,0,0:0:0:0:
176,71,38931,2,0,P|208:72|248:60,1,65,0|0,0:0|0:0,0:0:0:0:
313,37,39264,6,0,B|366:96|366:96|401:161,1,130,4|0,0:0|0:0,0:0:0:0:
432,290,39931,1,0,0:0:0:0:
366,330,40098,1,0,0:0:0:0:
300,370,40265,2,0,P|269:379|227:378,1,65,0|0,0:0|0:0,0:0:0:0:
163,354,40597,6,0,L|151:208,1,130,0|0,0:0|0:0,0:0:0:0:
17,116,41264,2,0,P|37:90|60:67,2,65,0|0|0,0:0|0:0|0:0,0:0:0:0:
8,207,41764,2,0,B|50:265|50:265|62:189|103:145,1,195,0|0,0:0|0:0,0:0:0:0:
164,307,42597,2,0,P|214:288|255:217,1,130,2|0,0:0|0:0,0:0:0:0:
288,46,43264,5,4,0:1:0:0:
288,46,43431,2,0,B|311:84|334:100|334:100|295:135|286:177,1,143.000004364014,0|0,0:0|0:0,0:0:0:0:
434,224,44097,2,0,L|491:266,1,71.5000021820069,0|0,0:0|0:0,0:0:0:0:
381,283,44431,6,0,P|330:307|232:300,1,143.000004364014,2|0,0:0|0:0,0:0:0:0:
172,272,44931,2,0,L|114:229,2,71.5000021820069,2|0|0,0:0|0:0|0:0,0:0:0:0:
275,154,45597,1,0,0:0:0:0:
275,154,45764,6,0,P|209:136|149:78,1,143.000004364014,0|0,0:0|0:0,0:0:0:0:
118,16,46264,2,0,P|82:54|76:95,1,71.5000021820069,2|0,0:0|0:0,0:0:0:0:
66,228,46764,2,0,L|124:269,2,71.5000021820069,0|0|0,0:0|0:0|0:0,0:0:0:0:
222,242,47431,5,0,0:0:0:0:
222,242,47597,2,0,L|280:283,1,71.5000021820069,0|0,0:0|0:0,0:0:0:0:
352,316,47931,2,0,P|429:271|460:200,1,143.000004364014,2|2,0:2|0:2,0:0:0:0:
474,70,48597,5,4,0:0:0:0:
474,70,48764,2,0,B|436:47|420:24|420:24|385:63|343:72,1,143.000004364014,0|0,0:0|0:0,0:0:0:0:
210,25,49431,2,0,L|121:54,1,71.5000021820069,0|0,0:0|0:0,0:0:0:0:
66,71,49764,6,0,P|112:142|130:232,1,143.000004364014,2|0,0:0|0:0,0:0:0:0:
284,223,50431,2,0,L|346:178,2,71.5000021820069,0|0|0,0:0|0:0|0:0,0:0:0:0:
217,265,50931,1,0,0:0:0:0:
81,185,51264,6,0,P|49:137|15:117,1,71.5000021820069,0|0,0:0|0:0,0:0:0:0:
195,112,51764,2,0,P|242:120|340:102,1,143.000004364014,0|0,0:0|0:0,0:0:0:0:
410,82,52264,2,0,P|408:134|383:167,1,71.5000021820069,0|0,0:0|0:0,0:0:0:0:
316,283,52764,6,0,P|270:248|169:219,1,143.000004364014,0|0,0:0|0:0,0:0:0:0:
111,229,53264,2,0,L|56:243,2,35.7500010910034,0|0|0,3:0|0:0|3:0,0:0:0:0:
142,301,53597,2,0,L|101:340,2,35.7500010910034,0|0|0,3:0|0:0|3:0,0:0:0:0:
234,327,53931,6,0,P|283:343|376:292,1,143.000004364014,4|0,0:0|0:0,0:0:0:0:
402,243,54431,1,0,0:0:0:0:
402,243,54597,2,0,B|407:182|407:182|368:152|364:89,1,143.000004364014,2|0,0:0|0:0,0:0:0:0:
375,34,55097,1,2,0:0:0:0:
169,149,55597,5,0,0:0:0:0:
169,149,55764,1,0,0:0:0:0:
169,149,55931,2,0,L|113:224,2,71.5000021820069,0|0|0,3:0|0:0|3:0,0:0:0:0:
318,197,56597,6,0,P|312:259|254:322,1,143.000004364014,2|0,0:0|0:0,0:0:0:0:
183,333,57097,1,0,0:0:0:0:
183,333,57264,2,0,B|104:307|104:307|131:286|147:253,1,143.000004364014,2|0,0:0|0:0,0:0:0:0:
189,198,57764,2,0,P|192:151|144:57,1,143.000004364014,2|0,0:0|0:0,0:0:0:0:
292,139,58431,5,0,0:0:0:0:
292,139,58597,2,0,L|352:211,2,71.5000021820069,0|0|0,3:0|0:0|3:0,0:0:0:0:
178,247,59264,6,0,L|224:310,2,71.5000021820069,4|0|0,0:0|0:0|0:0,0:0:0:0:
112,202,59764,2,0,L|99:279,2,71.5000021820069,4|0|0,0:0|0:0|0:0,0:0:0:0:
97,124,60264,2,0,L|33:170,2,71.5000021820069,4|0|0,0:0|0:0|0:0,0:0:0:0:
163,82,60764,6,0,P|222:66|319:108,1,143.000004364014,0|0,0:0|0:0,0:0:0:0:
355,144,61264,2,0,L|410:220,2,71.5000021820069,0|0|0,3:0|0:0|0:0,0:0:0:0:
304,204,61764,1,0,0:0:0:0:
274,279,61931,6,0,B|205:312|150:286|150:286|158:240|130:185,1,214.500006546021,2|0,0:0|0:0,0:0:0:0:
104,131,62597,1,0,0:0:0:0:
230,37,62931,1,0,0:0:0:0:
230,37,63097,1,0,0:0:0:0:
230,37,63264,6,0,P|278:96|396:133,1,195,2|0,0:0|0:0,0:0:0:0:
459,136,63931,2,0,B|484:265|484:265|447:229|412:223,1,195,2|0,0:0|0:0,0:0:0:0:
354,237,64597,5,4,0:1:0:0:
354,237,64764,2,0,B|315:258|287:260|287:260|303:310|290:351,1,143.000004364014,0|0,0:0|0:0,0:0:0:0:
138,308,65431,2,0,L|144:379,1,71.5000021820069,0|0,0:0|0:0,0:0:0:0:
52,316,65764,6,0,P|66:267|46:179,1,143.000004364014,2|0,0:0|0:0,0:0:0:0:
8,109,66264,2,0,L|24:30,2,71.5000021820069,2|0|0,0:0|0:0|0:0,0:0:0:0:
151,44,66931,1,0,0:0:0:0:
151,44,67097,6,0,P|186:104|269:132,1,143.000004364014,2|0,0:0|0:0,0:0:0:0:
329,123,67597,2,0,P|314:84|285:62,1,71.5000021820069,2|0,0:0|0:0,0:0:0:0:
449,62,68097,2,0,L|510:13,2,71.5000021820069,0|0|0,0:0|0:0|0:0,0:0:0:0:
326,160,68764,5,0,0:0:0:0:
326,160,68931,2,0,L|270:204,1,71.5000021820069,0|0,0:0|0:0,0:0:0:0:
206,251,69264,2,0,P|155:269|62:249,1,143.000004364014,2|2,0:0|0:0,0:0:0:0:
134,109,69931,5,4,0:0:0:0:
134,109,70098,2,0,B|172:86|188:63|188:63|223:102|265:111,1,143.000004364014,0|0,0:0|0:0,0:0:0:0:
401,122,70764,2,0,L|491:75,1,71.5000021820069,0|0,0:0|0:0,0:0:0:0:
510,152,71097,6,0,P|483:249|495:287,1,143.000004364014,2|0,0:0|0:0,0:0:0:0:
337,302,71764,2,0,L|275:257,2,71.5000021820069,0|0|0,0:0|0:0|0:0,0:0:0:0:
404,344,72264,1,0,0:0:0:0:
373,189,72597,6,0,P|344:153|290:138,1,71.5000021820069,0|0,0:0|0:0,0:0:0:0:
178,207,73097,2,0,P|143:239|44:250,1,143.000004364014,0|0,0:0|0:0,0:0:0:0:
4,188,73597,2,0,P|25:149|26:106,1,71.5000021820069,0|0,0:0|0:0,0:0:0:0:
184,103,74097,6,0,P|239:118|338:91,1,143.000004364014,0|0,0:0|0:0,0:0:0:0:
385,54,74597,2,0,L|420:22,2,35.7500010910034,0|0|0,3:0|0:0|3:0,0:0:0:0:
448,102,74931,2,0,L|494:91,2,35.7500010910034,0|0|0,3:0|0:0|3:0,0:0:0:0:
453,195,75264,6,0,P|446:243|362:306,1,143.000004364014,4|0,0:0|0:0,0:0:0:0:
299,311,75764,1,0,0:0:0:0:
299,311,75931,2,0,B|212:303|212:303|244:267|241:226,1,143.000004364014,2|0,0:0|0:0,0:0:0:0:
246,176,76431,1,2,0:0:0:0:
412,68,76931,5,0,0:0:0:0:
412,68,77098,1,0,0:0:0:0:
412,68,77264,2,0,L|489:133,2,71.5000021820069,0|0|0,3:0|0:0|3:0,0:0:0:0:
257,97,77931,6,0,P|189:117|114:113,1,143.000004364014,2|0,0:0|0:0,0:0:0:0:
41,93,78431,1,0,0:0:0:0:
41,93,78597,2,0,B|28:136|39:174|39:174|54:213|45:261,1,143.000004364014,2|0,0:0|0:0,0:0:0:0:
38,310,79097,1,0,0:0:0:0:
189,353,79431,5,0,0:0:0:0:
189,353,79597,2,0,L|243:306,1,71.5000021820069,0|0,0:0|0:0,0:0:0:0:
306,258,79931,2,0,P|326:288|352:312,2,71.5000021820069,0|0|0,3:0|3:0|3:0,0:0:0:0:
427,158,80597,6,0,P|462:165|498:164,2,71.5000021820069,4|0|0,0:0|0:0|0:0,0:0:0:0:
363,111,81097,2,0,P|393:91|417:64,2,71.5000021820069,4|0|0,0:0|0:0|0:0,0:0:0:0:
285,123,81597,2,0,P|292:87|291:51,2,71.5000021820069,4|0|0,0:0|0:0|0:0,0:0:0:0:
250,193,82097,6,0,P|210:241|128:282,1,143.000004364014,0|0,0:0|0:0,0:0:0:0:
62,292,82597,2,0,P|74:241|61:193,2,71.5000021820069,0|0|2,3:0|0:0|0:0,0:0:0:0:
0,243,83097,1,0,0:0:0:0:
20,166,83264,6,0,P|62:140|163:130,1,143.000004364014,0|0,0:0|0:0,0:0:0:0:
231,140,83764,1,0,0:0:0:0:
231,140,83931,2,0,P|301:135|364:102,1,143.000004364014,0|2,0:0|0:0,0:0:0:0:
418,44,84431,1,0,0:0:0:0:
468,113,84597,6,0,P|460:158|386:242,1,143.000004364014,4|0,0:0|0:0,0:0:0:0:
331,268,85097,2,0,B|277:300|277:300|257:322|257:322|207:347,2,143.000004364014,0|0|0,0:0|0:0|0:0,0:0:0:0:
342,196,85931,1,4,0:0:0:0:
256,192,86014,12,2,88264,0:0:0:0:
