osu file format v14

[General]
AudioFilename: TVAAPV2.mp3
AudioLeadIn: 0
PreviewTime: 47942
Countdown: 0
SampleSet: Soft
StackLeniency: 0.3
Mode: 0
LetterboxInBreaks: 0
WidescreenStoryboard: 1

[Editor]
Bookmarks: 28145,37891,47942,57384
DistanceSpacing: 1.8
BeatDivisor: 4
GridSize: 8
TimelineZoom: 2.3

[Metadata]
Title:Bull's Eye (TV Size)
TitleUnicode:Bull's Eye (TV Size)
Artist:nano
ArtistUnicode:ナノ
Creator:Nevo
Version:killian's Extra (feat. Froskya)
Source:緋弾のアリアAA
Tags:Aria the Scarlet Ammo Double A AT-X opening xchorse kyouren ascended froskya kittyadventure gokugohan12468 killian japanese rock jrock j-rock bulls Anxient revialink hidan no aria WEST GROUND
BeatmapID:4380162
BeatmapSetID:2085359

[Difficulty]
HPDrainRate:6
CircleSize:4
OverallDifficulty:9
ApproachRate:9.2
SliderMultiplier:1.7
SliderTickRate:1

[Events]
//Background and Video events
0,0,"693870.jpg",0,0
Video,-30,"aa.avi"
//Break Periods
//Storyboard Layer 0 (Background)
//Storyboard Layer 1 (Fail)
//Storyboard Layer 2 (Pass)
//Storyboard Layer 3 (Foreground)
//Storyboard Layer 4 (Overlay)
//Storyboard Sound Samples

[TimingPoints]
554,312.5,6,2,0,35,1,0
554,-153.846153846154,6,2,0,35,0,0
2429,-133.333333333333,6,2,0,35,0,0
4304,-117.647058823529,6,2,0,45,0,0
6179,-117.647058823529,6,2,0,25,0,0
6257,-117.647058823529,6,2,0,5,0,0
6647,-117.647058823529,6,2,0,25,0,0
6725,-117.647058823529,6,2,0,5,0,0
7116,-117.647058823529,6,2,0,25,0,0
7194,-117.647058823529,6,2,0,5,0,0
7450,292.682926829268,4,2,0,60,1,0
7739,-100,4,2,0,60,0,0
7889,306.122448979592,4,2,0,60,1,0
7889,-100,4,2,0,70,0,0
8501,304.568527918782,4,2,0,60,1,0
8501,-100,4,2,0,80,0,0
8653,304.568527918782,4,2,0,60,1,0
28145,-166.666666666667,4,2,0,40,0,0
28449,-166.666666666667,4,2,0,40,0,0
28602,-166.666666666667,4,2,0,40,0,0
28754,-166.666666666667,4,2,0,40,0,0
28907,-166.666666666667,4,2,0,40,0,0
29059,-166.666666666667,4,2,0,40,0,0
29211,-166.666666666667,4,2,0,40,0,0
30886,-166.666666666667,4,2,0,40,0,0
31039,-166.666666666667,4,2,0,40,0,0
31191,-166.666666666667,4,2,0,40,0,0
31343,-166.666666666667,4,2,0,40,0,0
31495,-166.666666666667,4,2,0,40,0,0
31648,-166.666666666667,4,2,0,40,0,0
31800,-166.666666666667,4,2,0,40,0,0
31952,-166.666666666667,4,2,0,40,0,0
32409,-166.666666666667,4,2,0,40,0,0
32714,-166.666666666667,4,2,0,40,0,0
33322,-166.666666666667,4,2,0,40,0,0
33475,-166.666666666667,4,2,0,40,0,0
33627,-166.666666666667,4,2,0,40,0,0
33780,-166.666666666667,4,2,0,40,0,0
33932,-166.666666666667,4,2,0,40,0,0
34084,-166.666666666667,4,2,0,40,0,0
35378,-166.666666666667,4,2,0,40,0,0
35455,-166.666666666667,4,2,0,40,0,0
35759,-166.666666666667,4,2,0,40,0,0
35912,-166.666666666667,4,2,0,40,0,0
36673,-125,4,2,0,60,0,0
37739,-111.111111111111,4,2,0,70,0,0
47638,-90.9090909090909,4,2,0,80,0,0
57384,-133.333333333333,4,2,0,45,0,0
57460,-133.333333333333,4,2,0,45,0,0
57688,-133.333333333333,4,2,0,45,0,0
57764,-133.333333333333,4,2,0,45,0,0
57993,-133.333333333333,4,2,0,45,0,0
58069,-133.333333333333,4,2,0,45,0,0
58297,-133.333333333333,4,2,0,45,0,0
59287,-133.333333333333,4,2,0,45,0,0
59516,-133.333333333333,4,2,0,45,0,0
59592,-133.333333333333,4,2,0,45,0,0
59820,-133.333333333333,4,2,0,35,0,0
59896,-133.333333333333,4,2,0,5,0,0
60277,-133.333333333333,4,2,0,35,0,0
60353,-133.333333333333,4,2,0,5,0,0
60734,-133.333333333333,4,2,0,35,0,0
60810,-133.333333333333,4,2,0,5,0,0
61648,-133.333333333333,4,2,0,25,0,0
62104,-86.9565217391304,4,2,0,80,0,1
81597,-95.2380952380952,4,2,0,70,0,0

[Colours]
Combo1 : 215,191,100
Combo2 : 242,115,134
Combo3 : 238,163,87
Combo4 : 255,255,0
Combo5 : 127,127,127

[HitObjects]
430,18,554,6,0,P|457:12|492:1,2,55.2499974708558,2|2|2,0:0|0:0|0:0,0:0:0:0:
352,72,1022,2,0,P|324:66|289:55,2,55.2499974708558,2|2|2,0:0|0:0|0:0,0:0:0:0:
396,210,1491,2,0,P|397:183|393:145,1,55.2499974708558,2|2,0:0|0:0,0:0:0:0:
454,277,1804,2,0,P|468:254|483:219,1,55.2499974708558,2|2,0:0|0:0,0:0:0:0:
338,281,2116,2,0,P|325:257|302:226,1,55.2499974708558,2|2,0:0|0:0,0:0:0:0:
89,316,2429,6,0,L|77:382,1,63.7500024318696,2|2,0:0|0:0,0:0:0:0:
172,359,2741,1,2,0:0:0:0:
79,226,2897,2,0,L|27:182,1,63.7500024318696,2|2,0:0|0:0,0:0:0:0:
0,276,3209,1,2,0:0:0:0:
164,260,3366,2,0,L|227:237,1,63.7500024318696,2|2,0:0|0:0,0:0:0:0:
206,95,3679,2,0,L|146:116,1,63.7500024318696,2|2,0:0|0:0,0:0:0:0:
327,151,3991,1,2,0:0:0:0:
250,12,4147,1,2,0:0:0:0:
344,163,4304,6,0,P|354:197|360:233,1,72.2500013780594,2|0,0:0|0:0,0:0:0:0:
335,331,4616,1,2,0:0:0:0:
180,189,4772,2,0,P|169:223|163:259,1,72.2500013780594,2|0,0:0|0:0,0:0:0:0:
189,357,5084,1,2,0:0:0:0:
254,249,5241,1,2,0:0:0:0:
101,322,5397,1,2,0:0:0:0:
332,344,5554,2,0,P|366:333|402:326,1,72.2500013780594,2|0,0:0|0:0,0:0:0:0:
511,186,5866,2,0,P|475:192|440:202,1,72.2500013780594,2|0,0:0|0:0,0:0:0:0:
255,0,6179,5,2,0:1:0:0:
255,0,6647,5,2,0:1:0:0:
255,0,7116,5,2,0:1:0:0:
100,231,7450,6,0,B|128:248|128:248|154:394,1,170,4|2,1:0|0:0,0:0:0:0:
0,236,7889,1,0,1:0:0:0:
0,236,7965,1,0,1:0:0:0:
0,236,8042,1,0,1:0:0:0:
196,165,8195,1,0,1:0:0:0:
52,308,8348,1,0,1:0:0:0:
303,368,8501,6,0,B|348:377|383:350|383:350|417:319|462:331,1,170,4|4,1:0|3:0,0:0:0:0:
339,191,8957,2,0,L|322:286,1,85,0|0,1:0|0:0,0:0:0:0:
451,115,9262,1,4,3:0:0:0:
294,41,9414,1,4,3:0:0:0:
468,126,9566,2,0,L|484:221,1,85,0|0,1:0|0:0,0:0:0:0:
236,286,9871,6,0,P|195:272|148:271,1,85,4|0,3:0|0:0,0:0:0:0:
0,158,10176,2,0,P|42:156|82:142,1,85,0|0,1:0|0:0,0:0:0:0:
218,0,10480,1,4,3:0:0:0:
29,66,10632,1,4,3:0:0:0:
196,175,10785,1,0,1:0:0:0:
10,384,10937,6,0,P|92:362|176:354,1,170,4|4,1:0|3:0,0:0:0:0:
354,245,11394,2,0,P|326:277|333:343,1,85,2|0,1:2|0:0,0:0:0:0:
493,201,11698,1,4,3:0:0:0:
309,143,11851,1,4,3:0:0:0:
415,316,12003,2,0,L|499:330,1,85,2|0,1:2|0:0,0:0:0:0:
253,212,12308,6,0,P|210:215|169:225,1,85,4|0,3:0|0:0,0:0:0:0:
288,38,12612,2,0,P|330:41|371:51,1,85,2|0,1:2|0:0,0:0:0:0:
200,119,12917,1,4,3:0:0:0:
364,225,13069,1,4,3:0:0:0:
217,126,13221,1,2,1:2:0:0:
441,168,13374,6,0,P|460:205|452:256,1,85,4|0,1:0|0:0,0:0:0:0:
318,384,13678,1,4,3:0:0:0:
253,212,13830,1,2,1:2:0:0:
394,327,13983,1,2,0:0:0:0:
221,384,14135,2,0,L|237:290,1,85,4|4,3:0|3:0,0:0:0:0:
77,165,14440,1,2,1:2:0:0:
141,321,14593,1,0,0:0:0:0:
303,136,14744,6,0,P|267:119|222:123,1,85,4|0,3:0|0:0,0:0:0:0:
352,244,15049,1,2,1:2:0:0:
376,64,15201,1,0,0:0:0:0:
253,212,15353,1,4,3:0:0:0:
454,153,15506,1,4,3:0:0:0:
283,39,15658,1,2,1:2:0:0:
463,167,15810,6,0,P|444:250|428:345,1,170,4|4,1:0|3:0,0:0:0:0:
236,384,16267,2,0,P|230:340|220:289,1,85,2|2,1:2|0:0,0:0:0:0:
46,249,16572,2,0,P|34:289|26:331,1,85,4|4,3:0|3:0,0:0:0:0:
161,224,16876,1,2,1:2:0:0:
14,93,17028,6,0,L|97:108,1,85,2|4,0:0|3:0,0:0:0:0:
288,51,17333,1,0,0:0:0:0:
103,0,17485,1,2,1:2:0:0:
214,149,17638,1,0,0:0:0:0:
57,236,17790,1,4,3:0:0:0:
186,64,17942,1,2,1:2:0:0:
186,64,18018,1,0,1:0:0:0:
186,64,18094,1,2,1:2:0:0:
297,273,18247,6,0,B|250:261|216:291|216:291|186:319|137:309,1,170,4|4,1:0|3:0,0:0:0:0:
277,358,18704,1,2,1:2:0:0:
161,224,18856,1,0,0:0:0:0:
350,199,19009,2,0,P|382:237|383:281,1,85,4|4,3:0|3:0,0:0:0:0:
245,156,19313,1,2,1:2:0:0:
399,62,19465,1,0,0:0:0:0:
194,0,19618,6,0,L|93:17,1,85,4|0,3:0|0:0,0:0:0:0:
0,183,19922,2,0,L|83:197,1,85,2|0,1:2|0:0,0:0:0:0:
197,355,20227,1,4,3:0:0:0:
18,280,20379,1,4,3:0:0:0:
165,140,20532,1,2,1:2:0:0:
5,294,20684,6,0,P|89:281|173:271,1,170,4|4,1:0|3:0,0:0:0:0:
342,348,21140,1,2,1:2:0:0:
246,199,21292,1,2,0:0:0:0:
424,318,21445,1,4,3:0:0:0:
421,120,21597,1,4,3:0:0:0:
293,278,21749,1,2,1:2:0:0:
503,210,21902,1,2,0:0:0:0:
311,38,22054,6,0,L|326:124,1,85,4|0,3:0|0:0,0:0:0:0:
173,270,22358,1,2,1:2:0:0:
150,51,22511,1,2,0:0:0:0:
283,263,22663,1,4,3:0:0:0:
66,131,22815,1,4,3:0:0:0:
348,201,22968,1,2,1:2:0:0:
108,384,23121,6,0,L|75:197,1,170,4|4,1:0|3:0,0:0:0:0:
150,51,23577,1,2,1:2:0:0:
0,189,23730,1,2,0:0:0:0:
166,142,23882,2,0,L|82:125,1,85,4|4,3:0|3:0,0:0:0:0:
186,252,24186,1,2,1:2:0:0:
268,90,24339,1,0,0:0:0:0:
478,198,24489,6,0,P|471:155|461:114,1,85,4|0,3:0|0:0,0:0:0:0:
349,184,24795,1,2,1:2:0:0:
512,277,24947,1,0,0:0:0:0:
289,365,25099,1,4,3:0:0:0:
417,257,25252,1,4,3:0:0:0:
241,188,25404,1,2,1:2:0:0:
456,335,25556,6,0,L|272:367,1,170,4|4,1:0|3:0,0:0:0:0:
78,256,26014,1,2,1:2:0:0:
205,384,26166,1,0,0:0:0:0:
124,177,26317,2,0,P|83:163|31:175,1,85,4|4,3:0|3:0,0:0:0:0:
177,292,26623,1,2,1:2:0:0:
232,90,26775,6,0,L|213:-13,1,85,2|4,0:0|3:0,0:0:0:0:
375,148,27080,1,4,3:0:0:0:
469,24,27232,1,2,1:2:0:0:
293,167,27384,1,2,1:2:0:0:
293,167,27460,1,0,1:0:0:0:
293,167,27536,1,2,1:2:0:0:
498,240,27688,2,0,L|505:198,2,42.5,4|0|4,3:0|3:0|3:0,0:0:0:0:
269,366,27993,5,4,3:0:0:0:
269,366,28069,1,0,3:0:0:0:
269,366,28145,2,0,P|221:350|166:338,1,101.999996887207,4|0,1:0|0:0,0:0:0:0:
91,238,28602,2,0,P|108:258|111:283,1,50.9999984436036,2|0,0:0|0:0,0:0:0:0:
12,230,28907,2,0,P|14:205|31:185,1,50.9999984436036,2|0,0:0|0:0,0:0:0:0:
103,94,29211,2,0,B|195:108|158:162|237:178,1,152.999995330811,2|2,0:0|0:0,0:0:0:0:
255,183,30277,6,0,P|246:155|240:122,1,50.9999984436036,2|4,0:0|3:0,0:0:0:0:
349,175,30582,2,0,P|331:227|316:287,1,101.999996887207,4|0,3:0|0:0,0:0:0:0:
348,365,31039,2,0,P|320:356|287:350,1,50.9999984436036,2|0,0:0|0:0,0:0:0:0:
453,287,31343,2,0,P|425:296|392:302,1,50.9999984436036,2|0,0:0|0:0,0:0:0:0:
437,160,31648,2,0,P|431:184|423:209,1,50.9999984436036,2|0,0:0|0:0,0:0:0:0:
509,118,31952,1,2,0:0:0:0:
509,118,32105,2,0,P|478:85|409:88,1,101.999996887207,2|2,0:0|0:0,0:0:0:0:
396,64,32714,6,0,P|358:75|324:80,1,50.9999984436036,2|4,0:0|3:0,0:0:0:0:
258,0,33018,2,0,B|278:31|278:31|260:100,1,101.999996887207,4|0,3:0|0:0,0:0:0:0:
156,172,33475,2,0,P|175:155|200:152,1,50.9999984436036,2|0,0:0|0:0,0:0:0:0:
286,250,33780,2,0,P|262:240|248:219,1,50.9999984436036,2|0,0:0|0:0,0:0:0:0:
380,213,34084,2,0,P|363:260|329:376,1,152.999995330811,2|2,0:0|0:0,0:0:0:0:
302,369,35150,6,0,P|266:345|224:351,1,76.4999976654053,2|0,0:0|0:0,0:0:0:0:
206,366,35455,2,0,P|195:311|179:250,1,101.999996887207,2|0,0:0|0:0,0:0:0:0:
112,240,35912,1,2,0:0:0:0:
112,240,36064,2,0,P|124:190|133:140,1,101.999996887207,2|2,0:0|0:0,0:0:0:0:
121,38,36521,5,2,0:0:0:0:
121,38,36673,2,0,B|274:51|187:168|344:183,1,272,2|4,0:0|3:0,0:0:0:0:
485,110,37435,1,4,3:0:0:0:
342,25,37587,1,0,1:0:0:0:
439,206,37739,6,0,P|421:272|401:374,1,152.999995330811,4|4,1:0|3:0,0:0:0:0:
512,264,38196,1,0,1:0:0:0:
332,294,38348,2,0,P|339:256|350:219,1,76.4999976654053,4|0,3:0|0:0,0:0:0:0:
209,285,38653,2,0,P|219:321|227:359,1,76.4999976654053,4|2,3:0|1:2,0:0:0:0:
124,185,38957,6,0,P|72:133|0:148,1,152.999995330811,2|0,0:0|0:0,0:0:0:0:
45,293,39414,2,0,P|81:280|136:273,1,76.4999976654053,0|2,1:0|0:0,0:0:0:0:
221,173,39719,1,4,3:0:0:0:
163,90,39871,1,4,3:0:0:0:
269,8,40023,2,0,L|254:87,1,76.4999976654053,2|2,1:2|0:0,0:0:0:0:
364,252,40328,6,0,P|439:237|515:226,1,152.999995330811,4|0,3:0|1:0,0:0:0:0:
390,162,40785,2,0,P|427:155|465:149,1,76.4999976654053,4|2,3:0|0:0,0:0:0:0:
494,310,41089,2,0,P|455:315|419:322,1,76.4999976654053,4|2,3:0|1:2,0:0:0:0:
263,242,41394,6,0,L|249:166,1,76.4999976654053,2|4,0:0|3:0,0:0:0:0:
364,252,41698,1,2,0:0:0:0:
227,325,41851,2,0,B|183:316|155:337|155:337|124:361|81:350,1,152.999995330811,2|4,1:2|3:0,0:0:0:0:
17,270,42308,1,4,3:0:0:0:
118,192,42460,2,0,L|104:268,1,76.4999976654053,2|2,1:2|0:0,0:0:0:0:
23,91,42764,6,0,B|39:109|39:109|185:84,1,152.999995330811,4|0,1:0|1:0,0:0:0:0:
286,0,43221,2,0,P|265:31|268:84,1,76.4999976654053,4|2,3:0|0:0,0:0:0:0:
404,116,43526,2,0,P|387:82|340:58,1,76.4999976654053,4|2,3:0|1:2,0:0:0:0:
236,209,43830,6,0,L|262:359,1,152.999995330811,2|2,0:2|0:0,0:0:0:0:
327,234,44287,2,0,L|340:309,1,76.4999976654053,2|2,1:2|0:0,0:0:0:0:
415,207,44592,1,4,3:0:0:0:
302,148,44744,1,4,3:0:0:0:
431,218,44896,2,0,L|444:142,1,76.4999976654053,2|0,1:2|0:0,0:0:0:0:
335,6,45201,6,0,P|285:56|205:43,1,152.999995330811,4|2,3:0|1:2,0:0:0:0:
65,0,45658,2,0,P|87:30|87:68,1,76.4999976654053,4|2,3:0|0:0,0:0:0:0:
0,210,45962,2,0,P|15:175|47:156,1,76.4999976654053,4|2,3:0|1:2,0:0:0:0:
163,218,46267,1,2,0:0:0:0:
15,344,46419,5,4,3:0:0:0:
81,235,46572,2,0,L|90:284,3,38.2499988327027,0|0|0|0,1:0|1:0|1:0|3:0,0:0:0:0:
181,350,46876,1,0,1:0:0:0:
181,350,46952,1,0,1:0:0:0:
181,350,47028,2,0,L|189:299,1,38.2499988327027,0|0,1:0|0:0,0:0:0:0:
289,265,47181,1,0,1:0:0:0:
289,265,47257,1,0,1:0:0:0:
289,265,47333,2,0,L|297:315,1,38.2499988327027,0|0,1:0|0:0,0:0:0:0:
395,369,47485,5,0,1:0:0:0:
395,369,47561,1,0,1:0:0:0:
395,369,47638,2,0,P|407:304|422:226,1,140.25000428009,4|0,1:0|0:0,0:0:0:0:
439,125,47942,2,0,P|406:158|360:157,1,93.5000028533936,2|0,1:2|0:0,0:0:0:0:
221,12,48247,2,0,P|266:11|299:43,1,93.5000028533936,4|0,3:0|0:0,0:0:0:0:
226,206,48551,1,2,1:2:0:0:
87,27,48704,6,0,P|99:72|109:117,2,93.5000028533936,2|4|2,0:0|3:0|0:0,0:0:0:0:
281,124,49160,2,0,P|268:169|258:214,1,93.5000028533936,2|2,1:2|0:0,0:0:0:0:
114,353,49465,5,4,3:0:0:0:
352,286,49617,1,0,1:0:0:0:
139,198,49770,5,4,3:0:0:0:
320,379,49922,2,0,P|272:367|215:355,1,93.5000028533936,2|4,1:2|3:0,0:0:0:0:
364,246,50226,5,0,0:0:0:0:
489,369,50379,2,0,P|476:324|464:278,1,93.5000028533936,2|0,1:2|0:0,0:0:0:0:
310,135,50683,2,0,P|297:180|284:225,1,93.5000028533936,4|0,3:0|0:0,0:0:0:0:
418,83,50988,1,2,1:2:0:0:
352,286,51140,2,0,P|260:315|193:218,1,187.000005706787,2|0,0:0|0:0,0:0:0:0:
131,43,51597,6,0,B|157:69|157:69|126:167,1,140.25000428009,2|0,1:2|0:0,0:0:0:0:
110,212,51902,1,4,3:0:0:0:
324,96,52054,1,0,1:0:0:0:
441,277,52206,5,4,3:0:0:0:
227,161,52358,1,2,1:2:0:0:
150,365,52511,6,0,P|223:365|246:305,1,140.25000428009,4|0,1:0|0:0,0:0:0:0:
195,250,52815,2,0,P|152:229|109:211,1,93.5000028533936,2|0,1:2|0:0,0:0:0:0:
340,125,53120,2,0,P|319:167|301:210,1,93.5000028533936,4|0,3:0|0:0,0:0:0:0:
198,83,53424,1,2,1:2:0:0:
271,293,53577,6,0,P|316:303|356:280,1,93.5000028533936,2|4,0:0|3:0,0:0:0:0:
437,104,53881,1,2,0:0:0:0:
437,104,53957,1,2,0:0:0:0:
437,104,54033,2,0,P|443:150|452:196,1,93.5000028533936,2|2,1:2|0:0,0:0:0:0:
322,37,54338,5,4,3:0:0:0:
251,273,54490,1,0,1:0:0:0:
216,57,54643,5,4,3:0:0:0:
362,253,54795,2,0,P|353:298|346:345,1,93.5000028533936,2|4,1:2|3:0,0:0:0:0:
237,186,55099,5,0,0:0:0:0:
148,340,55252,2,0,P|101:342|66:312,1,93.5000028533936,2|2,1:2|0:0,0:0:0:0:
2,105,55556,2,0,B|109:132|47:194|160:219,1,187.000005706787,4|2,3:0|1:2,0:0:0:0:
378,200,56013,1,2,0:0:0:0:
196,103,56165,1,4,3:0:0:0:
285,290,56318,1,2,0:0:0:0:
405,47,56470,5,0,1:0:0:0:
245,194,56622,1,4,3:0:0:0:
245,194,56698,1,4,3:0:0:0:
245,194,56775,1,4,3:0:0:0:
491,294,56927,5,0,1:0:0:0:
324,123,57079,1,0,1:0:0:0:
242,365,57231,1,0,1:0:0:0:
435,200,57384,6,0,L|482:191,1,31.8750012159348,6|0,1:0|0:0,0:0:0:0:
417,189,57688,6,0,L|464:180,1,31.8750012159348,2|0,1:0|0:0,0:0:0:0:
399,178,57993,6,0,L|446:169,1,31.8750012159348,2|0,1:0|0:0,0:0:0:0:
301,135,58297,5,2,1:0:0:0:
389,293,58450,1,2,1:0:0:0:
311,336,58754,5,2,1:0:0:0:
399,178,58907,1,2,1:0:0:0:
203,270,59211,6,0,L|208:301,1,31.8750012159348,2|0,1:0|0:0,0:0:0:0:
118,217,59516,6,0,L|123:185,1,31.8750012159348,2|0,1:0|0:0,0:0:0:0:
208,17,59820,6,0,P|239:20|274:28,1,63.7500024318696,2|0,0:1|0:0,0:0:0:0:
378,168,60277,6,0,P|347:171|312:179,1,63.7500024318696,2|0,0:1|0:0,0:0:0:0:
208,319,60734,6,0,P|239:322|274:330,1,63.7500024318696,2|0,0:1|0:0,0:0:0:0:
65,224,61648,6,0,P|57:160|-3:161,1,127.500004863739,2|2,0:0|0:0,0:0:0:0:
51,241,62105,6,0,B|109:227|145:256|145:256|179:282|237:266,1,195.500003728867,4|4,1:0|3:0,0:0:0:0:
388,135,62561,2,0,P|347:160|335:207,1,97.7500018644333,0|2,1:0|0:0,0:0:0:0:
512,384,62866,1,4,3:0:0:0:
422,214,63018,1,4,3:0:0:0:
337,384,63171,1,2,1:2:0:0:
503,254,63323,1,2,0:0:0:0:
255,165,63475,6,0,P|182:172|111:190,1,146.62500279665,4|4,3:0|3:0,0:0:0:0:
121,104,63780,2,0,P|168:93|217:87,1,97.7500018644333,2|2,1:2|0:0,0:0:0:0:
0,25,64084,1,4,3:0:0:0:
111,190,64237,1,4,3:0:0:0:
159,0,64389,1,2,1:2:0:0:
9,220,64541,6,0,P|105:236|200:258,1,195.500003728867,4|4,1:0|3:0,0:0:0:0:
368,384,64998,2,0,P|333:351|334:293,1,97.7500018644333,2|2,1:2|0:0,0:0:0:0:
498,116,65303,1,4,3:0:0:0:
415,311,65455,1,4,3:0:0:0:
314,122,65607,1,2,1:2:0:0:
511,294,65759,6,0,P|465:300|413:311,1,97.7500018644333,2|4,0:0|3:0,0:0:0:0:
228,384,66064,1,4,3:0:0:0:
228,384,66140,1,4,3:0:0:0:
228,384,66216,2,0,P|221:335|211:287,1,97.7500018644333,2|2,1:2|0:0,0:0:0:0:
97,149,66521,1,4,3:0:0:0:
13,320,66673,1,4,3:0:0:0:
13,320,66749,1,4,3:0:0:0:
13,320,66825,2,0,P|61:325|109:337,1,97.7500018644333,2|2,1:2|0:0,0:0:0:0:
319,110,67130,6,0,P|227:107|198:194,1,195.500003728867,4|0,1:0|1:0,0:0:0:0:
312,341,67587,1,2,0:0:0:0:
405,198,67739,2,0,L|308:215,1,97.7500018644333,4|2,3:0|0:0,0:0:0:0:
416,59,68044,2,0,L|512:41,1,97.7500018644333,2|2,1:2|0:0,0:0:0:0:
187,24,68348,5,4,3:0:0:0:
92,149,68500,2,0,P|82:101|60:46,1,97.7500018644333,2|2,0:0|1:2,0:0:0:0:
198,194,68805,1,2,0:0:0:0:
25,259,68957,1,4,3:0:0:0:
120,384,69109,2,0,P|130:336|152:281,1,97.7500018644333,2|0,0:0|1:0,0:0:0:0:
0,129,69414,1,2,0:0:0:0:
196,11,69566,6,0,P|266:28|339:35,1,146.62500279665,4|0,3:0|0:0,0:0:0:0:
301,114,69871,2,0,P|252:108|204:96,1,97.7500018644333,0|2,1:0|0:0,0:0:0:0:
371,214,70176,2,0,P|376:165|388:117,1,97.7500018644333,4|0,3:0|0:0,0:0:0:0:
257,217,70480,1,0,1:0:0:0:
435,314,70632,1,0,0:0:0:0:
172,238,70785,5,4,3:0:0:0:
395,125,70937,1,2,1:2:0:0:
395,125,71013,1,0,1:0:0:0:
395,125,71089,2,0,L|460:113,1,48.8750009322167,2|2,1:2|1:2,0:0:0:0:
305,77,71242,1,0,1:0:0:0:
305,77,71318,1,0,1:0:0:0:
305,77,71394,2,0,L|355:34,1,48.8750009322167,0|0,1:0|1:0,0:0:0:0:
203,80,71546,1,0,1:0:0:0:
203,80,71622,1,0,1:0:0:0:
203,80,71698,2,0,L|225:17,1,48.8750009322167,0|0,1:0|1:0,0:0:0:0:
110,104,71851,6,0,P|126:200|132:297,1,195.500003728867,4|4,1:0|3:0,0:0:0:0:
378,326,72308,2,0,P|348:283|292:284,1,97.7500018644333,0|2,1:0|0:0,0:0:0:0:
101,384,72612,1,4,3:0:0:0:
234,223,72764,1,4,3:0:0:0:
28,329,72917,1,2,1:2:0:0:
305,278,73069,1,2,0:0:0:0:
125,115,73221,6,0,P|108:159|95:208,1,97.7500018644333,4|4,3:0|3:0,0:0:0:0:
106,234,73450,1,4,3:0:0:0:
106,234,73526,1,2,1:2:0:0:
221,65,73678,1,2,0:0:0:0:
0,16,73830,2,0,P|9:62|15:112,1,97.7500018644333,4|4,3:0|3:0,0:0:0:0:
151,0,74135,1,2,1:2:0:0:
236,243,74287,6,0,B|293:250|322:217|322:217|357:178|414:191,1,195.500003728867,4|4,1:0|3:0,0:0:0:0:
286,10,74744,1,2,1:2:0:0:
491,128,74896,1,2,0:0:0:0:
251,156,75049,2,0,P|238:108|221:63,1,97.7500018644333,4|4,3:0|3:0,0:0:0:0:
414,191,75353,1,2,1:2:0:0:
194,307,75506,1,4,3:0:0:0:
322,90,75658,5,4,1:0:0:0:
414,323,75810,1,4,3:0:0:0:
236,149,75962,1,2,1:2:0:0:
507,302,76115,1,4,3:0:0:0:
202,376,76267,1,4,1:0:0:0:
190,354,76343,1,4,3:0:0:0:
187,330,76419,1,4,3:0:0:0:
194,307,76495,1,4,3:0:0:0:
209,288,76572,2,0,L|263:278,3,48.8750009322167,4|4|4|4,3:0|3:0|3:0|3:0,0:0:0:0:
173,207,76876,6,0,L|62:227,1,97.7500018644333,4|4,1:0|3:0,0:0:0:0:
208,24,77181,1,4,3:0:0:0:
0,104,77333,2,0,L|111:124,1,97.7500018644333,4|4,1:0|3:0,0:0:0:0:
257,279,77638,1,4,3:0:0:0:
182,110,77790,1,4,1:0:0:0:
24,321,77942,5,4,3:0:0:0:
24,321,78018,1,4,3:0:0:0:
23,320,78094,2,0,P|15:271|0:225,1,97.7500018644333,4|4,1:0|3:0,0:0:0:0:
71,30,78399,1,4,3:0:0:0:
202,221,78551,2,0,P|153:228|107:244,1,97.7500018644333,4|4,1:0|3:0,0:0:0:0:
223,32,78856,1,4,3:0:0:0:
322,220,79008,1,4,1:0:0:0:
487,17,79160,5,4,3:0:0:0:
487,17,79237,1,4,3:0:0:0:
487,17,79313,2,0,P|442:-2|392:15,1,97.7500018644333,4|4,1:0|3:0,0:0:0:0:
345,315,79617,1,0,1:0:0:0:
441,84,79770,1,4,3:0:0:0:
246,301,79922,1,0,1:0:0:0:
488,159,80074,1,4,3:0:0:0:
228,31,80226,1,0,1:0:0:0:
462,240,80379,1,4,3:0:0:0:
191,357,80531,6,0,P|187:308|173:261,1,97.7500018644333,4|4,1:0|3:0,0:0:0:0:
164,239,80759,1,4,3:0:0:0:
164,239,80836,1,4,3:0:0:0:
25,69,80988,1,4,3:0:0:0:
40,96,81064,1,4,3:0:0:0:
63,119,81140,1,0,1:0:0:0:
92,135,81216,1,0,1:0:0:0:
123,142,81292,1,0,1:0:0:0:
156,140,81368,1,0,1:0:0:0:
187,127,81444,1,0,1:0:0:0:
440,6,81597,6,0,P|420:92|411:181,1,178.499994552612,4|4,1:0|3:0,0:0:0:0:
221,258,82054,2,0,P|256:227|307:233,1,89.2499972763062,2|2,1:2|0:0,0:0:0:0:
505,374,82358,1,4,3:0:0:0:
283,311,82511,1,4,3:0:0:0:
487,211,82663,2,0,P|451:180|401:186,1,89.2499972763062,0|0,1:0|0:0,0:0:0:0:
202,344,82967,6,0,B|165:350|142:321|142:321|120:292|83:298,1,133.874995914459,4|0,3:0|0:0,0:0:0:0:
59,304,83272,2,0,P|94:272|91:225,1,89.2499972763062,0|0,1:0|0:0,0:0:0:0:
0,56,83577,1,4,3:0:0:0:
180,132,83729,1,4,3:0:0:0:
9,233,83881,1,0,1:0:0:0:
241,58,84033,6,0,B|282:91|282:91|260:215,1,178.499994552612,4|4,1:0|3:0,0:0:0:0:
247,237,84414,1,4,3:0:0:0:
247,237,84490,1,0,1:0:0:0:
145,39,84643,1,4,3:0:0:0:
371,203,84795,5,2,1:2:0:0:
119,263,84947,1,4,3:0:0:0:
423,276,85099,1,0,1:0:0:0:
67,190,85252,1,4,3:0:0:0:
351,323,85404,5,2,1:2:0:0:
241,58,85556,1,4,3:0:0:0:
268,350,85709,1,0,1:0:0:0:
322,20,85861,1,4,3:0:0:0:
119,263,86013,5,2,1:2:0:0:
460,195,86165,1,4,3:0:0:0:
67,190,86318,5,4,1:0:0:0:
431,361,86470,1,4,1:0:0:0:
