osu file format v14

[General]
AudioFilename: TVAAPV2.mp3
AudioLeadIn: 0
PreviewTime: 47942
Countdown: 0
SampleSet: Soft
StackLeniency: 0.3
Mode: 0
LetterboxInBreaks: 0
WidescreenStoryboard: 1

[Editor]
DistanceSpacing: 0.7
BeatDivisor: 4
GridSize: 8
TimelineZoom: 2.3

[Metadata]
Title:Bull's Eye (TV Size)
TitleUnicode:Bull's Eye (TV Size)
Artist:nano
ArtistUnicode:ナノ
Creator:Nevo
Version:Nexus
Source:緋弾のアリアAA
Tags:Aria the Scarlet Ammo Double A AT-X opening xchorse kyouren ascended froskya kittyadventure gokugohan12468 killian japanese rock jrock j-rock bulls Anxient revialink hidan no aria WEST GROUND
BeatmapID:4368666
BeatmapSetID:2085359

[Difficulty]
HPDrainRate:6
CircleSize:4
OverallDifficulty:9.2
ApproachRate:9.3
SliderMultiplier:1.7
SliderTickRate:1

[Events]
//Background and Video events
Video,-30,"aa.avi"
0,0,"693870.jpg",0,0
//Break Periods
//Storyboard Layer 0 (Background)
//Storyboard Layer 1 (Fail)
//Storyboard Layer 2 (Pass)
//Storyboard Layer 3 (Foreground)
//Storyboard Layer 4 (Overlay)
//Storyboard Sound Samples

[TimingPoints]
554,312.5,6,2,0,35,1,0
554,-133.333333333333,6,2,0,35,0,0
4304,-111.111111111111,6,2,0,45,0,0
6179,-111.111111111111,6,2,0,25,0,0
6257,-111.111111111111,6,2,0,5,0,0
6647,-111.111111111111,6,2,0,25,0,0
6725,-111.111111111111,6,2,0,5,0,0
7116,-111.111111111111,6,2,0,25,0,0
7194,-111.111111111111,6,2,0,5,0,0
7450,292.682926829268,4,2,0,60,1,0
7450,-111.111111111111,6,2,0,60,0,0
7739,-111.111111111111,6,2,0,60,0,0
7889,306.122448979592,4,2,0,60,1,0
7889,-100,4,2,0,70,0,0
8500,-83.3333333333333,4,2,0,80,0,0
8501,304.568527918782,4,2,0,60,1,0
8501,-83.3333333333333,4,2,0,80,0,0
8653,304.568527918782,4,2,0,60,1,0
8653,-83.3333333333333,4,2,0,80,0,0
28145,-111.111111111111,4,2,0,40,0,0
28602,-133.333333333333,4,2,0,40,0,0
36673,-117.647058823529,4,2,0,60,0,0
37739,-100,4,2,0,70,0,0
47637,-80,4,2,0,80,0,1
57383,-100,4,2,0,45,0,0
59820,-100,4,2,0,35,0,0
59896,-100,4,2,0,5,0,0
60277,-100,4,2,0,35,0,0
60353,-100,4,2,0,5,0,0
60734,-100,4,2,0,35,0,0
60810,-100,4,2,0,5,0,0
61648,-133.333333333333,4,2,0,25,0,0
62104,-80,4,2,0,80,0,1
81597,-95.2380952380952,4,2,0,70,0,0

[Colours]
Combo1 : 215,191,100
Combo2 : 242,115,134
Combo3 : 238,163,87
Combo4 : 255,255,0
Combo5 : 127,127,127

[HitObjects]
164,185,554,6,0,L|175:252,1,63.7500024318696,2|2,0:0|0:0,0:0:0:0:
179,340,866,2,0,L|115:316,1,63.7500024318696,2|2,0:0|0:0,0:0:0:0:
31,274,1179,2,0,L|83:230,1,63.7500024318696,2|2,0:0|0:0,0:0:0:0:
240,133,1491,5,2,0:0:0:0:
161,99,1647,1,2,0:0:0:0:
315,69,1804,1,2,0:0:0:0:
122,22,1960,5,2,0:0:0:0:
233,47,2116,1,2,0:0:0:0:
79,130,2272,1,2,0:0:0:0:
294,198,2429,6,0,L|385:182,1,63.7500024318696,2|2,0:0|0:0,0:0:0:0:
419,47,2741,2,0,L|407:109,1,63.7500024318696,2|2,0:0|0:0,0:0:0:0:
511,34,3054,2,0,L|499:96,1,63.7500024318696,2|2,0:0|0:0,0:0:0:0:
468,300,3366,5,2,0:0:0:0:
401,230,3522,1,2,0:0:0:0:
381,371,3679,1,2,0:0:0:0:
260,225,3835,5,2,0:0:0:0:
304,147,3991,1,2,0:0:0:0:
337,293,4148,1,2,0:0:0:0:
200,148,4304,6,0,P|146:139|116:150,1,76.4999976654053,2|0,0:0|0:0,0:0:0:0:
72,208,4616,1,2,0:0:0:0:
149,373,4772,2,0,B|168:269|168:269|155:219,1,152.999995330811,2|2,0:0|0:0,0:0:0:0:
43,127,5241,1,2,0:0:0:0:
140,90,5397,1,2,0:0:0:0:
0,25,5554,2,0,L|73:44,1,76.4999976654053,2|0,0:0|0:0,0:0:0:0:
200,148,5866,2,0,L|273:128,1,76.4999976654053,2|0,0:0|0:0,0:0:0:0:
392,10,6179,6,0,L|382:52,1,38.2499988327027,2|0,0:1|0:0,0:0:0:0:
402,22,6647,2,0,L|392:64,1,38.2499988327027,2|0,0:1|0:0,0:0:0:0:
412,34,7116,2,0,L|402:76,1,38.2499988327027,2|0,0:1|0:0,0:0:0:0:
441,253,7450,6,0,B|467:230|467:230|410:184|331:221,1,152.999995330811,4|2,1:0|0:0,0:0:0:0:
304,351,7889,1,0,1:0:0:0:
304,351,7965,1,0,1:0:0:0:
304,351,8042,1,0,1:0:0:0:
232,175,8195,1,0,1:0:0:0:
190,380,8348,1,0,1:0:0:0:
204,73,8501,6,0,L|341:91,1,101.999996887207,4|0,1:0|0:0,0:0:0:0:
214,272,8805,1,4,3:0:0:0:
114,129,8957,2,0,P|92:70|109:16,1,101.999996887207,0|0,1:0|0:0,0:0:0:0:
232,175,9262,1,4,3:0:0:0:
61,242,9414,1,4,3:0:0:0:
344,250,9566,2,0,P|366:191|349:137,1,101.999996887207,0|0,1:0|0:0,0:0:0:0:
296,343,9871,5,4,3:0:0:0:
460,291,10023,1,0,0:0:0:0:
232,175,10176,2,0,L|128:201,1,101.999996887207,0|0,1:0|0:0,0:0:0:0:
358,154,10480,1,4,3:0:0:0:
277,24,10632,1,4,3:0:0:0:
208,268,10785,1,0,1:0:0:0:
12,120,10937,6,0,B|104:97|104:97|136:106|136:106|217:84,1,203.999993774414,4|4,1:0|3:0,0:0:0:0:
375,53,11394,2,0,L|353:177,1,101.999996887207,2|0,1:2|0:0,0:0:0:0:
316,328,11698,1,4,3:0:0:0:
232,175,11851,1,4,3:0:0:0:
134,371,12003,1,2,1:2:0:0:
265,253,12155,1,0,0:0:0:0:
72,223,12308,5,4,3:0:0:0:
352,245,12460,1,0,0:0:0:0:
213,328,12612,2,0,P|176:283|173:235,1,101.999996887207,2|0,1:2|0:0,0:0:0:0:
309,124,12917,1,4,3:0:0:0:
265,253,13069,1,4,3:0:0:0:
188,60,13221,1,2,1:2:0:0:
413,182,13374,6,0,P|316:172|265:255,1,203.999993774414,4|4,1:0|3:0,0:0:0:0:
441,349,13830,2,0,L|462:235,1,101.999996887207,2|2,1:2|0:0,0:0:0:0:
490,89,14135,1,4,3:0:0:0:
353,248,14287,1,4,3:0:0:0:
305,13,14440,2,0,L|323:113,1,101.999996887207,2|0,1:2|0:0,0:0:0:0:
146,148,14744,6,0,P|181:99|245:86,1,101.999996887207,4|0,3:0|0:0,0:0:0:0:
167,276,15049,2,0,L|60:261,1,101.999996887207,2|0,1:2|0:0,0:0:0:0:
241,184,15353,1,4,3:0:0:0:
213,367,15506,1,4,3:0:0:0:
218,85,15658,1,2,1:2:0:0:
381,329,15810,6,0,P|469:316|478:176,1,203.999993774414,4|4,1:0|3:0,0:0:0:0:
326,200,16267,2,0,P|369:232|419:242,1,101.999996887207,2|2,1:2|0:0,0:0:0:0:
512,97,16572,2,0,P|469:129|419:138,1,101.999996887207,4|4,3:0|3:0,0:0:0:0:
346,10,16876,1,2,1:2:0:0:
160,82,17028,6,0,L|180:181,1,101.999996887207,2|4,0:0|3:0,0:0:0:0:
94,0,17333,1,0,0:0:0:0:
65,211,17485,1,2,1:2:0:0:
304,129,17638,1,0,0:0:0:0:
37,95,17790,1,4,3:0:0:0:
271,258,17942,1,2,1:2:0:0:
271,258,18018,1,0,1:0:0:0:
271,258,18094,1,2,1:2:0:0:
159,382,18247,6,0,B|175:301|175:301|165:254|165:254|183:175,1,203.999993774414,4|4,1:0|3:0,0:0:0:0:
305,17,18704,1,2,1:2:0:0:
97,78,18856,1,0,0:0:0:0:
287,130,19008,2,0,L|407:103,1,101.999996887207,4|4,3:0|3:0,0:0:0:0:
267,257,19313,1,2,1:2:0:0:
195,72,19465,1,0,0:0:0:0:
99,298,19617,6,0,L|-21:271,1,101.999996887207,4|0,3:0|0:0,0:0:0:0:
159,147,19922,2,0,P|188:202|182:246,1,101.999996887207,2|0,1:2|0:0,0:0:0:0:
28,136,20226,1,4,3:0:0:0:
287,130,20379,1,4,3:0:0:0:
96,209,20531,1,2,1:2:0:0:
246,356,20683,6,0,B|269:246,1,101.999996887207,4|0,1:0|0:0,0:0:0:0:
466,112,20988,5,4,3:0:0:0:
345,314,21140,1,2,1:2:0:0:
395,52,21292,1,2,0:0:0:0:
441,291,21445,1,4,3:0:0:0:
306,51,21597,1,4,3:0:0:0:
501,204,21749,1,2,1:2:0:0:
218,95,21902,1,2,0:0:0:0:
479,15,22054,2,0,P|485:65|466:112,1,101.999996887207,4|0,3:0|0:0,0:0:0:0:
166,169,22358,5,2,1:2:0:0:
375,227,22511,1,2,0:0:0:0:
107,242,22663,1,4,3:0:0:0:
314,157,22815,1,4,3:0:0:0:
88,111,22967,1,2,1:2:0:0:
171,382,23120,6,0,L|191:251,1,101.999996887207,4|0,1:0|0:0,0:0:0:0:
218,95,23424,1,4,3:0:0:0:
324,274,23577,1,2,1:2:0:0:
107,242,23729,1,2,0:0:0:0:
314,157,23881,2,0,L|415:174,1,101.999996887207,4|4,3:0|3:0,0:0:0:0:
368,13,24186,2,0,L|267:30,1,101.999996887207,2|0,1:2|0:0,0:0:0:0:
143,156,24490,6,0,P|213:106|223:57,1,101.999996887207,4|0,3:0|0:0,0:0:0:0:
52,148,24795,2,0,L|74:284,1,101.999996887207,2|0,1:2|0:0,0:0:0:0:
313,298,25099,1,4,3:0:0:0:
112,328,25252,1,4,3:0:0:0:
271,177,25404,1,2,1:2:0:0:
249,380,25556,6,0,P|214:318|219:266,1,101.999996887207,4|0,1:0|0:0,0:0:0:0:
359,95,25861,1,4,3:0:0:0:
164,212,26013,1,2,1:2:0:0:
117,8,26165,1,0,0:0:0:0:
381,178,26318,1,4,3:0:0:0:
172,113,26470,1,4,3:0:0:0:
398,18,26622,1,2,1:2:0:0:
313,298,26775,6,0,L|298:196,1,101.999996887207,2|4,0:0|3:0,0:0:0:0:
271,20,27079,1,4,3:0:0:0:
205,271,27231,1,2,1:2:0:0:
50,142,27384,1,2,1:2:0:0:
50,142,27460,1,0,1:0:0:0:
50,142,27536,1,2,1:2:0:0:
298,197,27688,1,4,3:0:0:0:
116,349,27841,1,4,3:0:0:0:
144,122,27993,1,4,3:0:0:0:
317,290,28145,6,0,P|375:265|488:250,1,152.999995330811,4|0,1:0|0:0,0:0:0:0:
500,120,28602,2,0,P|434:130|410:125,1,63.7500024318696,2|0,0:0|0:0,0:0:0:0:
357,154,28907,2,0,P|323:136|295:109,1,63.7500024318696,2|0,0:0|0:0,0:0:0:0:
204,10,29211,6,0,P|229:40|176:120,1,127.500004863739,2|0,0:0|0:0,0:0:0:0:
102,70,29668,2,0,L|124:223,1,127.500004863739,2|2,0:0|0:0,0:0:0:0:
120,196,30277,2,0,P|161:214|180:242,1,63.7500024318696,2|4,0:0|3:0,0:0:0:0:
235,340,30582,6,0,L|261:215,1,127.500004863739,4|0,3:0|0:0,0:0:0:0:
336,162,31039,2,0,L|348:224,1,63.7500024318696,2|0,0:0|0:0,0:0:0:0:
426,281,31343,2,0,L|438:218,1,63.7500024318696,2|0,0:0|0:0,0:0:0:0:
511,69,31648,6,0,P|475:126|396:120,1,127.500004863739,2|2,0:0|0:0,0:0:0:0:
387,32,32105,2,0,L|256:24,1,127.500004863739,2|2,0:0|0:0,0:0:0:0:
259,24,32714,2,0,P|235:57|231:87,1,63.7500024318696,2|4,0:0|3:0,0:0:0:0:
319,203,33018,6,0,P|274:171|193:171,1,127.500004863739,4|0,3:0|0:0,0:0:0:0:
120,102,33475,2,0,L|106:173,1,63.7500024318696,2|0,0:0|0:0,0:0:0:0:
24,226,33780,2,0,L|11:163,1,63.7500024318696,2|0,0:0|0:0,0:0:0:0:
203,167,34084,6,0,L|177:300,1,127.500004863739,2|0,0:0|0:0,0:0:0:0:
344,365,34541,2,0,P|337:322|260:300,1,127.500004863739,2|2,0:0|0:0,0:0:0:0:
264,297,35150,2,0,L|250:368,1,63.7500024318696,2|0,0:0|0:0,0:0:0:0:
322,219,35455,6,0,B|363:211|363:211|382:215|382:215|451:201,1,127.500004863739,2|0,0:0|0:0,0:0:0:0:
322,111,35912,1,2,0:0:0:0:
322,111,36064,2,0,L|396:128,1,63.7500024318696,2|0,0:0|0:0,0:0:0:0:
449,26,36369,2,0,L|375:43,1,63.7500024318696,2|2,0:0|0:0,0:0:0:0:
237,155,36673,6,0,P|225:77|274:20,1,144.500002756119,2|0,0:0|0:0,0:0:0:0:
324,217,37130,1,2,0:0:0:0:
133,135,37282,1,4,3:0:0:0:
322,111,37435,1,4,3:0:0:0:
122,143,37587,1,0,1:0:0:0:
214,323,37739,6,0,L|237:152,1,170,4|4,1:0|3:0,0:0:0:0:
72,220,38196,1,0,1:0:0:0:
67,60,38348,2,0,L|157:44,1,85,4|0,3:0|0:0,0:0:0:0:
336,27,38653,2,0,L|320:117,1,85,4|2,3:0|1:2,0:0:0:0:
484,258,38957,6,0,P|488:209|381:184,1,170,2|0,0:0|0:0,0:0:0:0:
308,290,39414,2,0,P|358:295|393:265,1,85,0|2,1:0|0:0,0:0:0:0:
222,254,39719,1,4,3:0:0:0:
236,340,39871,1,4,3:0:0:0:
164,190,40023,1,2,1:2:0:0:
296,204,40176,1,2,0:0:0:0:
100,272,40328,6,0,P|64:217|99:110,1,170,4|0,3:0|1:0,0:0:0:0:
284,114,40785,2,0,L|186:103,1,85,4|2,3:0|0:0,0:0:0:0:
360,42,41089,2,0,L|458:31,1,85,4|2,3:0|1:2,0:0:0:0:
420,216,41394,6,0,P|391:160|394:122,1,85,2|4,0:0|3:0,0:0:0:0:
509,238,41698,1,2,0:0:0:0:
345,280,41851,1,2,1:2:0:0:
512,342,42003,2,0,L|421:326,1,85,2|4,0:0|3:0,0:0:0:0:
265,383,42308,2,0,L|356:367,1,85,4|2,3:0|1:2,0:0:0:0:
268,217,42612,1,2,0:0:0:0:
95,355,42764,6,0,P|176:328|151:228,1,170,4|0,1:0|1:0,0:0:0:0:
22,205,43221,2,0,P|48:247|85:263,1,85,4|2,3:0|0:0,0:0:0:0:
199,139,43526,2,0,P|152:136|109:164,1,85,4|2,3:0|1:2,0:0:0:0:
277,308,43830,6,0,L|291:203,1,85,2|4,0:2|3:0,0:0:0:0:
177,253,44135,1,2,0:0:0:0:
396,260,44287,2,0,L|385:176,1,85,2|2,1:2|0:0,0:0:0:0:
288,223,44592,1,4,3:0:0:0:
489,189,44744,1,4,3:0:0:0:
251,135,44896,1,2,1:2:0:0:
498,97,45049,1,0,0:0:0:0:
294,36,45201,6,0,P|341:66|439:5,1,170,4|2,3:0|1:2,0:0:0:0:
196,49,45658,2,0,P|166:89|162:126,1,85,4|2,3:0|0:0,0:0:0:0:
117,233,45962,2,0,P|97:187|67:165,1,85,4|2,3:0|1:2,0:0:0:0:
57,329,46267,1,2,0:0:0:0:
254,136,46419,5,4,3:0:0:0:
348,240,46572,1,0,1:0:0:0:
348,240,46648,1,0,1:0:0:0:
348,240,46724,2,0,L|247:225,1,85,0|0,1:0|1:0,0:0:0:0:
194,326,46952,5,0,1:0:0:0:
194,326,47028,2,0,L|295:311,1,85,0|0,1:0|1:0,0:0:0:0:
324,384,47257,5,0,1:0:0:0:
324,384,47333,2,0,L|425:369,1,85,0|0,1:0|1:0,0:0:0:0:
493,300,47561,5,0,1:0:0:0:
493,300,47638,2,0,P|508:244|490:193,1,106.25,4|0,1:0|0:0,0:0:0:0:
294,35,47942,2,0,L|316:169,1,106.25,2|0,1:2|0:0,0:0:0:0:
115,262,48247,2,0,P|115:204|145:159,1,106.25,4|0,3:0|0:0,0:0:0:0:
398,247,48551,1,2,1:2:0:0:
198,236,48704,6,0,L|314:218,1,106.25,2|4,0:0|3:0,0:0:0:0:
200,88,49008,1,2,0:0:0:0:
264,318,49160,1,2,1:2:0:0:
311,139,49313,1,2,0:0:0:0:
149,348,49465,1,4,3:0:0:0:
398,247,49617,1,0,1:0:0:0:
115,262,49770,1,4,3:0:0:0:
421,158,49922,5,2,1:2:0:0:
421,158,49998,1,2,1:2:0:0:
421,158,50074,2,0,P|438:98|426:48,1,106.25,4|0,3:0|0:0,0:0:0:0:
214,76,50379,2,0,L|333:101,1,106.25,2|0,1:2|0:0,0:0:0:0:
150,5,50683,2,0,L|31:30,1,106.25,4|0,3:0|0:0,0:0:0:0:
194,167,50988,1,2,1:2:0:0:
39,310,51140,6,0,B|119:285|119:285|154:293|154:293|253:268,1,212.5,2|0,0:0|0:0,0:0:0:0:
422,360,51597,2,0,P|370:356|330:323,1,106.25,2|2,1:2|0:0,0:0:0:0:
321,94,51902,1,4,3:0:0:0:
408,263,52054,1,0,1:0:0:0:
231,88,52206,1,4,3:0:0:0:
502,246,52358,1,2,1:2:0:0:
194,167,52511,6,0,B|84:156,1,106.25,4|0,1:0|0:0,0:0:0:0:
337,197,52815,2,0,P|338:144|321:94,1,106.25,2|0,1:2|0:0,0:0:0:0:
253,262,53120,2,0,B|264:372,1,106.25,4|0,3:0|0:0,0:0:0:0:
385,289,53424,1,2,1:2:0:0:
128,324,53577,6,0,P|75:325|25:308,1,106.25,2|4,0:0|3:0,0:0:0:0:
194,167,53881,1,2,0:0:0:0:
79,128,54033,2,0,L|93:234,1,106.25,2|2,1:2|0:0,0:0:0:0:
241,85,54338,1,4,3:0:0:0:
102,27,54490,1,0,1:0:0:0:
310,33,54643,1,4,3:0:0:0:
79,128,54795,1,2,1:2:0:0:
304,271,54947,6,0,P|309:185|329:113,1,159.375,4|0,3:0|0:0,0:0:0:0:
328,114,55252,1,2,1:2:0:0:
407,331,55404,1,2,0:0:0:0:
512,190,55556,2,0,L|402:210,1,106.25,4|0,3:0|0:0,0:0:0:0:
196,217,55861,1,2,1:2:0:0:
256,342,56013,1,2,0:0:0:0:
224,103,56165,5,4,3:0:0:0:
135,315,56318,1,2,0:0:0:0:
130,32,56470,1,0,1:0:0:0:
310,191,56622,1,4,3:0:0:0:
310,191,56698,1,4,3:0:0:0:
310,191,56775,1,4,3:0:0:0:
43,112,56927,1,0,1:0:0:0:
331,66,57079,1,0,1:0:0:0:
25,213,57231,1,0,1:0:0:0:
378,269,57384,6,0,L|477:253,1,85,6|0,1:0|0:0,0:0:0:0:
372,283,57688,2,0,L|471:267,1,85,2|0,1:0|0:0,0:0:0:0:
366,297,57993,2,0,L|465:281,1,85,2|0,1:0|0:0,0:0:0:0:
299,374,58297,5,2,1:0:0:0:
299,374,58450,2,0,P|264:337|254:290,1,85,2|0,1:0|0:0,0:0:0:0:
154,328,58754,5,2,1:0:0:0:
154,328,58907,2,0,P|155:277|181:236,1,85,2|0,1:0|0:0,0:0:0:0:
333,188,59211,6,0,L|234:172,1,85,2|0,1:0|0:0,0:0:0:0:
339,202,59515,2,0,L|240:186,1,85,2|0,1:0|0:0,0:0:0:0:
155,89,59820,6,0,L|164:142,1,42.5,2|0,0:1|0:0,0:0:0:0:
256,28,60277,2,0,L|256:79,1,42.5,2|0,0:1|0:0,0:0:0:0:
357,89,60734,2,0,L|348:142,1,42.5,2|0,0:1|0:0,0:0:0:0:
36,264,61648,6,0,P|51:223|163:218,1,159.375006079674,2|2,0:0|0:0,0:0:0:0:
206,272,62105,6,0,L|186:397,1,106.25,4|0,1:0|0:0,0:0:0:0:
422,181,62409,1,4,3:0:0:0:
153,209,62561,1,0,1:0:0:0:
332,341,62714,1,2,0:0:0:0:
296,130,62866,2,0,L|316:255,1,106.25,4|4,3:0|3:0,0:0:0:0:
78,149,63171,2,0,P|133:112|180:113,1,106.25,2|2,1:2|0:0,0:0:0:0:
497,84,63475,6,0,B|388:69,1,106.25,4|4,3:0|3:0,0:0:0:0:
391,69,63704,1,4,3:0:0:0:
391,69,63780,1,2,1:2:0:0:
321,306,63932,1,2,0:0:0:0:
252,217,64084,2,0,B|361:202,1,106.25,4|4,3:0|3:0,0:0:0:0:
213,378,64389,1,2,1:2:0:0:
62,84,64541,6,0,L|276:113,1,212.5,4|4,1:0|3:0,0:0:0:0:
187,295,64998,2,0,P|150:249|152:191,1,106.25,2|2,1:2|0:0,0:0:0:0:
394,110,65303,2,0,P|387:168|345:208,1,106.25,4|4,3:0|3:0,0:0:0:0:
299,13,65607,1,2,1:2:0:0:
252,217,65759,6,0,L|275:105,1,106.25,2|4,0:0|3:0,0:0:0:0:
483,200,66064,1,4,3:0:0:0:
483,200,66140,1,4,3:0:0:0:
483,200,66216,2,0,L|506:312,1,106.25,2|2,1:2|0:0,0:0:0:0:
336,381,66521,1,4,3:0:0:0:
315,280,66673,1,4,3:0:0:0:
315,280,66749,1,4,3:0:0:0:
315,280,66825,2,0,P|368:284|416:308,1,106.25,2|2,1:2|0:0,0:0:0:0:
195,351,67130,6,0,L|71:333,1,106.25,4|0,1:0|0:0,0:0:0:0:
273,112,67435,2,0,L|397:94,1,106.25,0|2,1:0|0:0,0:0:0:0:
170,229,67739,5,4,3:0:0:0:
133,72,67891,1,2,0:0:0:0:
274,262,68044,1,2,1:2:0:0:
56,207,68196,1,2,0:0:0:0:
353,176,68348,5,4,3:0:0:0:
297,367,68500,1,2,0:0:0:0:
297,367,68577,1,2,0:0:0:0:
297,367,68653,1,2,1:2:0:0:
252,142,68805,1,2,0:0:0:0:
426,353,68957,1,4,3:0:0:0:
191,312,69110,1,2,0:0:0:0:
468,242,69262,1,0,1:0:0:0:
177,322,69414,1,2,0:0:0:0:
369,70,69566,6,0,L|350:193,1,106.25,4|0,3:0|0:0,0:0:0:0:
151,221,69871,2,0,L|132:98,1,106.25,0|2,1:0|0:0,0:0:0:0:
325,283,70176,1,4,3:0:0:0:
251,106,70328,1,0,0:0:0:0:
177,322,70480,1,0,1:0:0:0:
352,175,70632,1,0,0:0:0:0:
36,185,70785,5,4,3:0:0:0:
244,258,70937,1,2,1:2:0:0:
244,258,71013,1,0,1:0:0:0:
244,258,71089,1,2,1:2:0:0:
297,6,71242,1,0,1:0:0:0:
251,2,71318,1,0,1:0:0:0:
209,9,71394,1,0,1:0:0:0:
169,29,71470,1,0,1:0:0:0:
138,57,71546,6,0,L|155:121,1,53.125,0|0,1:0|1:0,0:0:0:0:
355,116,71698,2,0,L|373:46,1,53.125,0|0,1:0|1:0,0:0:0:0:
147,244,71851,6,0,P|187:184|319:201,1,212.5,4|4,1:0|3:0,0:0:0:0:
250,364,72308,2,0,L|242:239,1,106.25,0|2,1:0|0:0,0:0:0:0:
457,308,72612,2,0,L|350:301,1,106.25,4|4,3:0|3:0,0:0:0:0:
40,251,72917,2,0,L|146:244,1,106.25,2|2,1:2|0:0,0:0:0:0:
354,21,73221,6,0,P|291:41|253:101,1,106.25,4|4,3:0|3:0,0:0:0:0:
265,70,73450,1,4,3:0:0:0:
265,70,73526,1,2,1:2:0:0:
447,194,73678,1,2,0:0:0:0:
342,234,73830,2,0,L|356:128,1,106.25,4|4,3:0|3:0,0:0:0:0:
239,280,74135,1,2,1:2:0:0:
486,369,74287,6,0,P|459:314|411:282,1,106.25,4|0,1:0|0:0,0:0:0:0:
229,175,74592,1,4,3:0:0:0:
256,382,74744,1,2,1:2:0:0:
447,194,74896,1,2,0:0:0:0:
239,280,75049,2,0,L|134:268,1,106.25,4|4,3:0|3:0,0:0:0:0:
355,128,75353,1,2,1:2:0:0:
326,325,75506,1,4,3:0:0:0:
262,87,75658,5,4,1:0:0:0:
504,121,75810,1,4,3:0:0:0:
229,175,75962,1,2,1:2:0:0:
510,33,76115,1,4,3:0:0:0:
215,272,76267,5,4,1:0:0:0:
180,259,76343,1,4,3:0:0:0:
152,235,76419,1,4,3:0:0:0:
134,203,76495,1,4,3:0:0:0:
128,166,76572,2,0,L|140:110,3,53.125,4|4|4|4,3:0|3:0|3:0|3:0,0:0:0:0:
237,35,76876,5,4,1:0:0:0:
118,329,77028,1,4,3:0:0:0:
13,103,77181,1,4,3:0:0:0:
207,384,77333,5,4,1:0:0:0:
270,134,77485,1,4,3:0:0:0:
3,238,77638,1,4,3:0:0:0:
360,338,77790,5,4,1:0:0:0:
98,242,77942,1,4,3:0:0:0:
98,242,78018,1,4,3:0:0:0:
98,242,78094,5,4,1:0:0:0:
396,192,78247,1,4,3:0:0:0:
207,384,78399,1,4,3:0:0:0:
76,45,78551,5,4,1:0:0:0:
207,290,78704,1,4,3:0:0:0:
319,0,78856,1,4,3:0:0:0:
111,154,79008,2,0,L|7:136,1,106.25,4|4,1:0|3:0,0:0:0:0:
7,136,79237,1,4,3:0:0:0:
7,136,79313,5,4,1:0:0:0:
45,305,79465,1,4,3:0:0:0:
76,45,79617,5,0,1:0:0:0:
129,330,79770,1,4,3:0:0:0:
185,14,79922,5,0,1:0:0:0:
213,352,80074,1,4,3:0:0:0:
303,7,80226,5,0,1:0:0:0:
294,380,80379,1,4,3:0:0:0:
420,22,80531,5,4,1:0:0:0:
501,233,80683,1,4,3:0:0:0:
486,270,80759,1,4,3:0:0:0:
457,300,80835,1,4,3:0:0:0:
421,321,80911,1,4,3:0:0:0:
380,328,80987,1,4,3:0:0:0:
339,324,81063,1,4,3:0:0:0:
301,304,81139,1,0,1:0:0:0:
271,275,81215,1,0,1:0:0:0:
252,235,81292,6,0,L|241:164,1,53.125,0|0,1:0|1:0,0:0:0:0:
406,102,81445,2,0,L|398:154,1,53.125,0|0,1:0|1:0,0:0:0:0:
146,159,81597,6,0,P|209:89|301:97,1,178.499994552612,4|4,1:0|3:0,0:0:0:0:
160,252,82054,1,2,1:2:0:0:
37,132,82206,1,2,0:0:0:0:
9,318,82358,2,0,L|24:231,1,89.2499972763062,4|4,3:0|3:0,0:0:0:0:
131,71,82663,2,0,L|146:158,1,89.2499972763062,0|0,1:0|0:0,0:0:0:0:
429,115,82967,6,0,B|358:101|358:101|316:111|316:111|240:97,1,178.499994552612,4|0,3:0|1:0,0:0:0:0:
160,252,83424,1,0,0:0:0:0:
160,252,83577,2,0,P|204:241|236:211,1,89.2499972763062,4|4,3:0|3:0,0:0:0:0:
42,116,83881,1,0,1:0:0:0:
42,376,84033,6,0,L|14:191,1,178.499994552612,4|4,1:0|3:0,0:0:0:0:
15,200,84414,1,4,3:0:0:0:
15,200,84490,1,0,1:0:0:0:
224,69,84643,1,4,3:0:0:0:
164,244,84795,1,2,1:2:0:0:
72,4,84947,1,4,3:0:0:0:
315,102,85099,1,0,1:0:0:0:
103,179,85252,1,4,3:0:0:0:
394,162,85404,5,2,1:2:0:0:
136,91,85556,1,4,3:0:0:0:
395,48,85709,1,0,1:0:0:0:
295,272,85861,1,4,3:0:0:0:
314,9,86013,1,2,1:2:0:0:
401,264,86165,1,4,3:0:0:0:
103,179,86318,1,4,1:0:0:0:
481,106,86470,5,4,1:0:0:0:
