osu file format v14

[General]
AudioFilename: TVAAPV2.mp3
AudioLeadIn: 0
PreviewTime: 47942
Countdown: 0
SampleSet: Soft
StackLeniency: 0.7
Mode: 0
LetterboxInBreaks: 0
WidescreenStoryboard: 1

[Editor]
Bookmarks: 28145,37739,71851,81597
DistanceSpacing: 1.4
BeatDivisor: 4
GridSize: 8
TimelineZoom: 2.5

[Metadata]
Title:Bull's Eye (TV Size)
TitleUnicode:Bull's Eye (TV Size)
Artist:nano
ArtistUnicode:ナノ
Creator:Nevo
Version:Froskya's Hard (feat. killian)
Source:緋弾のアリアAA
Tags:Aria the Scarlet Ammo Double A AT-X opening xchorse kyouren ascended froskya kittyadventure gokugohan12468 killian japanese rock jrock j-rock bulls Anxient revialink hidan no aria WEST GROUND
BeatmapID:4396448
BeatmapSetID:2085359

[Difficulty]
HPDrainRate:4
CircleSize:3.5
OverallDifficulty:6
ApproachRate:8
SliderMultiplier:1.2
SliderTickRate:1

[Events]
//Background and Video events
0,0,"693870.jpg",0,0
Video,-30,"aa.avi"
//Break Periods
//Storyboard Layer 0 (Background)
//Storyboard Layer 1 (Fail)
//Storyboard Layer 2 (Pass)
//Storyboard Layer 3 (Foreground)
//Storyboard Layer 4 (Overlay)
//Storyboard Sound Samples

[TimingPoints]
554,312.5,6,2,0,35,1,0
554,-125,6,2,0,35,0,0
4304,-111.111111111111,6,2,0,45,0,0
6179,-111.111111111111,6,2,0,25,0,0
6257,-111.111111111111,6,2,0,5,0,0
6647,-111.111111111111,6,2,0,25,0,0
6725,-111.111111111111,6,2,0,5,0,0
7116,-111.111111111111,6,2,0,25,0,0
7194,-111.111111111111,6,2,0,5,0,0
7450,292.682926829268,4,2,0,60,1,0
7739,-100,4,2,0,60,0,0
7889,306.122448979592,4,2,0,60,1,0
7889,-100,4,2,0,70,0,0
8500,-100,4,2,0,80,0,0
8501,304.568527918782,4,2,0,80,1,0
8653,304.568527918782,4,2,0,80,1,0
28145,-125,4,2,0,40,0,0
36673,-125,4,2,0,60,0,0
37739,-100,4,2,0,70,0,0
47637,-83.3333333333333,4,2,0,80,0,1
57383,-100,4,2,0,45,0,0
59820,-100,4,2,0,35,0,0
59896,-100,4,2,0,5,0,0
60277,-100,4,2,0,35,0,0
60353,-100,4,2,0,5,0,0
60734,-100,4,2,0,35,0,0
60810,-100,4,2,0,5,0,0
61648,-117.647058823529,4,2,0,25,0,0
62104,-86.9565217391304,4,2,0,80,0,1
81597,-95.2380952380952,4,2,0,70,0,0

[Colours]
Combo1 : 215,191,100
Combo2 : 242,115,134
Combo3 : 238,163,87
Combo4 : 255,255,0
Combo5 : 127,127,127

[HitObjects]
47,294,554,6,0,P|86:268|132:277,1,96,2|2,0:0|0:0,0:0:0:0:
183,337,1022,2,0,P|222:362|268:353,1,96,2|2,0:0|0:0,0:0:0:0:
326,299,1491,6,0,P|320:275|316:252,1,48,2|2,0:0|0:0,0:0:0:0:
394,239,1804,2,0,P|397:262|403:285,1,48,2|2,0:0|0:0,0:0:0:0:
481,270,2116,2,0,P|475:246|471:223,1,48,2|2,0:0|0:0,0:0:0:0:
466,143,2429,6,0,P|415:152|364:159,1,96,2|2,0:0|0:0,0:0:0:0:
331,89,2897,2,0,P|283:82|236:73,1,96,2|2,0:0|0:0,0:0:0:0:
166,112,3366,6,0,P|142:106|119:102,1,48,2|2,0:0|0:0,0:0:0:0:
109,182,3679,2,0,P|132:185|155:191,1,48,2|2,0:0|0:0,0:0:0:0:
140,269,3991,2,0,P|116:263|93:259,1,48,2|2,0:0|0:0,0:0:0:0:
34,202,4304,6,0,P|6:246|20:296,1,107.999996704102,2|2,0:0|0:0,0:0:0:0:
77,354,4772,2,0,P|127:368|171:340,1,107.999996704102,2|2,0:0|0:0,0:0:0:0:
232,286,5241,2,0,P|225:262|222:230,1,53.9999983520508,2|2,0:0|0:0,0:0:0:0:
209,152,5554,6,0,P|235:148|261:142,1,53.9999983520508,2|0,0:0|0:0,0:0:0:0:
250,62,5866,2,0,P|223:68|197:71,1,53.9999983520508,2|0,0:0|0:0,0:0:0:0:
115,76,6179,5,2,0:1:0:0:
108,92,6647,1,2,0:1:0:0:
105,111,7116,1,2,0:1:0:0:
105,111,7450,6,0,L|121:240,1,120,4|2,1:0|0:0,0:0:0:0:
174,293,7889,2,0,L|169:322,2,30,0|0|0,1:0|1:0|1:0,0:0:0:0:
231,231,8196,1,0,1:0:0:0:
285,295,8348,1,0,1:0:0:0:
348,239,8500,6,0,P|406:225|465:218,1,120,4|4,1:0|3:0,0:0:0:0:
455,134,8957,2,0,P|410:139|378:146,1,60,0|0,1:0|0:0,0:0:0:0:
320,103,9262,1,4,3:0:0:0:
320,103,9414,1,4,3:0:0:0:
285,179,9566,2,0,P|255:173|225:170,1,60,0|0,1:0|0:0,0:0:0:0:
164,111,9871,6,0,B|151:31|151:31|185:-12,2,120,4|0|4,3:0|1:0|3:0,0:0:0:0:
94,155,10632,1,4,3:0:0:0:
94,155,10785,1,0,1:0:0:0:
132,229,10937,6,0,B|195:245|161:278|241:295,1,120,4|4,1:0|3:0,0:0:0:0:
279,361,11394,2,0,P|308:362|334:347,1,60,2|0,1:2|0:0,0:0:0:0:
364,272,11698,1,4,3:0:0:0:
364,272,11851,1,4,3:0:0:0:
307,202,12003,2,0,P|265:210|231:215,1,60,2|0,1:2|0:0,0:0:0:0:
229,130,12308,6,0,P|287:118|347:109,2,120,4|2|4,3:0|1:2|3:0,0:0:0:0:
162,83,13069,1,4,3:0:0:0:
162,83,13221,1,2,1:2:0:0:
215,13,13374,6,0,B|234:37|234:37|333:23,1,120,4|4,1:0|3:0,0:0:0:0:
405,9,13830,2,0,L|418:73,1,60,2|2,1:2|0:0,0:0:0:0:
487,123,14135,1,4,3:0:0:0:
487,123,14287,1,4,3:0:0:0:
440,193,14440,2,0,L|376:180,1,60,2|0,1:2|0:0,0:0:0:0:
318,236,14744,6,0,P|261:248|217:210,2,120,4|2|4,3:0|1:2|3:0,0:0:0:0:
286,161,15506,1,4,3:0:0:0:
286,161,15658,1,2,1:2:0:0:
262,80,15810,6,0,B|212:92|212:92|204:109|204:109|155:120,1,120,4|4,1:0|3:0,0:0:0:0:
127,40,16267,2,0,L|68:26,1,60,2|2,1:2|0:0,0:0:0:0:
6,82,16572,1,4,3:0:0:0:
6,82,16724,1,4,3:0:0:0:
30,167,16876,5,2,1:2:0:0:
30,167,17028,2,0,L|4:310,1,120,2|0,0:0|0:0,0:0:0:0:
92,296,17485,2,0,L|104:233,1,60,2|0,1:2|0:0,0:0:0:0:
173,190,17790,1,4,3:0:0:0:
219,259,17942,2,0,L|210:305,2,30,2|0|2,1:2|1:0|1:2,0:0:0:0:
302,244,18247,6,0,B|286:327|286:327|311:352,1,120,4|4,1:0|3:0,0:0:0:0:
389,383,18704,2,0,P|421:373|457:364,1,60,2|0,1:2|0:0,0:0:0:0:
428,285,19008,1,4,3:0:0:0:
428,285,19160,1,4,3:0:0:0:
507,256,19313,2,0,P|498:227|488:188,1,60,2|0,1:2|0:0,0:0:0:0:
430,140,19617,6,0,P|444:82|457:17,2,120,4|2|4,3:0|1:2|3:0,0:0:0:0:
350,131,20379,1,4,3:0:0:0:
350,131,20531,1,2,1:2:0:0:
312,53,20683,6,0,P|263:35|204:81,1,120,4|4,1:0|3:0,0:0:0:0:
140,117,21140,2,0,P|150:145|154:174,1,60,2|2,1:2|0:0,0:0:0:0:
236,197,21445,2,0,P|225:225|221:254,1,60,4|4,3:0|3:0,0:0:0:0:
170,322,21749,1,2,1:2:0:0:
170,322,21902,1,2,0:0:0:0:
234,377,22054,6,0,P|288:351|347:341,1,120,4|2,3:0|1:2,0:0:0:0:
435,352,22511,1,2,0:0:0:0:
435,352,22663,2,0,P|435:320|410:292,1,60,4|4,3:0|3:0,0:0:0:0:
384,221,22967,5,2,1:2:0:0:
310,262,23120,2,0,P|254:240|194:233,1,120,4|4,1:0|3:0,0:0:0:0:
168,153,23577,1,2,1:2:0:0:
233,99,23729,1,2,0:0:0:0:
233,99,23881,2,0,P|222:71|217:41,2,60,4|4|2,3:0|3:0|1:2,0:0:0:0:
315,133,24338,5,0,0:0:0:0:
315,133,24490,2,0,P|360:98|421:122,2,120,4|2|4,3:0|1:2|3:0,0:0:0:0:
270,205,25252,1,4,3:0:0:0:
270,205,25404,1,2,1:2:0:0:
332,261,25556,6,0,P|316:315|299:387,1,120,4|4,1:0|3:0,0:0:0:0:
224,342,26013,2,0,P|190:353|156:365,1,60,2|0,1:2|0:0,0:0:0:0:
144,284,26318,1,4,3:0:0:0:
144,284,26470,1,4,3:0:0:0:
62,303,26622,2,0,P|51:269|39:235,1,60,2|2,1:2|0:0,0:0:0:0:
17,170,26927,5,4,3:0:0:0:
17,170,27079,1,4,3:0:0:0:
95,141,27231,1,2,1:2:0:0:
76,58,27384,2,0,L|32:69,2,30,2|0|2,1:2|1:0|1:2,0:0:0:0:
145,9,27688,1,4,3:0:0:0:
145,9,27841,2,0,L|213:21,1,60,4|4,3:0|3:0,0:0:0:0:
260,84,28145,6,0,P|245:138|231:232,1,144,4|2,1:0|0:0,0:0:0:0:
362,274,28907,1,2,0:0:0:0:
362,274,29211,2,0,P|372:202|390:133,1,144,2|2,0:0|0:0,0:0:0:0:
249,362,30277,5,2,0:0:0:0:
249,362,30582,2,0,B|207:365|183:343|183:343|157:317|115:322,1,144,4|2,3:0|0:0,0:0:0:0:
27,227,31343,1,2,0:0:0:0:
27,227,31648,2,0,L|38:164,1,48,2|0,0:0|0:0,0:0:0:0:
7,103,31952,1,2,0:0:0:0:
7,103,32105,2,0,B|50:85|50:85|88:117,1,96,2|2,0:0|0:0,0:0:0:0:
214,176,32714,5,2,0:0:0:0:
214,176,33018,2,0,P|204:133|200:82,1,96,4|0,3:0|0:0,0:0:0:0:
286,92,33475,2,0,P|289:119|293:140,1,48,2|0,0:0|0:0,0:0:0:0:
376,108,33780,1,2,0:0:0:0:
376,108,34084,2,0,B|409:146|409:146|383:294,1,192,2|0,0:0|0:0,0:0:0:0:
492,115,35150,1,2,0:0:0:0:
384,11,35455,6,0,P|326:17|299:50,1,96,2|0,0:0|0:0,0:0:0:0:
274,125,35912,1,2,0:0:0:0:
274,125,36064,2,0,P|239:156|192:156,1,96,2|2,0:0|0:0,0:0:0:0:
120,107,36521,1,2,0:0:0:0:
42,144,36673,6,0,L|22:253,1,96,2|0,0:0|0:0,0:0:0:0:
188,284,37282,5,4,3:0:0:0:
111,241,37435,1,4,3:0:0:0:
113,328,37587,1,0,1:0:0:0:
204,296,37739,6,0,B|249:290|249:290|270:301|270:301|339:292,1,120,4|4,1:0|3:0,0:0:0:0:
398,339,38196,1,0,1:0:0:0:
398,339,38348,2,0,L|418:258,1,60,4|0,3:0|0:0,0:0:0:0:
485,238,38653,2,0,L|470:179,1,60,4|2,3:0|1:2,0:0:0:0:
409,122,38957,5,2,0:0:0:0:
409,122,39110,2,0,B|341:138|370:170|288:186,2,120,4|0|4,3:0|1:0|3:0,0:0:0:0:
386,42,39871,1,4,3:0:0:0:
386,42,40023,2,0,P|352:41|311:24,1,60,2|2,1:2|0:0,0:0:0:0:
247,6,40328,6,0,P|192:26|131:36,1,120,4|0,3:0|1:0,0:0:0:0:
48,24,40785,2,0,P|43:56|58:80,1,60,4|2,3:0|0:0,0:0:0:0:
15,151,41089,2,0,P|34:177|62:183,1,60,4|2,3:0|1:2,0:0:0:0:
105,253,41394,6,0,P|133:244|173:238,1,60,2|4,0:0|3:0,0:0:0:0:
205,165,41698,1,2,0:0:0:0:
205,165,41851,2,0,P|253:133|307:154,1,120,2|4,1:2|3:0,0:0:0:0:
373,215,42308,1,4,3:0:0:0:
373,215,42460,2,0,L|356:285,1,60,2|2,1:2|0:0,0:0:0:0:
305,337,42764,6,0,B|283:303|283:303|197:317,1,120,4|0,1:0|1:0,0:0:0:0:
121,330,43221,2,0,L|110:270,1,60,4|2,3:0|0:0,0:0:0:0:
177,220,43526,2,0,L|187:160,1,60,4|2,3:0|1:2,0:0:0:0:
141,94,43830,1,2,0:2:0:0:
141,94,43983,2,0,B|89:125|89:125|28:104,2,120,4|2|4,3:0|1:2|3:0,0:0:0:0:
209,44,44744,1,4,3:0:0:0:
209,44,44896,2,0,P|241:37|275:62,1,60,2|0,1:2|0:0,0:0:0:0:
332,98,45201,6,0,P|389:80|447:66,1,120,4|2,3:0|1:2,0:0:0:0:
486,141,45658,2,0,P|477:169|471:199,1,60,4|2,3:0|0:0,0:0:0:0:
411,257,45962,2,0,P|382:248|352:242,1,60,4|2,3:0|1:2,0:0:0:0:
297,185,46267,1,2,0:0:0:0:
297,185,46419,1,4,3:0:0:0:
212,194,46572,6,0,L|222:227,2,30,0|0|0,1:0|1:0|1:0,0:0:0:0:
118,173,46877,2,0,L|128:206,2,30,0|0|0,1:0|1:0|1:0,0:0:0:0:
24,152,47181,2,0,L|34:185,2,30,0|0|0,1:0|1:0|1:0,0:0:0:0:
6,69,47485,5,0,1:0:0:0:
6,69,47561,1,0,1:0:0:0:
6,69,47638,2,0,B|78:66|46:100|138:103,1,107.999996704102,4|0,1:0|0:0,0:0:0:0:
149,93,47942,2,0,P|139:50|134:15,1,71.9999978027344,2|0,1:2|0:0,0:0:0:0:
227,8,48247,2,0,P|232:43|241:78,1,71.9999978027344,4|0,3:0|0:0,0:0:0:0:
328,112,48551,1,2,1:2:0:0:
390,41,48704,6,0,P|437:68|415:163,1,143.999995605469,2|2,0:0|0:0,0:0:0:0:
352,197,49160,2,0,P|334:239|324:289,1,71.9999978027344,2|2,1:2|0:0,0:0:0:0:
269,339,49465,1,4,3:0:0:0:
269,339,49617,1,0,1:0:0:0:
203,279,49770,1,4,3:0:0:0:
203,279,49922,1,2,1:2:0:0:
134,342,50074,6,0,P|108:306|115:255,1,71.9999978027344,4|0,3:0|0:0,0:0:0:0:
48,205,50379,2,0,P|82:195|115:180,1,71.9999978027344,2|0,1:2|0:0,0:0:0:0:
118,86,50683,2,0,B|212:103|167:156|260:169,1,143.999995605469,4|2,3:0|1:2,0:0:0:0:
283,243,51140,2,0,P|318:238|345:215,2,71.9999978027344,2|4|0,0:0|3:0|0:0,0:0:0:0:
246,329,51597,6,0,P|280:339|313:354,1,71.9999978027344,2|2,1:2|0:0,0:0:0:0:
406,383,51902,1,4,3:0:0:0:
406,383,52054,1,0,1:0:0:0:
400,293,52206,1,4,3:0:0:0:
400,293,52358,1,2,1:2:0:0:
492,277,52511,1,4,1:0:0:0:
492,90,52815,6,0,P|456:85|425:101,1,71.9999978027344,2|0,1:2|0:0,0:0:0:0:
374,179,53120,2,0,P|339:174|312:151,1,71.9999978027344,4|0,3:0|0:0,0:0:0:0:
252,78,53424,1,2,1:2:0:0:
181,137,53577,6,0,P|164:207|149:277,1,143.999995605469,2|2,0:0|0:0,0:0:0:0:
124,367,54033,2,0,P|89:358|53:351,1,71.9999978027344,2|2,1:2|0:0,0:0:0:0:
6,275,54338,1,4,3:0:0:0:
6,275,54490,1,0,1:0:0:0:
73,209,54643,1,4,3:0:0:0:
73,209,54795,1,2,1:2:0:0:
14,136,54947,6,0,P|48:126|82:114,1,71.9999978027344,4|0,3:0|0:0,0:0:0:0:
128,31,55252,1,2,1:2:0:0:
208,76,55404,1,2,0:0:0:0:
289,30,55556,2,0,B|300:91|300:91|291:109|291:109|304:180,1,143.999995605469,4|2,3:0|1:2,0:0:0:0:
277,260,56013,2,0,B|309:227|309:227|418:251,1,143.999995605469,2|2,0:0|0:0,0:0:0:0:
495,272,56470,5,0,1:0:0:0:
500,186,56622,1,4,3:0:0:0:
500,186,56698,1,4,3:0:0:0:
500,186,56775,2,0,L|424:169,1,71.9999978027344,4|0,3:0|1:0,0:0:0:0:
379,91,57079,1,0,1:0:0:0:
456,40,57231,1,0,1:0:0:0:
456,40,61648,6,0,L|435:142,1,102.000001945496,2|2,0:0|0:0,0:0:0:0:
374,205,62105,6,0,P|336:155|260:155,1,138.000002632141,4|4,1:0|3:0,0:0:0:0:
191,202,62561,1,0,1:0:0:0:
241,276,62714,1,2,0:0:0:0:
161,317,62866,2,0,P|153:350|146:384,2,69.0000013160706,4|4|2,3:0|3:0|1:2,0:0:0:0:
111,241,63323,1,2,0:0:0:0:
22,255,63475,6,0,P|16:222|10:187,1,69.0000013160706,4|4,3:0|3:0,0:0:0:0:
52,166,63704,1,4,3:0:0:0:
52,166,63780,2,0,P|58:133|64:98,1,69.0000013160706,2|2,1:2|0:0,0:0:0:0:
77,9,64084,2,0,L|161:21,1,69.0000013160706,4|4,3:0|3:0,0:0:0:0:
204,86,64389,1,2,1:2:0:0:
292,101,64541,6,0,P|281:164|261:299,1,138.000002632141,4|4,1:0|3:0,0:0:0:0:
205,300,64998,1,2,1:2:0:0:
262,368,65150,1,2,0:0:0:0:
343,325,65303,2,0,P|376:325|402:303,1,69.0000013160706,4|4,3:0|3:0,0:0:0:0:
470,244,65607,1,2,1:2:0:0:
402,185,65759,6,0,P|390:133|389:113,1,69.0000013160706,2|4,0:0|3:0,0:0:0:0:
375,37,66064,1,4,3:0:0:0:
375,37,66140,1,4,3:0:0:0:
375,37,66216,1,2,1:2:0:0:
303,92,66369,2,0,B|236:99|236:99|221:127|221:127|153:138,1,138.000002632141,2|4,0:0|3:0,0:0:0:0:
142,142,66749,1,4,3:0:0:0:
142,142,66825,1,2,1:2:0:0:
81,75,66978,1,2,0:0:0:0:
25,143,67130,6,0,B|11:238|11:238|44:262,1,138.000002632141,4|0,1:0|1:0,0:0:0:0:
83,344,67587,1,2,0:0:0:0:
157,293,67739,2,0,P|193:259|257:266,1,103.500001974106,4|0,3:0|0:0,0:0:0:0:
287,273,68044,2,0,P|295:235|307:190,1,69.0000013160706,2|2,1:2|0:0,0:0:0:0:
237,144,68348,5,4,3:0:0:0:
258,57,68500,2,0,L|341:44,1,69.0000013160706,2|2,0:0|1:2,0:0:0:0:
392,107,68805,1,2,0:0:0:0:
473,68,68957,2,0,L|483:0,2,69.0000013160706,4|2|0,3:0|0:0|1:0,0:0:0:0:
509,150,69414,1,2,0:0:0:0:
444,212,69566,6,0,P|407:220|357:233,1,69.0000013160706,4|0,3:0|0:0,0:0:0:0:
287,213,69871,2,0,P|295:246|302:280,1,69.0000013160706,0|2,1:0|0:0,0:0:0:0:
265,362,70176,2,0,P|231:360|203:339,1,69.0000013160706,4|0,3:0|0:0,0:0:0:0:
118,366,70480,2,0,P|95:340|90:306,1,69.0000013160706,0|0,1:0|0:0,0:0:0:0:
160,250,70785,5,4,3:0:0:0:
99,199,70937,1,2,1:2:0:0:
99,199,71013,1,0,1:0:0:0:
99,199,71089,2,0,L|109:117,1,69.0000013160706,2|0,1:2|1:0,0:0:0:0:
52,58,71394,2,0,L|5:62,2,34.5000006580353,0|0|0,1:0|1:0|1:0,0:0:0:0:
123,4,71698,1,0,1:0:0:0:
202,47,71851,6,0,B|239:40|265:61|265:61|294:80|334:73,1,138.000002632141,4|4,1:0|3:0,0:0:0:0:
416,107,72308,2,0,P|400:142|397:175,1,69.0000013160706,0|2,1:0|0:0,0:0:0:0:
472,223,72612,2,0,P|486:253|491:288,1,69.0000013160706,4|4,3:0|3:0,0:0:0:0:
446,365,72916,1,2,1:2:0:0:
367,332,73069,5,2,0:0:0:0:
367,332,73221,2,0,B|328:325|328:325|298:333|298:333|251:324,1,103.500001974106,4|4,3:0|3:0,0:0:0:0:
245,335,73526,1,2,1:2:0:0:
187,273,73678,1,2,0:0:0:0:
187,273,73830,2,0,L|202:184,1,69.0000013160706,4|4,3:0|3:0,0:0:0:0:
150,129,74135,1,2,1:2:0:0:
210,62,74287,6,0,P|145:75|57:76,1,138.000002632141,4|4,1:0|3:0,0:0:0:0:
19,149,74744,1,2,1:2:0:0:
56,230,74896,1,2,0:0:0:0:
14,309,75049,2,0,P|49:316|91:329,1,69.0000013160706,4|4,3:0|3:0,0:0:0:0:
149,382,75353,5,2,1:2:0:0:
149,382,75506,2,0,P|182:372|215:365,1,69.0000013160706,4|4,3:0|1:0,0:0:0:0:
297,325,75810,1,4,3:0:0:0:
297,325,75963,2,0,P|330:334|363:341,1,69.0000013160706,2|4,1:2|3:0,0:0:0:0:
448,311,76267,2,0,L|455:352,2,34.5000006580353,4|4|4,1:0|3:0|3:0,0:0:0:0:
499,237,76572,2,0,P|512:189|487:134,1,103.500001974106,4|4,3:0|3:0,0:0:0:0:
479,126,76876,5,4,1:0:0:0:
415,62,77028,2,0,L|343:49,1,69.0000013160706,4|4,3:0|3:0,0:0:0:0:
267,92,77333,2,0,B|249:109|249:109|257:154,1,69.0000013160706,4|4,1:0|3:0,0:0:0:0:
313,223,77638,2,0,B|330:240|330:240|322:285,1,69.0000013160706,4|4,3:0|1:0,0:0:0:0:
287,368,77942,5,4,3:0:0:0:
287,368,78018,1,4,3:0:0:0:
287,368,78094,2,0,L|369:382,2,69.0000013160706,4|4|4,1:0|3:0|3:0,0:0:0:0:
209,315,78551,2,0,L|197:382,2,69.0000013160706,4|4|4,1:0|3:0|3:0,0:0:0:0:
138,258,79008,1,4,1:0:0:0:
214,208,79160,5,4,3:0:0:0:
214,208,79237,1,4,3:0:0:0:
214,208,79313,2,0,B|227:177|227:177|215:142,1,69.0000013160706,4|4,1:0|3:0,0:0:0:0:
161,72,79617,1,0,1:0:0:0:
230,14,79770,2,0,P|268:10|320:-3,1,69.0000013160706,4|0,3:0|1:0,0:0:0:0:
371,54,80074,2,0,P|409:58|461:71,1,69.0000013160706,4|0,3:0|1:0,0:0:0:0:
504,126,80379,1,4,3:0:0:0:
458,203,80531,6,0,P|390:212|325:237,1,138.000002632141,4|4,1:0|3:0,0:0:0:0:
265,303,80988,2,0,L|256:355,2,34.5000006580353,4|4|0,3:0|3:0|1:0,0:0:0:0:
198,260,81292,1,0,1:0:0:0:
198,260,81369,1,0,1:0:0:0:
198,260,81445,1,0,1:0:0:0:
112,313,81597,6,0,P|101:257|87:185,1,125.999996154785,4|4,1:0|3:0,0:0:0:0:
36,116,82054,2,0,P|65:105|95:96,1,62.9999980773926,2|2,1:2|0:0,0:0:0:0:
155,23,82358,1,4,3:0:0:0:
155,23,82511,1,4,3:0:0:0:
234,60,82663,2,0,P|222:89|213:119,1,62.9999980773926,0|0,1:0|0:0,0:0:0:0:
185,203,82967,6,0,P|236:170|297:188,2,125.999996154785,4|0|4,3:0|1:0|3:0,0:0:0:0:
253,267,83729,1,4,3:0:0:0:
253,267,83881,1,0,1:0:0:0:
212,345,84033,6,0,P|274:353|340:369,1,125.999996154785,4|4,1:0|3:0,0:0:0:0:
381,355,84414,1,4,3:0:0:0:
381,355,84490,2,0,P|361:319|369:278,1,62.9999980773926,0|4,1:0|3:0,0:0:0:0:
440,254,84795,1,6,1:2:0:0:
440,254,84947,1,4,3:0:0:0:
423,167,85099,2,0,P|392:173|360:178,1,62.9999980773926,0|4,1:0|3:0,0:0:0:0:
346,95,85404,5,2,1:2:0:0:
346,95,85556,1,4,3:0:0:0:
258,106,85708,2,0,P|253:74|247:43,1,62.9999980773926,0|4,1:0|3:0,0:0:0:0:
163,36,86013,1,2,1:2:0:0:
163,36,86165,1,4,3:0:0:0:
120,115,86318,5,4,1:0:0:0:
188,165,86470,1,4,1:0:0:0:
