osu file format v14

[General]
AudioFilename: TVAAPV2.mp3
AudioLeadIn: 0
PreviewTime: 47942
Countdown: 0
SampleSet: Soft
StackLeniency: 0.3
Mode: 0
LetterboxInBreaks: 0
WidescreenStoryboard: 1

[Editor]
Bookmarks: 7435,28145,37891,47942,57384,62257
DistanceSpacing: 1
BeatDivisor: 4
GridSize: 8
TimelineZoom: 2.3

[Metadata]
Title:Bull's Eye (TV Size)
TitleUnicode:Bull's Eye (TV Size)
Artist:nano
ArtistUnicode:ナノ
Creator:Nevo
Version:Ascended's Normal
Source:緋弾のアリアAA
Tags:Aria the Scarlet Ammo Double A AT-X opening xchorse kyouren ascended froskya kittyadventure gokugohan12468 killian japanese rock jrock j-rock bulls Anxient revialink hidan no aria WEST GROUND
BeatmapID:4396447
BeatmapSetID:2085359

[Difficulty]
HPDrainRate:4
CircleSize:3.5
OverallDifficulty:4
ApproachRate:5.5
SliderMultiplier:0.999999999999999
SliderTickRate:1

[Events]
//Background and Video events
0,0,"693870.jpg",0,0
Video,-30,"aa.avi"
//Break Periods
2,28345,35548
2,57583,60523
//Storyboard Layer 0 (Background)
//Storyboard Layer 1 (Fail)
//Storyboard Layer 2 (Pass)
//Storyboard Layer 3 (Foreground)
//Storyboard Layer 4 (Overlay)
//Storyboard Sound Samples

[TimingPoints]
554,312.5,6,2,0,35,1,0
4304,-100,6,2,0,45,0,0
6179,-100,6,2,0,25,0,0
6257,-100,6,2,0,5,0,0
6647,-100,6,2,0,25,0,0
6725,-100,6,2,0,5,0,0
7116,-100,6,2,0,25,0,0
7194,-100,6,2,0,5,0,0
7450,292.682926829268,4,2,0,60,1,0
7739,-100,4,2,0,60,0,0
7889,306.122448979592,4,2,0,60,1,0
7889,-100,4,2,0,70,0,0
8500,-100,4,2,0,80,0,0
8501,304.568527918782,4,2,0,80,1,0
8653,304.568527918782,4,2,0,80,1,0
28145,-100,4,2,0,40,0,0
36673,-100,4,2,0,60,0,0
37739,-100,4,2,0,70,0,0
47638,-100,4,2,0,80,0,0
57384,-100,4,2,0,50,0,0
59820,-100,4,2,0,35,0,0
59896,-100,4,2,0,5,0,0
60277,-100,4,2,0,35,0,0
60353,-100,4,2,0,5,0,0
60734,-100,4,2,0,35,0,0
60810,-100,4,2,0,5,0,0
61648,-100,4,2,0,25,0,0
62105,-90.9090909090909,4,2,0,80,0,0
81597,-90.9090909090909,4,2,0,70,0,0
81902,-100,4,2,0,70,0,0

[Colours]
Combo1 : 215,191,100
Combo2 : 242,115,134
Combo3 : 238,163,87
Combo4 : 255,255,0
Combo5 : 127,127,127

[HitObjects]
256,192,554,12,2,6179,0:1:0:0:
255,193,7450,6,0,B|229:149|229:149|251:94,1,99.9999999999999,4|2,1:0|0:0,0:0:0:0:
292,80,7889,1,0,1:0:0:0:
292,80,8042,2,0,P|323:81|352:78,1,50,0|0,1:0|1:0,0:0:0:0:
387,58,8348,1,0,1:0:0:0:
387,58,8500,1,4,1:0:0:0:
458,148,8805,5,4,3:0:0:0:
458,148,8957,2,0,L|449:205,1,50,0|0,1:0|0:0,0:0:0:0:
417,235,9262,2,0,L|426:292,2,50,4|4|0,3:0|3:0|1:0,0:0:0:0:
322,266,9871,2,0,P|274:289|221:282,1,99.9999999999999,4|0,3:0|1:0,0:0:0:0:
169,366,10480,2,0,P|136:360|116:358,1,50,4|4,3:0|3:0,0:0:0:0:
78,384,10785,1,0,1:0:0:0:
78,384,10937,1,4,1:0:0:0:
38,297,11242,5,4,3:0:0:0:
38,297,11394,1,2,1:2:0:0:
45,197,11698,2,0,P|72:200|95:201,1,50,4|4,3:0|3:0,0:0:0:0:
144,192,12003,1,2,1:2:0:0:
232,239,12308,2,0,P|281:232|331:230,1,99.9999999999999,4|2,3:0|1:2,0:0:0:0:
431,225,12917,2,0,P|427:197|427:174,1,50,4|4,3:0|3:0,0:0:0:0:
466,144,13221,5,2,1:2:0:0:
466,144,13374,2,0,P|473:97|434:50,1,99.9999999999999,4|4,1:0|3:0,0:0:0:0:
411,17,13830,2,0,P|383:20|360:21,1,50,2|2,1:2|0:0,0:0:0:0:
326,56,14135,2,0,P|298:52|275:52,2,50,4|4|2,3:0|3:0|1:2,0:0:0:0:
323,156,14744,2,0,L|215:172,1,99.9999999999999,4|2,3:0|1:2,0:0:0:0:
137,120,15353,1,4,3:0:0:0:
137,120,15506,2,0,P|141:84|141:54,1,50,4|2,3:0|1:2,0:0:0:0:
113,29,15810,6,0,P|64:35|39:84,1,99.9999999999999,4|4,1:0|3:0,0:0:0:0:
3,110,16267,1,2,1:2:0:0:
54,195,16572,2,0,P|58:231|58:261,1,50,4|4,3:0|3:0,0:0:0:0:
25,281,16876,1,2,1:2:0:0:
79,364,17181,2,0,P|103:360|128:359,1,50,4|0,3:0|0:0,0:0:0:0:
164,325,17485,2,0,P|188:328|213:329,1,50,2|0,1:2|0:0,0:0:0:0:
262,355,17790,1,4,3:0:0:0:
262,355,17942,2,0,P|286:351|311:350,1,50,2|2,1:2|1:2,0:0:0:0:
361,344,18247,5,4,1:0:0:0:
355,244,18551,1,4,3:0:0:0:
355,244,18704,2,0,P|330:240|305:239,1,50,2|0,1:2|0:0,0:0:0:0:
264,210,19008,2,0,P|239:213|214:214,2,50,4|4|2,3:0|3:0|1:2,0:0:0:0:
225,117,19617,2,0,P|244:68|287:58,1,99.9999999999999,4|2,3:0|1:2,0:0:0:0:
373,7,20226,2,0,P|397:10|422:11,1,50,4|4,3:0|3:0,0:0:0:0:
467,44,20531,1,2,1:2:0:0:
467,44,20683,1,4,1:0:0:0:
505,141,20988,5,4,3:0:0:0:
505,141,21140,2,0,P|501:165|500:190,1,50,2|2,1:2|0:0,0:0:0:0:
457,217,21445,2,0,P|453:241|452:266,1,50,4|4,3:0|3:0,0:0:0:0:
474,310,21749,2,0,P|470:334|469:359,1,50,2|2,1:2|0:0,0:0:0:0:
421,375,22054,1,4,3:0:0:0:
346,308,22358,2,0,P|321:304|296:303,1,50,2|2,1:2|0:0,0:0:0:0:
265,342,22663,2,0,P|240:338|215:337,1,50,4|4,3:0|3:0,0:0:0:0:
177,314,22967,1,2,1:2:0:0:
177,314,23120,1,4,1:0:0:0:
82,337,23424,5,4,3:0:0:0:
82,337,23577,2,0,P|78:312|77:287,1,50,2|2,1:2|0:0,0:0:0:0:
48,246,23881,2,0,L|-7:252,2,50,4|4|2,3:0|3:0|1:2,0:0:0:0:
112,169,24490,2,0,L|219:188,1,99.9999999999999,4|2,3:0|1:2,0:0:0:0:
290,246,25099,1,4,3:0:0:0:
290,246,25252,2,0,P|320:241|348:242,1,50,4|2,3:0|1:2,0:0:0:0:
383,265,25556,6,0,P|447:251|460:210,1,99.9999999999999,4|4,1:0|3:0,0:0:0:0:
495,189,26013,1,2,1:2:0:0:
510,89,26318,2,0,P|485:88|460:84,1,50,4|4,3:0|3:0,0:0:0:0:
423,50,26622,1,2,1:2:0:0:
323,60,26927,2,0,P|298:60|273:64,1,50,4|4,3:0|3:0,0:0:0:0:
230,51,27231,1,2,1:2:0:0:
230,51,27384,2,0,L|223:2,2,50,2|2|4,1:2|1:2|3:0,0:0:0:0:
198,90,27841,1,4,3:0:0:0:
237,181,28145,5,4,1:0:0:0:
427,60,36673,6,0,B|460:96|460:96|435:210,1,150,2|2,0:0|0:0,0:0:0:0:
399,226,37282,1,4,3:0:0:0:
399,226,37435,2,0,L|346:214,1,50,4|0,3:0|1:0,0:0:0:0:
315,179,37739,6,0,B|237:163|241:214|166:200,1,150,4|0,1:0|1:0,0:0:0:0:
130,169,38348,1,4,3:0:0:0:
44,221,38653,2,0,P|41:247|44:272,1,50,4|2,3:0|1:2,0:0:0:0:
25,317,38957,2,0,P|75:319|116:358,1,99.9999999999999,2|0,0:0|0:0,0:0:0:0:
155,374,39414,1,0,1:0:0:0:
234,313,39719,2,0,P|257:319|295:322,1,50,4|4,3:0|3:0,0:0:0:0:
321,353,40023,1,2,1:2:0:0:
413,314,40328,6,0,P|429:267|423:217,1,99.9999999999999,4|0,3:0|1:0,0:0:0:0:
392,177,40785,1,4,3:0:0:0:
298,213,41089,2,0,L|226:202,1,50,4|2,3:0|1:2,0:0:0:0:
199,193,41394,1,2,0:0:0:0:
109,230,41698,1,2,0:0:0:0:
109,230,41851,2,0,L|88:117,1,99.9999999999999,2|4,1:2|3:0,0:0:0:0:
59,100,42308,1,4,3:0:0:0:
59,100,42460,2,0,L|68:44,1,50,2|2,1:2|0:0,0:0:0:0:
110,25,42764,6,0,P|159:42|216:31,1,99.9999999999999,4|0,1:0|1:0,0:0:0:0:
242,69,43221,1,4,3:0:0:0:
341,53,43526,2,0,L|402:40,1,50,4|2,3:0|1:2,0:0:0:0:
430,71,43830,2,0,L|417:179,1,99.9999999999999,2|2,0:2|0:0,0:0:0:0:
426,219,44287,1,2,1:2:0:0:
328,242,44592,2,0,P|295:232|260:225,1,50,4|4,3:0|3:0,0:0:0:0:
246,191,44896,1,2,1:2:0:0:
152,227,45201,6,0,P|93:238|74:292,1,99.9999999999999,4|2,3:0|1:2,0:0:0:0:
38,304,45658,1,4,3:0:0:0:
115,366,45962,2,0,P|142:360|180:359,1,50,4|2,3:0|1:2,0:0:0:0:
204,327,46267,1,2,0:0:0:0:
204,327,46419,2,0,P|231:333|269:334,1,50,4|0,3:0|1:0,0:0:0:0:
295,362,46724,2,0,P|345:341|398:352,1,99.9999999999999,0|0,1:0|1:0,0:0:0:0:
486,326,47333,2,0,P|484:283|484:255,1,50,0|0,1:0|1:0,0:0:0:0:
475,226,47638,1,4,1:0:0:0:
375,234,47942,5,2,1:2:0:0:
277,211,48247,2,0,P|216:210|165:211,1,99.9999999999999,4|2,3:0|1:2,0:0:0:0:
143,248,48704,2,0,P|82:247|31:248,1,99.9999999999999,2|2,0:0|0:0,0:0:0:0:
17,205,49160,1,2,1:2:0:0:
32,106,49465,2,0,P|56:106|81:105,1,50,4|0,3:0|1:0,0:0:0:0:
111,64,49770,2,0,P|135:64|160:63,1,50,4|2,3:0|1:2,0:0:0:0:
210,88,50074,5,4,3:0:0:0:
278,15,50379,2,0,P|302:15|327:15,1,50,2|2,1:2|1:2,0:0:0:0:
344,62,50683,2,0,P|393:61|443:62,1,99.9999999999999,4|2,3:0|1:2,0:0:0:0:
479,105,51140,1,2,0:0:0:0:
479,105,51292,1,4,3:0:0:0:
431,193,51597,1,2,1:2:0:0:
330,196,51902,2,0,L|274:197,1,50,4|0,3:0|1:0,0:0:0:0:
233,179,52206,2,0,L|177:178,1,50,4|2,3:0|1:2,0:0:0:0:
132,182,52511,1,4,1:0:0:0:
60,264,52815,5,2,1:2:0:0:
115,356,53120,2,0,P|176:355|227:356,1,99.9999999999999,4|2,3:0|1:2,0:0:0:0:
259,333,53577,2,0,P|320:332|371:333,1,99.9999999999999,2|2,0:0|0:0,0:0:0:0:
402,307,54033,1,2,1:2:0:0:
357,217,54338,2,0,P|332:217|307:216,1,50,4|0,3:0|1:0,0:0:0:0:
273,186,54643,1,4,3:0:0:0:
273,186,54795,2,0,P|248:186|223:185,1,50,2|4,1:2|3:0,0:0:0:0:
137,236,55252,6,0,P|111:217|104:191,1,50,2|2,1:2|0:0,0:0:0:0:
59,180,55556,2,0,P|45:131|55:73,1,99.9999999999999,4|2,3:0|1:2,0:0:0:0:
75,38,56013,1,2,0:0:0:0:
173,75,56318,1,2,0:0:0:0:
173,75,56470,2,0,P|199:64|231:59,1,50,0|4,1:0|3:0,0:0:0:0:
249,18,56775,2,0,P|275:29|307:34,1,50,4|0,3:0|1:0,0:0:0:0:
336,62,57079,2,0,L|395:46,2,50,0|0|6,1:0|1:0|1:0,0:0:0:0:
486,360,61648,6,0,P|480:306|490:256,1,99.9999999999999,2|2,0:0|0:0,0:0:0:0:
444,228,62105,6,0,B|392:214|389:247|336:234,1,110.000003356934,4|4,1:0|3:0,0:0:0:0:
290,203,62561,2,0,P|253:211|217:214,1,55.0000016784668,0|2,1:0|0:0,0:0:0:0:
206,259,62866,2,0,P|214:296|217:332,2,55.0000016784668,4|4|2,3:0|3:0|1:2,0:0:0:0:
157,246,63323,1,2,0:0:0:0:
157,246,63475,1,4,3:0:0:0:
55,203,63780,2,0,P|51:145|95:110,1,110.000003356934,2|4,1:2|3:0,0:0:0:0:
108,61,64237,2,0,P|145:69|181:72,1,55.0000016784668,4|2,3:0|1:2,0:0:0:0:
206,38,64541,6,0,L|226:156,1,110.000003356934,4|4,1:0|3:0,0:0:0:0:
269,178,64998,2,0,P|261:215|258:251,1,55.0000016784668,2|2,1:2|0:0,0:0:0:0:
248,286,65303,1,4,3:0:0:0:
321,374,65607,1,2,1:2:0:0:
321,374,65759,2,0,P|395:362|410:320,1,110.000003356934,2|4,0:0|3:0,0:0:0:0:
458,314,66216,1,2,1:2:0:0:
443,209,66521,1,4,3:0:0:0:
443,209,66673,2,0,L|500:197,2,55.0000016784668,4|2|2,3:0|1:2|0:0,0:0:0:0:
411,163,67130,6,0,P|432:111|420:50,1,110.000003356934,4|0,1:0|1:0,0:0:0:0:
392,20,67587,1,2,0:0:0:0:
392,20,67739,2,0,P|332:32|265:40,1,110.000003356934,4|2,3:0|1:2,0:0:0:0:
247,79,68196,1,2,0:0:0:0:
247,79,68348,2,0,P|208:72|173:70,2,55.0000016784668,4|2|2,3:0|0:0|1:2,0:0:0:0:
295,177,68957,2,0,P|288:216|286:251,1,55.0000016784668,4|2,3:0|0:0,0:0:0:0:
241,263,69262,2,0,P|248:302|250:337,1,55.0000016784668,0|2,1:0|0:0,0:0:0:0:
264,369,69566,6,0,P|212:345|154:355,1,110.000003356934,4|0,3:0|1:0,0:0:0:0:
51,342,70176,2,0,P|27:290|37:232,1,110.000003356934,4|0,3:0|1:0,0:0:0:0:
64,133,70785,2,0,P|93:138|130:139,1,55.0000016784668,4|2,3:0|1:2,0:0:0:0:
170,156,71089,1,2,1:2:0:0:
159,50,71394,1,0,1:0:0:0:
159,50,71546,2,0,P|186:48|213:43,1,55.0000016784668,0|0,1:0|1:0,0:0:0:0:
260,71,71851,6,0,B|316:58|307:95|379:83,1,110.000003356934,4|4,1:0|3:0,0:0:0:0:
415,57,72308,1,0,1:0:0:0:
503,123,72612,2,0,P|499:154|496:190,1,55.0000016784668,4|4,3:0|3:0,0:0:0:0:
454,213,72917,2,0,P|423:209|387:206,1,55.0000016784668,2|2,1:2|0:0,0:0:0:0:
357,242,73221,2,0,P|296:227|256:257,1,110.000003356934,4|2,3:0|1:2,0:0:0:0:
213,232,73678,1,2,0:0:0:0:
213,232,73830,2,0,P|169:277|175:326,1,110.000003356934,4|2,3:0|1:2,0:0:0:0:
206,364,74287,1,4,1:0:0:0:
309,324,74592,5,4,3:0:0:0:
309,324,74744,2,0,L|366:333,1,55.0000016784668,2|2,1:2|0:0,0:0:0:0:
407,366,75049,2,0,P|457:348|469:283,1,110.000003356934,4|2,3:0|1:2,0:0:0:0:
452,251,75506,1,4,3:0:0:0:
452,251,75658,1,4,1:0:0:0:
497,151,75962,1,2,1:2:0:0:
448,52,76267,2,0,P|415:60|388:61,1,55.0000016784668,4|4,1:0|3:0,0:0:0:0:
350,94,76572,2,0,P|317:86|290:85,1,55.0000016784668,4|4,3:0|3:0,0:0:0:0:
245,75,76876,5,4,1:0:0:0:
245,75,77028,1,4,3:0:0:0:
205,177,77333,1,4,1:0:0:0:
253,281,77638,1,4,3:0:0:0:
253,281,77790,2,0,P|246:320|243:347,1,55.0000016784668,4|4,1:0|3:0,0:0:0:0:
196,362,78094,2,0,P|157:355|130:352,1,55.0000016784668,4|4,1:0|3:0,0:0:0:0:
96,370,78399,1,4,3:0:0:0:
96,370,78551,1,4,1:0:0:0:
23,294,78856,1,4,3:0:0:0:
23,294,79008,1,4,1:0:0:0:
65,192,79313,6,0,P|62:164|57:137,1,55.0000016784668,4|4,1:0|3:0,0:0:0:0:
86,91,79617,2,0,P|113:88|140:83,1,55.0000016784668,0|4,1:0|3:0,0:0:0:0:
183,117,79922,2,0,P|210:119|237:124,1,55.0000016784668,0|4,1:0|3:0,0:0:0:0:
281,92,80226,2,0,P|308:89|335:84,1,55.0000016784668,0|4,1:0|3:0,0:0:0:0:
385,107,80531,1,4,1:0:0:0:
333,204,80836,1,4,3:0:0:0:
333,204,80988,2,0,L|323:270,1,55.0000016784668,4|0,3:0|1:0,0:0:0:0:
358,301,81292,2,0,L|424:311,1,55.0000016784668,0|0,1:0|1:0,0:0:0:0:
461,283,81597,1,4,1:0:0:0:
477,187,81902,5,4,3:0:0:0:
477,187,82054,1,2,1:2:0:0:
487,87,82358,2,0,L|435:81,1,50,4|4,3:0|3:0,0:0:0:0:
407,40,82663,2,0,P|360:62|310:59,1,99.9999999999999,0|4,1:0|3:0,0:0:0:0:
228,6,83272,1,0,1:0:0:0:
162,81,83577,2,0,P|129:77|109:75,1,50,4|4,3:0|3:0,0:0:0:0:
68,64,83881,5,0,1:0:0:0:
68,64,84033,2,0,L|80:177,1,99.9999999999999,4|4,1:0|3:0,0:0:0:0:
41,198,84490,2,0,P|37:222|36:247,1,50,0|4,1:0|3:0,0:0:0:0:
63,290,84795,2,0,P|87:294|112:295,1,50,2|4,1:2|3:0,0:0:0:0:
151,263,85099,1,0,1:0:0:0:
237,313,85404,2,0,P|261:308|286:307,1,50,2|4,1:2|3:0,0:0:0:0:
329,281,85709,2,0,P|353:285|378:286,1,50,0|4,1:0|3:0,0:0:0:0:
383,335,86013,2,0,B|435:324|429:354|487:344,1,99.9999999999999,2|4,1:2|1:0,0:0:0:0:
507,302,86470,1,4,1:0:0:0:
