osu file format v14

[General]
AudioFilename: TVAAPV2.mp3
AudioLeadIn: 0
PreviewTime: 47942
Countdown: 0
SampleSet: Soft
StackLeniency: 0.6
Mode: 0
LetterboxInBreaks: 0
WidescreenStoryboard: 1

[Editor]
Bookmarks: 28145,37891,47942,57384
DistanceSpacing: 1.2
BeatDivisor: 4
GridSize: 32
TimelineZoom: 2.3

[Metadata]
Title:Bull's Eye (TV Size)
TitleUnicode:Bull's Eye (TV Size)
Artist:nano
ArtistUnicode:ナノ
Creator:Nevo
Version:Anxient's Extra
Source:緋弾のアリアAA
Tags:Aria the Scarlet Ammo Double A AT-X opening xchorse kyouren ascended froskya kittyadventure gokugohan12468 killian japanese rock jrock j-rock bulls Anxient revialink hidan no aria WEST GROUND
BeatmapID:4406382
BeatmapSetID:2085359

[Difficulty]
HPDrainRate:5
CircleSize:4
OverallDifficulty:9
ApproachRate:9.3
SliderMultiplier:1.8
SliderTickRate:1

[Events]
//Background and Video events
0,0,"anxientbg.jpg",0,0
Video,-30,"aa.avi"
//Break Periods
2,57583,59266
//Storyboard Layer 0 (Background)
//Storyboard Layer 1 (Fail)
//Storyboard Layer 2 (Pass)
//Storyboard Layer 3 (Foreground)
//Storyboard Layer 4 (Overlay)
//Storyboard Sound Samples

[TimingPoints]
554,312.5,6,2,0,35,1,0
1491,-142.857142857143,6,2,0,35,0,0
4304,-142.857142857143,6,2,0,45,0,0
6179,-142.857142857143,6,2,0,25,0,0
6257,-142.857142857143,6,2,0,5,0,0
6647,-142.857142857143,6,2,0,25,0,0
6725,-142.857142857143,6,2,0,5,0,0
7116,-142.857142857143,6,2,0,25,0,0
7194,-142.857142857143,6,2,0,5,0,0
7450,292.682926829268,4,2,0,60,1,0
7450,-76.9230769230769,4,2,0,60,0,0
7663,-76.9230769230769,4,2,0,70,0,0
7739,-76.9230769230769,4,2,0,60,0,0
7889,306.122448979592,4,2,0,60,1,0
7889,-76.9230769230769,4,2,0,70,0,0
8501,304.568527918782,4,2,0,60,1,0
8501,-76.9230769230769,4,2,0,80,0,0
8653,304.568527918782,4,2,0,60,1,0
8653,-76.9230769230769,4,2,0,80,0,0
28145,-76.9230769230769,4,2,0,40,0,0
28450,-76.9230769230769,4,2,0,40,0,0
28602,-142.857142857143,4,2,0,40,0,0
30886,-142.857142857143,4,2,0,40,0,0
31039,-142.857142857143,4,2,0,40,0,0
32409,-142.857142857143,4,2,0,40,0,0
32714,-142.857142857143,4,2,0,40,0,0
33323,-142.857142857143,4,2,0,40,0,0
33475,-142.857142857143,4,2,0,40,0,0
35378,-142.857142857143,4,2,0,40,0,0
35455,-142.857142857143,4,2,0,40,0,0
36597,-142.857142857143,4,2,0,40,0,0
36673,-100,4,2,0,40,0,0
37587,-62.5,4,2,0,60,0,0
37739,-62.5,4,2,0,70,0,0
38348,-76.9230769230769,4,2,0,70,0,0
47637,-71.4285714285714,4,2,0,80,0,1
51597,-58.8235294117647,4,2,0,80,0,1
52511,-71.4285714285714,4,2,0,80,0,1
57383,-71.4285714285714,4,2,0,45,0,0
59820,-200,4,2,0,35,0,0
59896,-200,4,2,0,5,0,0
60276,-200,4,2,0,35,0,0
60353,-200,4,2,0,5,0,0
60733,-200,4,2,0,35,0,0
60810,-200,4,2,0,5,0,0
61648,-200,4,2,0,25,0,0
62104,-66.6666666666667,4,2,0,80,0,1
81597,-66.6666666666667,4,2,0,70,0,0

[Colours]
Combo1 : 215,191,100
Combo2 : 242,115,134
Combo3 : 238,163,87
Combo4 : 255,255,0
Combo5 : 127,127,127

[HitObjects]
24,349,554,5,2,0:0:0:0:
95,326,710,1,2,0:0:0:0:
19,332,866,1,2,0:0:0:0:
166,271,1022,5,2,0:0:0:0:
237,294,1179,1,2,0:0:0:0:
161,288,1335,1,2,0:0:0:0:
232,383,1491,6,0,P|262:371|293:367,1,62.9999999999999,2|2,0:0|0:0,0:0:0:0:
352,255,1804,2,0,P|382:267|413:271,1,62.9999999999999,2|2,0:0|0:0,0:0:0:0:
447,339,2116,2,0,P|477:327|508:323,1,62.9999999999999,2|2,0:0|0:0,0:0:0:0:
488,197,2429,5,2,0:0:0:0:
417,220,2585,1,2,0:0:0:0:
493,214,2741,1,2,0:0:0:0:
346,275,2897,5,2,0:0:0:0:
275,252,3053,1,2,0:0:0:0:
351,258,3210,1,2,0:0:0:0:
279,162,3366,6,0,P|249:173|218:177,1,62.9999999999999,2|2,0:0|0:0,0:0:0:0:
159,290,3679,2,0,P|129:278|98:274,1,62.9999999999999,2|2,0:0|0:0,0:0:0:0:
65,203,3991,2,0,P|35:214|4:218,1,62.9999999999999,2|2,0:0|0:0,0:0:0:0:
14,105,4304,6,0,P|48:107|148:148,1,126,2|2,0:0|0:0,0:0:0:0:
332,69,4772,2,0,P|298:67|198:26,1,126,2|2,0:0|0:0,0:0:0:0:
212,35,5241,1,2,0:0:0:0:
242,202,5397,6,0,L|227:147,1,31.5,2|0,0:0|0:0,0:0:0:0:
207,152,5554,2,0,L|126:82,1,94.4999999999999,2|0,0:0|0:0,0:0:0:0:
107,89,5866,2,0,P|77:54|57:-3,1,94.499997116089,2|0,0:0|0:0,0:0:0:0:
61,0,6179,5,2,0:1:0:0:
451,57,6647,5,2,0:1:0:0:
256,96,7116,5,2,0:1:0:0:
256,96,7450,6,0,P|236:176|179:314,1,175.5,4|0,1:0|0:0,0:0:0:0:
226,281,7742,1,2,0:0:0:0:
171,70,7889,1,0,1:0:0:0:
164,60,7965,1,0,1:0:0:0:
157,50,8042,1,0,1:0:0:0:
81,210,8195,5,0,1:0:0:0:
367,140,8348,1,0,1:0:0:0:
103,193,8501,6,0,P|52:199|34:325,1,175.5,4|0,1:0|0:0,0:0:0:0:
17,304,8805,1,4,3:0:0:0:
68,95,8957,1,0,1:0:0:0:
68,95,9109,1,0,0:0:0:0:
161,268,9262,6,0,L|284:277,1,117,4|4,3:0|3:0,0:0:0:0:
127,343,9566,2,0,P|186:313|328:284,1,175.5,0|0,1:0|0:0,0:0:0:0:
307,268,9871,6,0,P|378:269|351:369,1,175.5,4|0,3:0|0:0,0:0:0:0:
363,349,10176,1,0,1:0:0:0:
208,198,10328,1,0,0:0:0:0:
415,140,10480,5,4,3:0:0:0:
272,106,10632,1,4,3:0:0:0:
415,140,10785,5,0,1:0:0:0:
373,0,10937,2,0,P|417:84|458:208,1,175.5,4|0,1:0|0:0,0:0:0:0:
472,171,11242,1,4,3:0:0:0:
436,289,11394,2,0,P|370:257|368:196,1,117,2|0,1:2|0:0,0:0:0:0:
508,40,11698,5,4,3:0:0:0:
508,40,11851,1,4,3:0:0:0:
380,126,12003,2,0,P|302:85|219:60,1,175.499991966248,2|0,1:2|0:0,0:0:0:0:
219,60,12308,2,0,P|157:84|163:159,1,117,4|0,3:0|0:0,0:0:0:0:
296,327,12612,2,0,P|358:303|352:228,1,117,2|0,1:2|0:0,0:0:0:0:
161,221,12917,5,4,3:0:0:0:
351,163,13069,1,4,3:0:0:0:
150,239,13221,5,2,1:2:0:0:
362,145,13374,2,0,P|303:183|224:310,1,175.5,4|0,1:0|0:0,0:0:0:0:
226,277,13678,1,4,3:0:0:0:
50,263,13830,2,0,P|92:322|107:373,1,117,2|2,1:2|0:0,0:0:0:0:
125,120,14135,5,4,3:0:0:0:
125,120,14287,1,4,3:0:0:0:
39,273,14440,2,0,P|81:332|96:383,1,117,2|0,1:2|0:0,0:0:0:0:
201,177,14744,6,0,P|225:103|120:51,1,175.5,4|0,3:0|0:0,0:0:0:0:
159,44,15049,2,0,P|106:80|143:127,1,117,2|0,1:2|0:0,0:0:0:0:
226,277,15353,5,4,3:0:0:0:
20,142,15506,1,4,3:0:0:0:
226,277,15658,5,2,1:2:0:0:
302,183,15810,2,0,P|319:120|371:-13,1,175.5,4|0,1:0|0:0,0:0:0:0:
374,13,16115,1,4,3:0:0:0:
478,177,16267,2,0,P|472:124|419:124,1,117,2|2,1:2|0:0,0:0:0:0:
394,237,16572,5,4,3:0:0:0:
237,65,16724,1,4,3:0:0:0:
394,237,16876,2,0,P|408:293|427:348,1,117,2|2,1:2|0:0,0:0:0:0:
302,258,17181,5,4,3:0:0:0:
510,308,17333,1,0,0:0:0:0:
302,258,17485,2,0,P|245:272|190:291,1,117,2|0,1:2|0:0,0:0:0:0:
121,350,17790,1,4,3:0:0:0:
52,153,17942,1,2,1:2:0:0:
56,142,18018,1,0,1:0:0:0:
65,135,18094,1,2,1:2:0:0:
2,292,18247,6,0,B|46:303|74:263|74:263|107:207|154:222,1,175.5,4|0,1:0|0:0,0:0:0:0:
159,196,18551,1,4,3:0:0:0:
48,40,18704,1,2,1:2:0:0:
159,196,18856,1,0,0:0:0:0:
236,22,19008,6,0,P|251:79|284:157,1,117,4|4,3:0|3:0,0:0:0:0:
150,0,19313,2,0,P|185:62|270:177,1,175.5,2|0,1:2|0:0,0:0:0:0:
279,155,19617,6,0,P|330:226|374:302,1,175.5,4|0,3:0|0:0,0:0:0:0:
360,335,19922,2,0,P|311:359|287:287,1,117,2|0,1:2|0:0,0:0:0:0:
400,150,20226,5,4,3:0:0:0:
208,243,20379,1,4,3:0:0:0:
328,67,20531,5,2,1:2:0:0:
208,243,20683,2,0,P|151:257|30:320,1,175.5,4|0,1:0|0:0,0:0:0:0:
27,285,20988,1,4,3:0:0:0:
200,136,21140,5,2,1:2:0:0:
67,185,21292,1,2,0:0:0:0:
200,136,21445,5,4,3:0:0:0:
236,344,21597,1,4,3:0:0:0:
200,136,21749,5,2,1:2:0:0:
333,195,21902,1,2,0:0:0:0:
384,14,22054,6,0,P|309:-3|308:73,1,175.5,4|0,3:0|0:0,0:0:0:0:
324,78,22358,1,2,1:2:0:0:
508,248,22511,1,2,0:0:0:0:
490,87,22663,6,0,P|456:157|422:237,1,117,4|4,3:0|3:0,0:0:0:0:
484,0,22967,1,2,1:2:0:0:
351,186,23120,6,0,P|384:256|424:357,1,175.5,4|0,1:0|0:0,0:0:0:0:
447,358,23424,1,4,3:0:0:0:
266,247,23577,1,2,1:2:0:0:
447,358,23729,1,2,0:0:0:0:
323,332,23881,6,0,P|240:360|155:384,1,175.5,4|0,3:0|0:0,0:0:0:0:
148,355,24186,2,0,P|89:308|178:281,1,175.5,2|0,1:2|0:0,0:0:0:0:
182,236,24490,6,0,P|228:253|296:267,2,78,4|2|2,3:0|0:0|0:0,0:0:0:0:
116,182,24795,2,0,P|78:192|42:206,2,78,2|2|2,1:2|0:0|0:0,0:0:0:0:
187,110,25099,6,0,P|247:117|326:143,1,117,4|4,3:0|3:0,0:0:0:0:
65,63,25404,1,2,1:2:0:0:
307,0,25556,1,4,1:0:0:0:
317,13,25861,5,4,3:0:0:0:
382,118,26013,2,0,P|394:180|424:227,1,117,2|0,1:2|0:0,0:0:0:0:
267,328,26318,2,0,P|255:266|225:219,1,117,4|4,3:0|3:0,0:0:0:0:
239,142,26622,1,2,1:2:0:0:
410,304,26775,1,2,0:0:0:0:
239,142,26927,6,0,P|170:121|160:225,1,175.5,4|0,3:0|0:0,0:0:0:0:
140,203,27231,1,2,1:2:0:0:
136,363,27384,1,2,1:2:0:0:
136,363,27460,1,0,1:0:0:0:
136,363,27536,1,2,1:2:0:0:
0,280,27688,5,4,3:0:0:0:
276,286,27841,2,0,P|339:300|465:369,1,175.5,4|0,3:0|3:0,0:0:0:0:
456,373,28145,5,4,1:0:0:0:
504,183,28450,1,0,0:0:0:0:
455,126,28602,2,0,P|407:152|341:179,2,126,2|2|2,0:0|0:0|0:0,0:0:0:0:
378,145,30277,5,2,0:0:0:0:
378,145,30429,1,4,3:0:0:0:
249,52,30582,2,0,P|201:26|135:-1,1,126,4|0,3:0|0:0,0:0:0:0:
68,41,31039,2,0,P|69:95|79:166,1,126,2|2,0:0|0:0,0:0:0:0:
253,132,31648,6,0,P|204:171|150:204,1,126,2|2,0:0|0:0,0:0:0:0:
97,259,32105,2,0,P|47:238|-28:212,2,126,2|2|2,0:0|0:0|0:0,0:0:0:0:
140,320,32866,1,4,3:0:0:0:
97,133,33018,1,4,3:0:0:0:
236,57,33323,5,0,0:0:0:0:
285,0,33475,2,0,P|333:26|399:53,2,126,2|2|2,0:0|0:0|0:0,0:0:0:0:
421,134,35150,6,0,P|452:139|469:206,1,94.4999999999999,2|0,0:0|0:0,0:0:0:0:
474,192,35455,2,0,P|436:206|241:321,1,252,2|2,0:0|0:0,0:0:0:0:
133,333,36369,6,0,P|169:349|212:386,1,94.4999999999999,2|0,0:0|0:0,0:0:0:0:
210,384,36673,2,0,P|218:322|280:98,1,270,2|2,0:0|0:0,0:0:0:0:
181,259,37282,2,0,P|197:223|234:180,1,90,4|4,3:0|3:0,0:0:0:0:
170,26,37587,6,0,P|117:60|156:108,1,72,0|0,1:0|0:0,0:0:0:0:
152,130,37739,6,0,P|228:143|362:195,1,216,4|0,1:0|0:0,0:0:0:0:
357,192,38044,1,4,3:0:0:0:
479,310,38196,1,0,1:0:0:0:
512,97,38348,6,0,P|454:120|452:205,1,117,4|0,3:0|0:0,0:0:0:0:
298,295,38653,2,0,P|355:271|358:187,1,117,4|2,3:0|1:2,0:0:0:0:
235,74,38957,1,2,0:0:0:0:
326,72,39110,6,0,P|264:52|117:32,1,175.5,4|0,3:0|0:0,0:0:0:0:
143,63,39414,2,0,P|87:81|30:93,1,117,0|2,1:0|0:0,0:0:0:0:
0,182,39719,5,4,3:0:0:0:
64,1,39871,1,4,3:0:0:0:
0,182,40023,5,2,1:2:0:0:
127,86,40175,1,2,0:0:0:0:
232,199,40328,6,0,P|138:176|71:172,1,117,4|2,3:0|0:0,0:0:0:0:
19,344,40632,1,0,1:0:0:0:
180,384,40785,6,0,P|157:290|153:223,1,117,4|2,3:0|0:0,0:0:0:0:
3,86,41089,2,0,P|26:180|30:247,1,117,4|2,3:0|1:2,0:0:0:0:
0,310,41394,1,2,0:0:0:0:
209,181,41546,5,4,3:0:0:0:
295,266,41698,1,2,0:0:0:0:
209,181,41851,5,2,1:2:0:0:
103,102,42003,1,2,0:0:0:0:
209,181,42155,5,4,3:0:0:0:
233,52,42308,1,4,3:0:0:0:
209,181,42460,5,2,1:2:0:0:
418,226,42612,1,2,0:0:0:0:
209,180,42764,6,0,P|241:262|265:346,1,175.5,4|0,1:0|0:0,0:0:0:0:
298,360,43069,1,0,1:0:0:0:
397,136,43221,6,0,P|343:153|322:205,1,117,4|2,3:0|0:0,0:0:0:0:
437,314,43526,2,0,P|491:297|512:245,1,117,4|2,3:0|1:2,0:0:0:0:
418,226,43830,1,2,0:2:0:0:
463,19,43983,6,0,P|397:20|294:82,1,175.5,4|0,3:0|0:0,0:0:0:0:
302,72,44287,2,0,P|226:56|263:0,1,117,2|2,1:2|0:0,0:0:0:0:
134,79,44592,5,4,3:0:0:0:
346,162,44744,1,4,3:0:0:0:
134,79,44896,2,0,P|75:78|20:59,1,117,2|0,1:2|0:0,0:0:0:0:
199,179,45201,6,0,P|167:261|143:345,1,175.5,4|0,3:0|0:0,0:0:0:0:
120,360,45506,1,2,1:2:0:0:
77,249,45658,6,0,P|21:192|54:154,1,117,4|2,3:0|0:0,0:0:0:0:
258,285,45962,1,4,3:0:0:0:
377,218,46115,2,0,P|352:303|321:385,1,175.5,2|0,1:2|0:0,0:0:0:0:
297,356,46419,6,0,P|266:304|238:282,1,58.4999973220826,4|0,3:0|0:0,0:0:0:0:
451,309,46572,5,0,1:0:0:0:
451,309,46648,1,0,1:0:0:0:
451,309,46724,2,0,P|457:280|477:259,1,58.4999973220826,0|0,1:0|3:0,0:0:0:0:
272,193,46876,5,0,1:0:0:0:
272,193,46952,1,0,1:0:0:0:
272,193,47028,2,0,P|260:166|229:152,1,58.4999973220826,0|0,1:0|0:0,0:0:0:0:
118,39,47181,5,0,1:0:0:0:
118,39,47257,1,0,1:0:0:0:
118,39,47333,2,0,P|100:62|104:95,1,58.4999973220826,0|0,1:0|0:0,0:0:0:0:
62,250,47485,2,0,P|91:253|117:233,1,58.4999973220826,0|0,1:0|1:0,0:0:0:0:
152,162,47638,6,0,P|231:133|369:99,1,189,4|0,1:0|0:0,0:0:0:0:
299,95,47942,2,0,P|207:71|118:39,1,189,2|0,1:2|0:0,0:0:0:0:
85,26,48247,2,0,P|23:50|24:122,1,126,4|0,3:0|0:0,0:0:0:0:
108,321,48551,1,2,1:2:0:0:
8,215,48704,6,0,P|21:265|67:264,1,63,2|0,0:0|0:0,0:0:0:0:
121,312,48856,1,4,3:0:0:0:
248,132,49008,5,2,0:0:0:0:
97,143,49160,2,0,P|156:187|244:301,1,189,2|0,1:2|0:0,0:0:0:0:
245,307,49465,5,4,3:0:0:0:
385,206,49617,1,0,1:0:0:0:
245,307,49770,5,4,3:0:0:0:
409,230,49922,1,2,1:2:0:0:
351,104,50074,6,0,P|428:125|500:156,1,126,4|0,3:0|0:0,0:0:0:0:
373,16,50379,2,0,P|292:37|298:173,1,189,2|0,1:2|0:0,0:0:0:0:
267,130,50683,2,0,P|319:88|231:64,1,189,4|0,3:0|0:0,0:0:0:0:
207,35,50988,1,2,1:2:0:0:
0,47,51140,5,2,0:0:0:0:
0,47,51216,1,2,0:0:0:0:
0,47,51292,2,0,P|47:95|105:206,1,189,4|0,3:0|0:0,0:0:0:0:
103,201,51597,6,0,P|187:159|113:115,1,153,2|2,1:2|0:0,0:0:0:0:
185,315,51902,2,0,P|106:234|0:194,1,229.5,4|0,3:0|0:0,0:0:0:0:
16,233,52206,2,0,P|88:260|148:308,1,153,4|2,3:0|1:2,0:0:0:0:
379,384,52511,6,0,P|446:350|382:263,1,189,4|0,1:0|0:0,0:0:0:0:
394,234,52815,2,0,P|328:249|362:323,1,126,2|0,1:2|0:0,0:0:0:0:
484,201,53120,2,0,P|488:140|515:14,1,189,4|0,3:0|0:0,0:0:0:0:
487,31,53424,2,0,P|440:92|386:137,1,126,2|2,1:2|0:0,0:0:0:0:
187,185,53729,5,4,3:0:0:0:
334,85,53881,1,2,0:0:0:0:
187,185,54033,2,0,P|119:216|39:234,1,126,2|2,1:2|0:0,0:0:0:0:
0,0,54338,5,4,3:0:0:0:
223,83,54490,1,0,1:0:0:0:
43,142,54643,5,4,3:0:0:0:
223,83,54795,1,2,1:2:0:0:
89,26,54947,6,0,P|132:104|164:216,1,189,4|0,3:0|0:0,0:0:0:0:
145,227,55252,1,2,1:2:0:0:
41,384,55404,1,2,0:0:0:0:
0,238,55556,2,0,B|50:241|76:290|76:290|117:361|189:329,1,189,4|0,3:0|0:0,0:0:0:0:
165,365,55861,2,0,P|234:340|195:280,1,126,2|2,1:2|0:0,0:0:0:0:
410,129,56165,6,0,P|388:197|330:314,1,189,4|2,3:0|0:0,0:0:0:0:
310,284,56470,1,0,1:0:0:0:
221,150,56622,1,4,3:0:0:0:
200,126,56698,1,4,3:0:0:0:
178,102,56775,1,4,3:0:0:0:
134,242,56927,1,0,1:0:0:0:
20,150,57079,5,0,1:0:0:0:
134,242,57231,2,0,P|152:312|169:381,1,126,0|6,1:0|1:0,0:0:0:0:
314,0,59820,6,0,P|377:22|441:45,2,135,2|2|2,0:1|0:1|0:1,0:0:0:0:
314,0,61648,6,0,P|324:55|333:110,1,112.5,2|2,0:0|0:0,0:0:0:0:
333,110,62105,6,0,P|281:183|239:316,1,202.5,4|0,1:0|0:0,0:0:0:0:
254,320,62409,1,4,3:0:0:0:
169,102,62561,1,0,1:0:0:0:
58,289,62714,1,2,0:0:0:0:
52,175,62866,6,0,P|121:200|165:249,1,135,4|4,3:0|3:0,0:0:0:0:
118,28,63171,2,0,P|146:94|171:271,1,202.5,2|2,1:2|0:0,0:0:0:0:
188,250,63475,5,4,3:0:0:0:
343,366,63627,1,4,3:0:0:0:
343,366,63704,1,4,3:0:0:0:
343,366,63780,2,0,P|359:300|386:238,1,135,2|2,1:2|0:0,0:0:0:0:
485,116,64084,5,4,3:0:0:0:
285,194,64237,1,4,3:0:0:0:
485,116,64389,1,2,1:2:0:0:
414,0,64541,6,0,P|349:-7|370:118,1,202.5,4|0,1:0|0:0,0:0:0:0:
367,114,64846,1,4,3:0:0:0:
463,318,64998,5,2,1:2:0:0:
512,220,65150,1,2,0:0:0:0:
358,285,65303,2,0,P|293:241|224:206,1,135,4|4,3:0|3:0,0:0:0:0:
458,332,65607,5,2,1:2:0:0:
263,384,65759,1,2,0:0:0:0:
252,358,65836,1,2,0:0:0:0:
235,336,65912,2,0,P|220:260|196:186,1,135,4|4,3:0|3:0,0:0:0:0:
186,183,66140,1,4,3:0:0:0:
175,157,66216,1,2,1:2:0:0:
265,70,66368,5,2,0:0:0:0:
73,0,66521,2,0,P|65:72|44:137,1,135,4|4,3:0|3:0,0:0:0:0:
36,148,66749,1,4,3:0:0:0:
25,164,66825,1,2,1:2:0:0:
72,307,66977,2,0,P|98:285|127:269,1,67.5000025749208,2|0,0:0|0:0,0:0:0:0:
301,246,67130,6,0,P|365:232|427:347,1,202.500007724762,4|0,1:0|0:0,0:0:0:0:
434,324,67435,2,0,P|358:348|349:294,1,135,0|2,1:0|0:0,0:0:0:0:
225,113,67739,2,0,P|158:81|203:141,1,202.5,4|0,3:0|0:0,0:0:0:0:
232,147,68044,5,2,1:2:0:0:
420,65,68196,1,2,0:0:0:0:
291,34,68348,6,0,P|324:97|349:178,1,135,4|2,3:0|0:0,0:0:0:0:
221,350,68653,2,0,P|188:287|163:206,1,135,2|2,1:2|0:0,0:0:0:0:
42,145,68957,1,4,3:0:0:0:
30,347,69110,1,2,0:0:0:0:
37,321,69186,1,2,0:0:0:0:
53,299,69262,2,0,P|118:267|263:234,1,202.5,0|0,1:0|0:0,0:0:0:0:
258,248,69566,6,0,P|315:310|234:376,1,202.5,4|0,3:0|0:0,0:0:0:0:
242,377,69871,2,0,P|199:347|257:349,1,135,0|2,1:0|0:0,0:0:0:0:
457,282,70176,6,0,P|476:202|513:86,1,202.5,4|0,3:0|0:0,0:0:0:0:
493,94,70480,2,0,P|435:140|356:167,1,135,0|0,1:0|0:0,0:0:0:0:
407,352,70785,5,4,3:0:0:0:
296,158,70937,1,2,1:2:0:0:
296,158,71013,1,0,1:0:0:0:
296,158,71089,2,0,P|335:80|392:119,1,135,2|0,1:2|1:0,0:0:0:0:
388,128,71318,1,0,1:0:0:0:
385,166,71394,1,0,1:0:0:0:
378,204,71470,1,0,1:0:0:0:
367,241,71546,1,0,1:0:0:0:
350,276,71622,1,0,1:0:0:0:
330,308,71698,1,0,1:0:0:0:
469,265,71851,6,0,P|394:299|217:390,1,270,4|4,1:0|3:0,0:0:0:0:
30,310,72308,2,0,P|3:253|52:215,1,135,0|2,1:0|0:0,0:0:0:0:
95,140,72612,5,4,3:0:0:0:
173,318,72764,1,4,3:0:0:0:
95,140,72917,2,0,P|58:82|10:24,1,135,2|2,1:2|0:0,0:0:0:0:
276,80,73221,6,0,P|225:125|181:175,1,135,4|4,3:0|3:0,0:0:0:0:
195,205,73450,1,4,3:0:0:0:
208,235,73526,2,0,P|287:230|281:175,1,135,2|2,1:2|0:0,0:0:0:0:
154,36,73830,5,4,3:0:0:0:
401,119,73983,1,4,3:0:0:0:
154,36,74135,1,2,1:2:0:0:
356,0,74287,6,0,P|327:64|284:231,1,202.5,4|0,1:0|0:0,0:0:0:0:
314,214,74592,1,4,3:0:0:0:
470,163,74744,2,0,P|479:71|412:48,1,135,2|2,1:2|0:0,0:0:0:0:
219,283,75049,5,4,3:0:0:0:
353,384,75201,1,4,3:0:0:0:
219,283,75353,2,0,P|190:197|157:126,1,135,2|4,1:2|3:0,0:0:0:0:
42,50,75658,5,4,1:0:0:0:
82,282,75810,1,4,3:0:0:0:
13,211,75962,2,0,P|74:145|127:79,1,135,2|4,1:2|3:0,0:0:0:0:
107,361,76267,5,4,1:0:0:0:
87,379,76343,1,4,3:0:0:0:
61,377,76419,2,0,P|20:350|-7:315,1,67.5,4|4,3:0|3:0,0:0:0:0:
57,203,76572,5,4,3:0:0:0:
77,185,76648,1,4,3:0:0:0:
103,187,76724,2,0,P|144:214|171:249,1,67.5,4|4,3:0|3:0,0:0:0:0:
257,339,76876,5,4,1:0:0:0:
433,282,77028,1,4,3:0:0:0:
257,339,77181,1,4,3:0:0:0:
295,157,77333,5,4,1:0:0:0:
355,257,77485,1,4,3:0:0:0:
295,157,77638,1,4,3:0:0:0:
449,356,77790,6,0,P|465:290|488:227,1,135,4|4,1:0|3:0,0:0:0:0:
393,76,78094,5,4,1:0:0:0:
216,133,78247,1,4,3:0:0:0:
393,76,78399,1,4,3:0:0:0:
355,257,78551,5,4,1:0:0:0:
294,157,78704,1,4,3:0:0:0:
355,257,78856,1,4,3:0:0:0:
204,49,79008,6,0,P|187:114|164:177,1,135,4|4,1:0|3:0,0:0:0:0:
134,193,79237,1,4,3:0:0:0:
103,208,79313,1,4,1:0:0:0:
0,152,79465,2,0,P|9:85|66:112,1,135,4|0,3:0|1:0,0:0:0:0:
201,295,79770,6,0,P|126:305|38:334,1,135,4|0,3:0|1:0,0:0:0:0:
311,89,80074,2,0,P|386:79|474:50,1,135,4|0,3:0|1:0,0:0:0:0:
256,192,80379,1,4,3:0:0:0:
141,0,80531,1,4,1:0:0:0:
43,54,80683,5,4,3:0:0:0:
43,54,80759,1,4,3:0:0:0:
43,54,80836,2,0,P|100:82|128:108,1,67.5,4|4,3:0|3:0,0:0:0:0:
178,126,80988,5,4,3:0:0:0:
178,126,81064,1,4,3:0:0:0:
178,126,81140,2,0,P|157:186|156:224,1,67.5,0|0,1:0|1:0,0:0:0:0:
0,157,81292,5,0,1:0:0:0:
35,197,81369,1,0,1:0:0:0:
67,240,81445,1,0,1:0:0:0:
96,286,81521,1,0,1:0:0:0:
120,334,81597,2,0,P|198:347|320:386,1,202.5,4|0,1:0|0:0,0:0:0:0:
330,369,81902,5,4,3:0:0:0:
346,217,82054,2,0,P|247:251|266:310,1,135,2|2,1:2|0:0,0:0:0:0:
437,332,82358,5,4,3:0:0:0:
380,111,82511,1,4,3:0:0:0:
437,332,82663,2,0,P|454:253|494:180,1,135,0|0,1:0|0:0,0:0:0:0:
281,159,82967,5,4,3:0:0:0:
366,13,83120,1,0,0:0:0:0:
281,159,83272,2,0,P|264:80|224:7,1,135,0|0,1:0|0:0,0:0:0:0:
164,121,83577,5,4,3:0:0:0:
79,46,83729,1,4,3:0:0:0:
164,121,83881,1,0,1:0:0:0:
17,171,84033,6,0,B|74:181|88:238|88:238|111:300|188:295,1,202.5,4|0,1:0|0:0,0:0:0:0:
161,328,84338,2,0,P|219:324|228:267,1,67.5,4|4,3:0|3:0,0:0:0:0:
368,176,84490,1,0,1:0:0:0:
370,373,84643,5,4,3:0:0:0:
368,176,84795,1,2,1:2:0:0:
501,311,84947,5,4,3:0:0:0:
368,176,85099,1,0,1:0:0:0:
512,212,85252,5,4,3:0:0:0:
368,176,85404,2,0,P|333:91|321:33,1,135,2|4,1:2|3:0,0:0:0:0:
144,208,85709,2,0,P|179:293|191:351,1,135,0|4,1:0|3:0,0:0:0:0:
164,121,86013,5,2,1:2:0:0:
348,263,86165,1,4,3:0:0:0:
200,36,86318,5,4,1:0:0:0:
312,348,86470,1,4,1:0:0:0:
