osu file format v14

[General]
AudioFilename: audio.mp3
AudioLeadIn: 0
PreviewTime: 61648
Countdown: 0
SampleSet: Soft
StackLeniency: 0.7
Mode: 0
LetterboxInBreaks: 0
WidescreenStoryboard: 1

[Editor]
DistanceSpacing: 2.8
BeatDivisor: 4
GridSize: 16
TimelineZoom: 1.3

[Metadata]
Title:Bull's Eye (TV Size)
TitleUnicode:Bull's Eye (TV Size)
Artist:nano
ArtistUnicode:ナノ
Creator:Apis035
Version:Extra
Source:緋弾のアリアAA
Tags:hidan no aria the scarlet ammo double bulls affirmation neoskylove hakku xahlt bite you death byd rock jrock j-rock anime opening japanese
BeatmapID:2495755
BeatmapSetID:1198327

[Difficulty]
HPDrainRate:5.5
CircleSize:3.6
OverallDifficulty:8
ApproachRate:9
SliderMultiplier:1.6
SliderTickRate:1

[Events]
//Background and Video events
0,0,"edit.jpg",0,0
Video,-970,"ariaaaop.mp4"
//Break Periods
//Storyboard Layer 0 (Background)
//Storyboard Layer 1 (Fail)
//Storyboard Layer 2 (Pass)
//Storyboard Layer 3 (Foreground)
//Storyboard Layer 4 (Overlay)
//Storyboard Sound Samples

[TimingPoints]
560,312.5,4,2,2,40,1,0
560,-125,4,2,2,40,0,0
7435,304.568527918782,4,2,1,75,1,0
8500,-100,4,2,1,75,0,0
28145,-133.333333333333,4,2,1,50,0,0
37435,-100,4,2,1,50,0,0
37739,-100,4,2,1,70,0,0
57384,-200,4,2,1,50,0,0
62105,-100,4,2,1,85,0,1
81597,-100,4,2,1,80,0,0

[Colours]
Combo1 : 250,191,133
Combo2 : 247,51,51
Combo3 : 250,133,133
Combo4 : 247,149,51

[HitObjects]
426,13,560,6,0,L|506:21,2,64,2|0|0,0:0|0:0|0:0,0:0:0:0:
343,63,1028,2,0,L|263:55,2,64,2|0|0,0:0|0:0|0:0,0:0:0:0:
418,124,1497,2,0,P|418:188|402:204,1,64,2|0,0:0|0:0,0:0:0:0:
484,239,1810,2,0,P|428:271|406:265,1,64,2|0,0:0|0:0,0:0:0:0:
420,354,2122,2,0,P|364:322|358:300,1,64,2|0,0:0|0:0,0:0:0:0:
311,247,2435,6,0,L|327:167,2,64,2|0|0,0:0|0:0|0:0,0:0:0:0:
241,314,2903,2,0,L|225:394,2,64,2|0|0,0:0|0:0|0:0,0:0:0:0:
217,220,3372,2,0,P|201:204|137:204,1,64,2|0,0:0|0:0,0:0:0:0:
137,114,3685,2,0,P|115:119|83:175,1,64,2|0,0:0|0:0,0:0:0:0:
6,131,3997,2,0,P|0:152|32:208,1,64,2|0,0:0|0:0,0:0:0:0:
92,274,4310,6,0,L|76:354,1,64,2|0,0:0|0:0,0:0:0:0:
106,192,4622,1,0,0:0:0:0:
170,317,4778,2,0,P|282:317|298:301,1,128,2|0,0:0|0:0,0:0:0:0:
219,181,5247,2,0,L|227:245,1,64,2|0,0:0|0:0,0:0:0:0:
354,229,5560,1,2,0:0:0:0:
155,112,5872,1,2,0:0:0:0:
480,36,6185,5,2,0:0:0:0:
479,48,6653,1,2,0:0:0:0:
478,60,7122,1,2,0:0:0:0:
510,254,7435,6,0,B|422:278|438:206|350:230,1,160,8|8,0:3|0:0,0:0:0:0:
219,265,7891,1,8,0:0:0:0:
219,265,7967,1,8,0:0:0:0:
219,265,8044,1,8,0:0:0:0:
328,107,8196,1,8,0:0:0:0:
377,309,8348,1,8,0:0:0:0:
162,202,8500,6,0,B|130:234|130:234|146:362,1,160,6|0,3:2|3:0,0:0:0:0:
233,158,8957,2,0,P|220:139|141:125,1,80,8|0,0:0|0:0,0:0:0:0:
15,235,9262,1,2,3:2:0:0:
15,235,9414,1,0,3:0:0:0:
58,24,9566,6,0,L|74:120,1,80,8|0,0:0|0:0,0:0:0:0:
267,59,9871,2,0,P|251:43|171:43,1,80,2|0,3:2|0:0,0:0:0:0:
32,186,10176,2,0,P|52:195|127:168,1,80,8|0,0:0|0:0,0:0:0:0:
283,269,10480,1,2,3:2:0:0:
283,269,10632,1,0,3:0:0:0:
195,106,10785,1,8,0:0:0:0:
70,291,10937,6,0,B|102:323|102:323|230:307,1,160,6|2,3:2|3:2,0:0:0:0:
364,140,11394,2,0,P|348:156|348:236,1,80,10|0,0:0|0:0,0:0:0:0:
478,361,11698,2,0,P|472:339|402:299,1,80,2|0,3:2|3:0,0:0:0:0:
227,353,12003,2,0,P|248:358|318:318,1,80,10|0,0:0|0:0,0:0:0:0:
327,101,12308,6,0,L|343:277,1,160,2|10,3:2|0:0,0:0:0:0:
224,369,12764,1,2,0:0:0:0:
224,369,12841,1,2,0:0:0:0:
224,369,12917,1,2,3:2:0:0:
113,193,13069,1,0,3:0:0:0:
68,362,13221,1,8,0:0:0:0:
192,174,13374,6,0,P|176:142|48:142,1,160,6|2,3:2|3:2,0:0:0:0:
196,37,13830,1,10,0:0:0:0:
110,209,13983,1,0,0:0:0:0:
11,45,14135,2,0,B|43:13|43:13|171:29,1,160,2|8,3:2|0:0,0:0:0:0:
348,50,14592,1,0,0:0:0:0:
252,234,14744,6,0,P|236:218|236:138,1,80,2|0,3:2|0:0,0:0:0:0:
441,223,15049,2,0,P|446:244|406:314,1,80,8|0,0:0|0:0,0:0:0:0:
330,132,15353,2,0,L|426:116,1,80,2|0,3:2|3:0,0:0:0:0:
252,234,15658,1,10,0:0:0:0:
198,0,15810,6,0,L|182:160,1,160,6|2,3:2|3:2,0:0:0:0:
294,354,16267,2,0,P|294:274|278:258,1,80,10|0,0:0|0:0,0:0:0:0:
95,221,16572,2,0,P|164:261|186:255,1,80,2|0,3:2|3:0,0:0:0:0:
321,132,16876,2,0,P|251:171|245:193,1,80,10|0,0:0|0:0,0:0:0:0:
391,363,17181,6,0,B|423:331|423:331|407:187,1,160,2|10,3:2|0:0,0:0:0:0:
391,17,17638,1,0,0:0:0:0:
326,180,17790,1,2,3:2:0:0:
487,49,17942,1,8,0:0:0:0:
487,49,18018,1,8,0:0:0:0:
487,49,18094,1,8,0:0:0:0:
298,199,18247,6,0,B|210:223|226:151|138:175,1,160,6|0,3:2|3:0,0:0:0:0:
126,380,18704,2,0,P|142:364|142:284,1,80,8|0,0:0|3:2,3:2:0:0:
28,163,19008,1,2,3:2:0:0:
28,163,19160,1,0,3:0:0:0:
228,61,19313,6,0,L|132:45,1,80,8|0,0:0|0:0,0:0:0:0:
1,215,19617,2,0,L|97:199,1,80,2|0,3:2|0:0,0:0:0:0:
262,333,19922,2,0,L|166:317,1,80,8|0,0:0|0:0,0:0:0:0:
328,195,20226,1,2,3:2:0:0:
328,195,20379,1,0,3:0:0:0:
132,123,20531,1,8,0:0:0:0:
302,4,20683,6,0,B|334:36|334:36|318:180,1,160,6|2,3:2|3:2,0:0:0:0:
300,317,21140,2,0,P|316:301|396:301,1,80,10|2,0:0|0:0,0:0:0:0:
217,240,21445,1,2,3:2:0:0:
439,214,21597,1,2,3:2:0:0:
360,371,21749,1,10,0:0:0:0:
321,150,21902,1,2,0:0:0:0:
146,289,22054,6,0,B|114:257|114:257|130:113,1,160,2|10,3:2|0:0,0:0:0:0:
262,322,22511,1,2,0:0:0:0:
62,379,22663,1,2,3:2:0:0:
175,205,22815,1,2,3:2:0:0:
316,383,22967,1,10,0:0:0:0:
474,201,23120,6,0,B|411:207|411:207|380:226|380:226|301:233,1,160,6|0,3:2|3:0,0:0:0:0:
291,41,23577,2,8,P|307:57|307:137,1,80,8|0,0:0|0:0,3:2:0:0:
143,31,23881,1,2,3:2:0:0:
143,31,24033,1,0,3:0:0:0:
47,234,24186,2,0,L|159:218,1,80,8|0,0:0|0:0,0:0:0:0:
45,48,24490,2,0,P|29:64|29:144,1,80,2|0,3:2|0:0,0:0:0:0:
191,261,24795,2,0,P|200:240|173:165,1,80,10|0,0:0|0:0,0:0:0:0:
4,308,25099,1,2,3:2:0:0:
4,308,25252,1,2,3:2:0:0:
99,123,25404,1,10,0:0:0:0:
165,337,25556,6,0,B|253:353|237:289|325:305,1,160,6|0,3:2|3:0,0:0:0:0:
318,94,26013,2,0,P|302:110|302:190,1,80,10|0,0:0|0:0,0:0:0:0:
511,120,26318,2,0,P|505:98|435:58,1,80,2|0,3:2|3:0,0:0:0:0:
388,271,26622,2,0,P|409:276|479:236,1,80,10|0,0:0|0:0,0:0:0:0:
318,94,26927,6,0,B|230:78|246:142|158:126,1,160,2|10,3:2|0:0,0:0:0:0:
34,267,27384,1,8,0:0:0:0:
34,267,27460,1,8,0:0:0:0:
34,267,27536,1,2,3:2:0:0:
184,41,27688,1,8,3:3:0:0:
274,298,27841,1,8,0:3:0:0:
124,132,27993,1,8,0:3:0:0:
64,347,28145,6,0,B|96:371|96:371|192:355,1,120.000004577637,2|0,3:2|0:0,0:0:0:0:
236,220,28602,2,0,P|225:222|193:278,1,60.0000022888184,2|0,0:0|0:0,0:0:0:0:
286,154,28907,2,0,P|278:146|214:146,1,60.0000022888184,2|0,0:0|0:0,0:0:0:0:
274,298,29211,1,2,0:0:0:0:
274,298,29363,2,0,L|402:282,2,120.000004577637,2|2|2,0:0|0:0|0:0,0:0:0:0:
477,225,30277,2,0,P|485:233|485:301,1,60.0000022888184,2|0,0:0|3:0,0:0:0:0:
379,173,30582,6,0,B|383:125|383:125|401:102|401:102|406:38,1,120.000004577637,2|0,3:2|0:0,0:0:0:0:
258,3,31039,2,0,P|258:67|266:75,1,60.0000022888184,2|0,0:0|0:0,0:0:0:0:
299,182,31343,2,0,P|243:150|232:152,1,60.0000022888184,2|0,0:0|0:0,0:0:0:0:
113,110,31648,2,0,L|177:102,1,60.0000022888184,2|0,0:0|0:0,0:0:0:0:
43,40,31952,1,2,0:0:0:0:
0,192,32105,2,0,L|144:208,1,120.000004577637,2|2,0:0|0:0,0:0:0:0:
213,279,32714,2,0,P|157:279|141:295,1,60.0000022888184,2|0,0:0|3:0,0:0:0:0:
287,363,33018,6,0,B|311:331|311:331|295:235,1,120.000004577637,2|0,3:2|0:0,0:0:0:0:
233,109,33475,2,0,L|217:189,1,60.0000022888184,2|0,0:0|0:0,0:0:0:0:
141,288,33780,2,0,L|125:208,1,60.0000022888184,2|0,0:0|0:0,0:0:0:0:
142,74,34084,1,2,0:0:0:0:
142,74,34237,2,0,P|78:74|30:122,2,120.000004577637,2|2|2,0:0|0:0|0:0,0:0:0:0:
142,74,35150,1,2,3:2:0:0:
367,1,35455,6,0,B|343:33|343:33|359:129,1,120.000004577637,2|0,3:2|0:0,0:0:0:0:
356,111,35912,1,2,0:0:0:0:
494,225,36064,2,0,P|382:225|366:241,1,120.000004577637,2|0,0:0|0:0,0:0:0:0:
382,224,36521,1,2,0:0:0:0:
266,376,36673,2,0,L|250:232,1,120.000004577637,2|0,0:0|0:0,0:0:0:0:
435,177,37130,2,0,L|427:236,1,60.0000022888184,2|2,0:0|0:0,0:0:0:0:
283,133,37435,1,0,3:0:0:0:
313,289,37587,1,10,0:0:0:0:
418,74,37739,6,0,B|386:42|386:42|258:58,1,160,6|0,3:2|3:0,0:0:0:0:
96,79,38196,1,10,0:0:0:0:
223,212,38348,2,0,P|239:196|239:116,1,80,0|2,3:0|0:0,0:0:0:0:
93,267,38653,2,0,P|98:288|168:328,1,80,0|10,3:0|0:0,0:0:0:0:
168,152,38957,1,0,3:0:0:0:
374,241,39110,6,0,B|318:236|318:236|276:248|276:248|213:242,1,160,2|10,3:2|0:0,0:0:0:0:
216,243,39719,2,0,P|285:283|291:304,1,80,2|0,3:2|3:0,0:0:0:0:
412,116,40023,1,10,0:0:0:0:
442,273,40176,1,0,0:0:0:0:
329,98,40328,6,0,P|345:66|481:66,1,160,2|10,3:2|0:0,0:0:0:0:
234,7,40785,1,0,3:0:0:0:
234,7,41089,2,0,L|250:119,1,80,0|10,3:0|0:0,0:0:0:0:
327,224,41394,1,0,3:0:0:0:
327,224,41546,2,0,L|343:112,1,80,2|0,3:2|3:0,0:0:0:0:
156,120,41851,2,0,P|140:136|140:216,1,80,10|0,0:0|0:0,0:0:0:0:
255,312,42155,2,0,P|249:290|179:250,1,80,2|0,3:2|3:0,0:0:0:0:
37,300,42460,2,0,P|58:305|128:265,1,80,10|0,0:0|0:0,0:0:0:0:
74,67,42764,6,0,B|42:99|42:99|58:227,1,160,2|10,3:2|0:0,0:0:0:0:
148,25,43221,1,0,3:0:0:0:
148,25,43526,2,0,P|228:25|244:41,1,80,0|10,3:0|0:0,0:0:0:0:
340,193,43830,1,0,3:0:0:0:
340,193,43983,6,0,L|228:177,1,80,2|0,3:2|0:0,0:0:0:0:
400,50,44287,2,0,L|512:34,1,80,10|0,0:0|0:0,0:0:0:0:
276,87,44592,2,0,P|260:39|276:-9,1,80,2|0,3:2|3:0,0:0:0:0:
446,141,44896,2,0,P|462:189|446:237,1,80,10|0,0:0|0:0,0:0:0:0:
278,325,45201,6,0,B|366:309|350:381|438:365,1,160,2|10,3:2|0:0,0:0:0:0:
291,186,45658,1,0,3:0:0:0:
291,186,45962,2,0,P|211:186|195:170,1,80,0|10,3:0|0:0,0:0:0:0:
334,37,46267,1,2,0:0:0:0:
137,6,46419,6,0,L|145:46,3,40,2|0|8|8,3:2|3:0|0:0|0:0,0:0:0:0:
42,124,46724,2,0,L|50:84,3,40,8|8|8|8,0:0|0:0|0:0|0:0,0:0:0:0:
164,142,47028,1,8,0:0:0:0:
164,142,47105,1,8,0:0:0:0:
164,142,47181,2,0,L|172:182,1,40,8|8,0:0|0:0,0:0:0:0:
67,261,47333,1,8,0:0:0:0:
67,261,47409,1,8,0:0:0:0:
67,261,47485,2,0,L|75:221,1,40,8|8,0:0|0:0,0:0:0:0:
5,320,47638,6,0,P|21:336|101:336,1,80,4|0,3:2|0:0,0:0:0:0:
247,182,47942,2,0,P|226:172|151:199,1,80,10|0,0:0|0:0,0:0:0:0:
317,372,48247,2,0,L|333:260,1,80,2|0,3:2|0:0,0:0:0:0:
450,125,48551,1,10,0:0:0:0:
428,316,48704,2,0,L|412:204,1,80,2|0,0:0|3:0,0:0:0:0:
388,47,49008,1,2,0:0:0:0:
256,207,49160,2,0,L|368:191,1,80,10|0,0:0|0:0,0:0:0:0:
166,143,49465,5,2,3:2:0:0:
255,294,49617,1,8,0:0:0:0:
287,71,49770,1,2,3:2:0:0:
116,202,49922,1,10,0:0:0:0:
116,202,50074,6,0,P|92:171|89:132,1,80,0|2,3:0|0:0,0:0:0:0:
285,21,50379,2,0,P|290:42|250:112,1,80,10|0,0:0|0:0,0:0:0:0:
36,51,50683,2,0,L|148:35,1,80,2|0,3:2|0:0,0:0:0:0:
239,227,50988,1,10,0:0:0:0:
377,95,51140,2,0,L|265:79,1,80,2|0,0:0|3:0,0:0:0:0:
117,203,51445,1,0,0:0:0:0:
296,289,51597,2,0,P|312:273|312:189,1,80,10|0,0:0|0:0,0:0:0:0:
208,54,51902,5,2,3:2:0:0:
239,227,52054,1,8,0:0:0:0:
198,23,52206,1,2,3:2:0:0:
121,250,52358,1,8,0:0:0:0:
121,250,52511,2,0,L|9:234,1,80,0|0,3:0|0:0,0:0:0:0:
213,382,52815,6,0,L|325:366,1,80,10|0,0:0|0:0,0:0:0:0:
415,182,53120,2,0,P|415:262|431:278,1,80,2|0,3:2|0:0,0:0:0:0:
261,92,53424,1,10,0:0:0:0:
340,303,53577,2,0,P|409:342|431:337,1,80,2|0,0:0|3:0,0:0:0:0:
489,136,53881,1,2,0:0:0:0:
303,229,54033,2,0,L|191:213,1,80,10|0,0:0|0:0,0:0:0:0:
116,57,54338,5,2,3:2:0:0:
148,229,54490,1,8,0:0:0:0:
258,32,54643,1,2,3:2:0:0:
51,118,54795,1,10,0:0:0:0:
51,118,54947,2,0,P|67:134|147:134,1,80,0|0,3:0|0:0,0:0:0:0:
306,198,55252,5,10,0:0:0:0:
216,10,55404,1,2,0:0:0:0:
91,195,55556,2,0,L|107:307,1,80,2|0,3:2|0:0,0:0:0:0:
7,52,55861,1,10,0:0:0:0:
204,156,56013,2,0,L|188:268,1,80,2|0,0:0|3:0,0:0:0:0:
216,10,56318,1,0,0:0:0:0:
422,47,56470,2,0,P|406:31|326:31,1,80,10|8,0:0|0:0,0:0:0:0:
305,32,56698,1,8,0:0:0:0:
305,32,56775,5,10,0:0:0:0:
477,220,56927,1,8,0:3:0:0:
260,322,57079,1,8,0:3:0:0:
361,96,57231,1,8,0:3:0:0:
433,321,57384,6,0,L|529:305,2,80,2|2|2,0:0|0:0|0:0,0:0:0:0:
261,218,58297,1,2,0:0:0:0:
261,218,58450,2,0,P|239:223|205:282,1,80,2|2,0:0|0:0,0:0:0:0:
132,362,58907,2,0,L|36:346,2,80,2|2|2,0:0|0:0|0:0,0:0:0:0:
174,45,59820,5,2,0:0:0:0:
194,48,60277,1,2,0:0:0:0:
214,51,60734,1,2,0:0:0:0:
7,315,61648,6,0,L|103:299,1,80,2|0,0:0|0:0,0:0:0:0:
185,175,62105,6,0,B|153:207|153:207|169:335,1,160,4|0,3:2|3:0,0:0:0:0:
252,114,62561,2,0,P|236:98|156:98,1,80,10|0,0:0|0:0,0:0:0:0:
355,3,62866,1,2,3:2:0:0:
355,3,63018,1,0,3:0:0:0:
266,210,63171,2,0,L|378:194,1,80,10|0,0:0|0:0,0:0:0:0:
501,309,63475,6,0,L|389:293,1,80,2|0,3:2|3:0,0:0:0:0:
385,315,63704,1,0,3:0:0:0:
385,315,63780,2,0,P|297:315|281:331,1,80,10|0,0:0|3:0,0:0:0:0:
167,234,64084,1,2,0:0:0:0:
237,378,64237,1,0,3:0:0:0:
305,165,64389,1,10,0:0:0:0:
139,315,64541,6,0,P|107:299|107:171,1,160,4|0,3:2|3:0,0:0:0:0:
224,47,64998,1,10,0:0:0:0:
26,17,65150,1,0,0:0:0:0:
204,153,65303,2,0,L|316:137,1,80,2|0,3:2|3:0,0:0:0:0:
69,33,65607,1,10,0:0:0:0:
167,234,65759,2,0,L|279:250,1,80,0|2,3:0|3:2,0:0:0:0:
107,48,66064,1,0,3:0:0:0:
107,48,66140,1,0,3:0:0:0:
107,48,66216,5,10,0:0:0:0:
11,269,66369,1,0,3:0:0:0:
0,93,66521,1,2,3:2:0:0:
160,292,66673,1,0,3:0:0:0:
193,111,66825,1,10,0:0:0:0:
11,269,66978,1,2,0:0:0:0:
149,42,67130,6,0,P|237:42|253:58,1,80,4|0,3:2|0:0,0:0:0:0:
324,254,67435,2,0,P|241:223|231:203,1,80,8|0,0:0|0:0,0:0:0:0:
369,26,67739,2,0,L|385:138,1,80,2|0,3:2|0:0,0:0:0:0:
500,313,68044,2,0,L|516:201,1,80,10|0,0:0|0:0,0:0:0:0:
405,374,68348,5,2,3:2:0:0:
389,150,68500,2,0,P|301:150|285:166,1,80,2|8,0:0|0:0,0:0:0:0:
241,356,68805,1,2,0:0:0:0:
347,216,68957,1,2,3:2:0:0:
143,311,69110,2,0,L|239:327,1,80,2|8,0:0|0:0,0:0:0:0:
232,132,69414,1,2,0:0:0:0:
53,264,69566,6,0,P|53:352|69:368,1,80,2|0,3:2|0:0,0:0:0:0:
188,145,69871,2,0,P|157:62|137:52,1,80,8|0,0:0|0:0,0:0:0:0:
143,311,70176,2,0,L|255:295,1,80,2|0,3:2|0:0,0:0:0:0:
420,197,70480,2,0,L|308:181,1,80,8|0,0:0|0:0,0:0:0:0:
135,59,70785,2,0,L|247:43,1,80,2|8,3:2|0:0,0:0:0:0:
423,127,71089,5,8,0:0:0:0:
423,127,71165,1,8,0:0:0:0:
423,127,71242,2,0,L|415:199,1,40,8|8,0:0|0:0,0:0:0:0:
388,50,71394,1,8,0:0:0:0:
360,35,71470,1,8,0:0:0:0:
328,33,71546,1,8,0:0:0:0:
298,43,71622,1,8,0:0:0:0:
275,65,71698,1,8,0:0:0:0:
261,94,71774,1,8,0:0:0:0:
260,119,71851,6,0,B|264:174|264:174|283:205|283:205|289:276,1,160,4|0,3:2|3:0,0:0:0:0:
83,365,72308,2,0,P|83:285|99:269,1,80,10|0,0:0|0:0,3:2:0:0:
29,121,72612,1,2,3:2:0:0:
29,121,72764,1,0,3:0:0:0:
156,326,72917,2,0,L|268:310,1,80,10|0,0:0|0:0,0:0:0:0:
456,282,73221,6,0,P|440:298|440:378,1,80,2|0,3:2|3:0,0:0:0:0:
398,379,73450,1,0,3:0:0:0:
398,379,73526,2,0,L|302:363,1,80,10|0,0:0|3:0,0:0:0:0:
170,245,73830,1,2,0:0:0:0:
379,162,73983,1,0,3:0:0:0:
273,302,74135,1,10,0:0:0:0:
241,80,74287,6,0,B|304:74|304:74|335:55|335:55|414:48,1,160,4|0,3:2|3:0,0:0:0:0:
224,196,74744,1,10,0:0:0:0:
171,11,74896,1,0,0:0:0:0:
346,152,75049,2,0,L|330:264,1,80,2|0,3:2|3:0,0:0:0:0:
195,384,75353,2,0,L|179:272,1,80,10|0,0:0|3:0,0:0:0:0:
156,113,75658,5,10,0:0:0:0:
51,273,75810,1,0,3:0:0:0:
44,49,75962,5,10,0:0:0:0:
137,217,76115,1,0,3:0:0:0:
209,5,76267,6,0,L|257:13,3,40,0|8|8|8,3:0|0:3|0:3|0:3,0:0:0:0:
309,87,76572,2,0,L|357:79,3,40,0|8|8|8,3:0|0:3|0:3|0:3,0:0:0:0:
458,59,76876,5,14,0:0:0:0:
427,264,77028,2,0,L|411:152,1,80,0|0,3:0|3:0,0:0:0:0:
248,11,77333,1,10,0:0:0:0:
171,204,77485,2,0,L|283:188,1,80,0|0,3:0|3:0,0:0:0:0:
73,81,77790,1,10,0:0:0:0:
134,312,77942,1,0,3:0:0:0:
257,106,78094,5,14,0:0:0:0:
362,295,78247,2,0,L|250:279,1,80,0|0,3:0|3:0,0:0:0:0:
67,181,78551,1,10,0:0:0:0:
145,375,78704,2,0,L|161:263,1,80,0|0,3:0|3:0,0:0:0:0:
188,58,79008,1,10,0:0:0:0:
109,215,79160,1,0,3:0:0:0:
109,215,79237,1,0,3:0:0:0:
109,215,79313,5,14,0:0:0:0:
299,191,79465,1,0,3:0:0:0:
147,48,79617,1,10,0:0:0:0:
238,235,79770,1,2,3:2:0:0:
358,46,79922,5,8,0:0:0:0:
417,228,80074,1,2,3:2:0:0:
482,31,80226,1,8,0:0:0:0:
337,181,80379,1,2,3:2:0:0:
240,15,80531,5,8,0:0:0:0:
422,98,80683,1,8,0:0:0:0:
238,235,80836,6,0,L|174:227,3,40,8|8|8|8,0:0|0:0|0:0|0:0,0:0:0:0:
182,348,81140,2,0,L|246:340,3,40,8|8|8|8,0:0|0:0|0:0|0:0,0:0:0:0:
66,299,81445,1,8,0:0:0:0:
66,299,81521,1,8,0:0:0:0:
66,299,81597,6,0,B|71:235|71:235|90:204|90:204|95:141,1,160,4|0,3:2|3:0,0:0:0:0:
251,6,82054,2,0,P|251:86|235:102,1,80,10|0,0:0|0:0,3:2:0:0:
51,32,82358,1,2,3:2:0:0:
51,32,82511,1,0,3:0:0:0:
180,214,82663,6,0,P|196:230|276:230,1,80,10|0,0:0|0:0,0:0:0:0:
416,91,82967,2,0,P|394:96|354:166,1,80,2|0,3:2|0:0,0:0:0:0:
410,357,83272,2,0,P|415:335|375:265,1,80,10|0,0:0|0:0,0:0:0:0:
173,266,83577,1,2,3:2:0:0:
334,335,83729,1,0,3:0:0:0:
291,148,83881,1,10,0:0:0:0:
192,348,84033,6,0,B|136:343|136:343|105:324|105:324|19:316,1,160,4|0,3:2|3:0,0:0:0:0:
83,113,84490,1,10,0:0:0:0:
173,266,84643,1,0,3:0:0:0:
226,65,84795,5,10,0:0:0:0:
95,205,84947,1,0,3:0:0:0:
302,208,85099,5,10,0:0:0:0:
141,49,85252,1,0,3:0:0:0:
362,19,85404,5,10,0:0:0:0:
196,169,85556,1,0,3:0:0:0:
418,203,85709,5,10,0:0:0:0:
237,71,85861,1,0,3:0:0:0:
474,35,86013,5,10,0:0:0:0:
336,231,86165,1,8,0:0:0:0:
374,58,86318,1,8,0:0:0:0:
467,295,86470,1,8,0:0:0:0:
