osu file format v14

[General]
AudioFilename: audio.mp3
AudioLeadIn: 0
PreviewTime: 61735
Countdown: 0
SampleSet: Soft
StackLeniency: 0.7
Mode: 0
LetterboxInBreaks: 0
WidescreenStoryboard: 0

[Editor]
Bookmarks: 2301,2536,76354,81227,105288,105897,106506,107115,107725,108334,108943,109552,110161,111379,112293,156608,157369,171836,172141,174425,197572,208841,215846,216456,216912,219653,219806
DistanceSpacing: 2
BeatDivisor: 4
GridSize: 16
TimelineZoom: 3.299999

[Metadata]
Title:Bull's Eye
TitleUnicode:Bull's Eye
Artist:nano
ArtistUnicode:ナノ
Creator:Ryotarou Nogami
Version:Bullet
Source:緋弾のアリアAA
Tags:ria The Scarlet Ammo Double A opening Full Version AA
BeatmapID:1330772
BeatmapSetID:630383

[Difficulty]
HPDrainRate:4
CircleSize:4
OverallDifficulty:9.3
ApproachRate:9.5
SliderMultiplier:1.8
SliderTickRate:1

[Events]
//Background and Video events
0,0,"752649.png",0,0
//Break Periods
//Storyboard Layer 0 (Background)
//Storyboard Layer 1 (Fail)
//Storyboard Layer 2 (Pass)
//Storyboard Layer 3 (Foreground)
//Storyboard Sound Samples

[TimingPoints]
661,312.5,6,2,0,100,1,0
661,-100,6,2,0,65,0,0
5973,-90.9090909090909,6,2,0,65,0,0
6286,-83.3333333333333,6,2,0,40,0,0
6364,-83.3333333333333,6,2,0,5,0,0
6754,-83.3333333333333,6,2,0,50,0,0
6832,-83.3333333333333,6,2,0,5,0,0
7223,-83.3333333333333,6,2,0,60,0,0
7301,-83.3333333333333,6,2,0,5,0,0
7522,304.568527918782,4,2,0,65,1,0
7522,-100,4,2,1,65,0,0
15440,-100,4,2,1,65,0,0
16354,-83.3333333333333,4,2,1,65,0,0
16659,-100,4,2,1,65,0,0
16963,-125,4,2,1,65,0,0
17268,-100,4,2,1,65,0,0
21836,-100,4,2,1,65,0,0
22598,-100,4,2,1,70,0,0
23207,-100,4,2,1,65,0,0
27775,-66.6666666666667,4,2,1,50,0,0
28156,-66.6666666666667,4,2,1,20,0,0
28232,-166.666666666667,4,2,1,40,0,0
37369,-100,4,2,1,65,0,0
47725,-83.3333333333333,4,2,1,80,0,1
51684,-66.6666666666667,4,2,1,80,0,1
51912,-66.6666666666667,4,2,1,20,0,1
51989,-83.3333333333333,4,2,1,80,0,1
56100,-76.9230769230769,4,2,1,80,0,1
56405,-83.3333333333333,4,2,1,80,0,1
57471,-166.666666666667,4,2,1,60,0,0
59907,-83.3333333333333,4,2,1,60,0,0
59983,-83.3333333333333,4,2,1,5,0,0
60364,-83.3333333333333,4,2,1,70,0,0
60415,-83.3333333333333,4,2,1,5,0,0
60821,-83.3333333333333,4,2,1,80,0,0
60897,-83.3333333333333,4,2,1,5,0,0
61735,-142.857142857143,4,2,1,55,0,0
62115,-142.857142857143,4,2,1,5,0,0
62192,-90.9090909090909,4,2,1,80,0,1
70872,-90.9090909090909,4,2,1,80,0,0
71938,-90.9090909090909,4,2,1,80,0,1
81684,-83.3333333333333,4,2,1,65,0,0
82141,-100,4,2,1,65,0,0
92648,-83.3333333333333,4,2,1,65,0,0
92953,-83.3333333333333,4,2,1,65,0,0
94019,-100,4,2,1,65,0,0
102851,-83.3333333333333,4,2,1,65,0,0
103765,-100,4,2,1,65,0,0
113511,-83.3333333333333,4,2,1,80,0,1
117471,-66.6666666666667,4,2,1,80,0,1
117699,-66.6666666666667,4,2,1,20,0,1
117775,-100,4,2,1,80,0,1
121887,-76.9230769230769,4,2,1,80,0,1
122192,-83.3333333333333,4,2,1,80,0,1
123258,-166.666666666667,4,2,1,60,0,0
125694,-100,4,2,1,60,0,0
127978,-90.9090909090909,4,2,1,80,0,1
136659,-90.9090909090909,4,2,1,60,0,0
137725,-90.9090909090909,4,2,1,80,0,1
147623,-100,4,2,1,60,0,0
148841,-100,4,2,1,60,0,0
149298,-100,4,2,1,60,0,0
149755,-100,4,2,1,60,0,0
177471,-142.857142857143,4,2,1,60,0,0
177851,-142.857142857143,4,2,1,5,0,0
177928,-90.9090909090909,4,2,1,80,0,1
186608,-90.9090909090909,4,2,1,60,0,0
187674,-90.9090909090909,4,2,1,80,0,1
202293,-83.3333333333333,4,2,1,65,0,0
202750,-100,4,2,1,65,0,0
212420,-100,4,2,1,5,0,0
212496,-76.9230769230769,4,2,1,65,0,0
212801,-100,4,2,1,65,0,0
219349,-83.3333333333333,4,2,1,65,0,0
219958,-83.3333333333333,4,2,1,65,0,0
220567,-83.3333333333333,4,2,1,70,0,0
221176,-83.3333333333333,4,2,1,75,0,0
221633,-83.3333333333333,4,2,1,65,0,0

[Colours]
Combo1 : 145,145,145
Combo2 : 235,174,186
Combo3 : 238,236,136
Combo4 : 146,207,234

[HitObjects]
146,129,661,5,2,0:0:0:0:
67,211,817,1,0,0:0:0:0:
145,293,973,1,0,0:0:0:0:
68,210,1129,5,2,0:0:0:0:
146,129,1285,1,0,0:0:0:0:
67,46,1441,1,0,0:0:0:0:
205,50,1598,6,0,L|294:39,1,90,2|0,0:0|0:0,0:0:0:0:
260,127,1911,2,0,L|349:116,1,90,2|0,0:0|0:0,0:0:0:0:
310,208,2223,2,0,L|413:196,1,90,2|0,0:0|0:0,0:0:0:0:
512,112,2536,5,2,0:0:0:0:
472,290,2692,1,0,0:0:0:0:
399,197,2848,1,0,0:0:0:0:
472,290,3004,5,2,0:0:0:0:
512,112,3160,1,0,0:0:0:0:
399,197,3316,1,0,0:0:0:0:
344,72,3473,6,0,L|255:61,1,90,2|0,0:0|0:0,0:0:0:0:
289,149,3786,2,0,L|200:138,1,90,2|0,0:0|0:0,0:0:0:0:
239,230,4098,2,0,L|136:218,1,90,2|0,0:0|0:0,0:0:0:0:
82,61,4411,6,0,B|123:38|123:38|257:61,1,180,2|0,0:0|0:0,0:0:0:0:
401,82,4879,6,0,L|391:178,2,90,2|0|0,0:0|0:0|0:0,0:0:0:0:
301,9,5348,1,2,0:0:0:0:
301,9,5504,1,0,0:0:0:0:
291,113,5661,6,0,L|279:213,1,90,2|0,0:0|0:0,0:0:0:0:
161,163,5973,6,0,L|175:262,1,99.0000030212403,2|0,0:0|0:0,0:0:0:0:
101,79,6286,6,0,L|48:71,1,53.9999983520508,2|0,0:0|0:0,0:0:0:0:
128,76,6754,6,0,L|51:65,1,71.9999978027344,2|0,0:0|0:0,0:0:0:0:
157,70,7223,6,0,L|69:58,1,80.9999975280763,2|0,0:0|0:0,0:0:0:0:
261,252,7522,54,0,B|286:295|343:285|343:285|393:255|383:198|383:198|349:152|302:161,1,270,4|8,3:0|2:0,0:0:0:0:
302,156,8054,1,0,0:0:0:0:
280,163,8131,1,8,0:0:0:0:
466,252,8283,1,8,0:0:0:0:
289,359,8435,1,8,0:0:0:0:
91,235,8587,6,0,B|143:222|143:222|200:255|200:255|277:250,1,180,4|0,0:0|0:0,0:0:0:0:
240,43,9044,2,0,L|231:137,1,90,8|0,0:0|0:0,0:0:0:0:
150,86,9349,5,0,0:0:0:0:
260,251,9501,1,0,0:0:0:0:
65,248,9653,1,8,0:0:0:0:
298,172,9806,1,0,0:0:0:0:
166,292,9958,6,0,L|177:197,1,90
240,43,10263,1,8,0:0:0:0:
362,255,10416,1,0,0:0:0:0:
358,61,10568,5,0,0:0:0:0:
147,140,10719,1,0,0:0:0:0:
373,275,10872,1,8,0:0:0:0:
166,292,11024,6,0,L|288:281,1,90,4|0,0:0|0:0,0:0:0:0:
410,347,11329,1,0,0:0:0:0:
460,95,11481,2,0,P|478:151|471:195,1,90,10|0,0:0|0:0,0:0:0:0:
286,297,11785,5,2,0:0:0:0:
406,151,11938,1,0,0:0:0:0:
208,238,12090,1,10,0:0:0:0:
370,352,12242,1,0,0:0:0:0:
309,122,12395,6,0,L|305:211,1,90,2|0,0:2|0:0,0:0:0:0:
95,161,12699,1,10,0:0:0:0:
93,251,12851,2,0,L|96:161,1,90,0|2,0:0|0:0,0:0:0:0:
174,17,13156,1,2,0:0:0:0:
258,149,13308,1,10,0:0:0:0:
43,91,13461,6,0,B|101:75|101:75|168:101|168:101|230:87,1,180,6|0,0:0|0:0,0:0:0:0:
360,52,13917,1,8,0:0:0:0:
177,20,14070,1,0,0:0:0:0:
224,185,14222,5,0,0:0:0:0:
272,30,14374,1,0,0:0:0:0:
380,225,14527,1,8,0:0:0:0:
214,90,14679,1,0,0:0:0:0:
441,136,14831,5,0,0:0:0:0:
229,104,14983,1,0,0:0:0:0:
391,27,15136,1,8,0:0:0:0:
306,200,15288,1,0,0:0:0:0:
272,30,15440,5,0,0:0:0:0:
272,30,15593,1,0,0:0:0:0:
148,278,15745,1,8,0:0:0:0:
49,109,15897,6,0,L|252:103,1,180,4|0,0:0|0:0,0:0:0:0:
222,326,16354,6,0,L|237:205,1,107.999996704102,8|0,0:0|0:0,0:0:0:0:
327,23,16659,6,0,L|336:112,1,90
454,258,16963,6,0,L|462:172,1,72,8|0,0:0|0:0,0:0:0:0:
306,200,17268,5,0,0:0:0:0:
452,10,17420,2,0,L|443:99,1,90,0|8,0:0|0:0,0:0:0:0:
57,99,17725,5,0,0:0:0:0:
203,289,17877,2,0,L|194:200,1,90,0|8,0:0|0:0,0:0:0:0:
188,173,18105,1,8,0:0:0:0:
188,173,18181,1,8,0:0:0:0:
300,302,18334,6,0,B|480:283,1,180,4|0,0:0|0:0,0:0:0:0:
274,121,18791,2,0,B|263:168|263:168|283:225,1,90,8|0,0:0|0:0,0:0:0:0:
277,374,19095,5,0,0:0:0:0:
354,165,19247,1,0,0:0:0:0:
195,278,19400,5,8,0:0:0:0:
152,103,19552,1,0,0:0:0:0:
36,237,19704,6,0,L|130:233,1,90
286,229,20009,1,8,0:0:0:0:
136,93,20161,1,0,0:0:0:0:
187,325,20313,5,0,0:0:0:0:
226,110,20466,1,0,0:0:0:0:
322,249,20618,1,8,0:0:0:0:
396,105,20770,6,0,B|349:80|349:80|213:113,1,180,6|0,0:0|0:0,0:0:0:0:
457,38,21227,1,10,0:0:0:0:
398,260,21379,5,0,0:0:0:0:
470,27,21532,1,2,0:0:0:0:
472,253,21684,5,0,0:0:0:0:
367,62,21836,1,10,0:0:0:0:
488,293,21989,5,0,0:0:0:0:
286,99,22141,1,2,0:0:0:0:
322,249,22293,5,0,0:0:0:0:
227,37,22445,1,10,0:0:0:0:
253,231,22598,5,2,0:0:0:0:
122,65,22750,1,2,0:0:0:0:
327,20,22902,1,2,0:0:0:0:
116,201,23054,1,10,0:0:0:0:
323,139,23207,6,0,L|501:117,1,180,6|2,0:0|0:0,0:0:0:0:
400,22,23664,1,8,0:0:0:0:
314,243,23816,5,0,0:0:0:0:
227,37,23968,2,0,L|217:134,1,90
410,126,24273,5,8,0:0:0:0:
323,332,24425,2,0,L|313:242,1,90
307,50,24730,5,0,0:0:0:0:
210,218,24882,1,8,0:0:0:0:
94,30,25034,6,0,B|79:76|79:76|93:123,1,90,2|0,0:0|0:0,0:0:0:0:
213,303,25339,2,0,B|224:263|224:263|209:217,1,90,2|8,0:0|0:0,0:0:0:0:
300,71,25643,6,0,B|347:60|347:60|404:88|404:88|491:73,1,180,4|0,0:0|0:0,0:0:0:0:
298,227,26100,6,0,L|186:214,1,90,8|0,0:0|0:0,0:0:0:0:
35,73,26405,2,0,P|31:114|42:164,1,90
208,216,26709,5,8,0:0:0:0:
41,287,26862,1,0,0:0:0:0:
377,281,27014,5,0,0:0:0:0:
187,193,27167,1,0,0:0:0:0:
422,106,27318,2,0,B|411:150|411:150|428:213,1,90,8|8,0:0|0:0,0:0:0:0:
439,272,27547,1,8,0:0:0:0:
439,272,27623,2,0,L|338:261,1,90,8|0,0:0|0:0,0:0:0:0:
69,211,27928,6,0,B|198:180|153:273|281:234,1,202.500007724762
294,166,28232,6,0,L|292:56,1,107.999996704102,4|0,0:0|0:0,0:0:0:0:
262,240,28689,2,0,P|319:239|372:195,1,107.999996704102
479,286,29298,6,0,B|416:264|416:264|368:326|259:318,1,215.999993408203
283,318,30364,1,0,0:0:0:0:
209,135,30516,5,0,3:0:0:0:
209,135,30669,2,0,P|237:177|229:233,1,107.999996704102,4|0,1:2|0:0,0:0:0:0:
175,326,31126,2,0,L|286:317,1,107.999996704102
464,286,31735,6,0,P|433:266|348:259,1,107.999996704102
463,160,32192,2,0,L|470:49,1,107.999996704102
177,7,32801,1,0,0:0:0:0:
177,204,32953,5,0,3:0:0:0:
252,128,33105,2,0,L|371:124,1,107.999996704102,4|0,0:0|0:0,0:0:0:0:
469,225,33562,2,0,L|354:218,1,107.999996704102
96,303,34171,6,0,P|100:219|231:202,1,215.999993408203
212,188,35237,1,0,0:0:0:0:
174,368,35542,2,0,L|166:254,1,107.999996704102
282,48,35999,5,2,0:0:0:0:
362,113,36151,2,0,L|349:227,1,107.999996704102
261,326,36608,1,2,0:0:0:0:
159,308,36760,6,0,B|112:281|112:281|65:336|19:331,1,161.999995056153
242,166,37370,5,2,1:2:0:0:
29,139,37522,2,0,L|37:242,1,90,0|8,3:0|1:2,0:0:0:0:
200,250,37826,6,0,B|246:271|297:240|297:240|341:257|395:238,1,180,12|0,3:0|0:0,0:0:0:0:
485,166,38283,1,8,0:0:0:0:
361,78,38435,6,0,L|348:175,1,90
187,33,38740,2,0,L|200:130,1,90,0|8,0:0|0:0,0:0:0:0:
245,312,39044,2,0,L|258:215,1,90
136,262,39349,5,0,0:0:0:0:
357,164,39501,2,0,L|454:176,1,90,8|0,0:0|0:0,0:0:0:0:
378,284,39806,5,0,0:0:0:0:
238,33,39958,2,0,L|249:123,1,90,0|8,0:0|0:0,0:0:0:0:
159,265,40263,1,0,0:0:0:0:
116,191,40415,6,0,B|210:161|202:233|300:196,1,180,0|8,0:0|0:0,0:0:0:0:
406,335,40872,2,0,L|415:238,1,90
240,41,41176,2,0,L|248:130,1,90,0|8,0:0|0:0,0:0:0:0:
358,238,41481,5,0,0:0:0:0:
162,151,41633,1,0,0:0:0:0:
354,74,41785,1,0,0:0:0:0:
287,197,41938,2,0,B|272:243|272:243|294:296,1,90,8|0,0:0|0:0,0:0:0:0:
41,346,42242,5,0,0:0:0:0:
71,194,42395,1,0,0:0:0:0:
225,346,42547,5,8,0:0:0:0:
195,194,42699,1,0,0:0:0:0:
82,279,42851,6,0,L|183:276,1,90,4|0,0:0|0:0,0:0:0:0:
347,246,43156,1,8,0:0:0:0:
301,83,43308,6,0,P|281:126|276:175,1,90
156,323,43613,2,0,P|203:316|247:294,1,90,0|8,0:0|0:0,0:0:0:0:
432,275,43917,2,0,P|385:266|343:243,1,90
185,188,44222,5,0,0:0:0:0:
416,77,44374,2,0,L|407:198,1,90,8|0,0:0|0:0,0:0:0:0:
409,344,44679,5,0,0:0:0:0:
279,239,44831,1,0,0:0:0:0:
483,144,44983,1,8,0:0:0:0:
313,55,45136,1,0,0:0:0:0:
386,223,45288,5,0,0:0:0:0:
160,292,45440,2,0,L|278:288,1,90,0|8,0:0|0:0,0:0:0:0:
476,234,45745,2,0,L|372:222,1,90
245,45,46049,2,0,L|238:152,1,90,0|8,0:0|0:0,0:0:0:0:
328,325,46354,1,0,0:0:0:0:
343,65,46506,5,8,0:0:0:0:
151,89,46659,5,8,0:0:0:0:
125,79,46735,1,0,0:0:0:0:
99,71,46811,1,8,0:0:0:0:
189,285,46963,2,0,L|203:330,2,45,8|0|8,0:0|0:0|0:0,0:0:0:0:
356,83,47268,5,8,0:0:0:0:
368,49,47344,1,0,0:0:0:0:
378,14,47420,1,8,0:0:0:0:
340,328,47572,5,8,0:0:0:0:
355,285,47648,1,0,0:0:0:0:
372,233,47725,6,0,L|258:222,1,107.999996704102,8|0,3:0|0:0,0:0:0:0:
90,56,48029,2,0,P|50:98|35:151,1,107.999996704102,10|0,0:0|0:0,0:0:0:0:
118,250,48334,2,0,L|125:121,1,107.999996704102,2|0,0:0|0:0,0:0:0:0:
262,298,48638,1,8,0:0:0:0:
281,51,48791,6,0,L|274:158,1,107.999996704102,2|0,0:0|0:0,0:0:0:0:
118,250,49095,1,0,0:0:0:0:
271,178,49247,1,10,0:0:0:0:
35,144,49400,1,2,0:0:0:0:
294,292,49552,5,2,0:0:0:0:
132,61,49704,2,0,B|122:175,1,107.999996704102,8|2,0:0|0:0,0:0:0:0:
460,155,50009,2,0,B|385:101|311:104|311:104|338:123|345:169,1,215.999993408203,10|0,0:0|0:0,0:0:0:0:
421,333,50466,2,0,P|431:262|415:214,1,107.999996704102,10|0,0:0|0:0,0:0:0:0:
255,169,50770,2,0,B|123:159,1,107.999996704102,0|2,0:0|0:0,0:0:0:0:
353,275,51075,1,8,0:0:0:0:
332,50,51227,6,0,B|357:100|357:100|339:154,1,107.999996704102,2|0,0:0|0:0,0:0:0:0:
273,355,51532,1,2,0:0:0:0:
53,91,51684,6,0,B|123:65|123:65|257:102,1,202.500007724762,8|0,0:0|0:0,0:0:0:0:
276,111,51989,1,0,0:0:0:0:
108,334,52141,1,10,0:0:0:0:
98,302,52217,1,0,0:0:0:0:
92,271,52293,1,0,0:0:0:0:
286,366,52445,1,8,0:0:0:0:
239,37,52598,6,0,P|198:93|201:145,1,107.999996704102,2|0,0:0|0:0,0:0:0:0:
446,349,52902,2,0,P|475:286|462:235,1,107.999996704102,2|2,0:0|0:0,0:0:0:0:
441,159,53131,1,2,0:0:0:0:
434,175,53207,2,0,L|324:211,1,107.999996704102,2|0,0:0|0:0,0:0:0:0:
104,121,53511,1,8,0:0:0:0:
193,358,53664,6,0,P|208:306|189:245,1,107.999996704102,2|0,0:0|0:0,0:0:0:0:
15,185,53968,1,2,0:0:0:0:
272,107,54120,1,8,0:0:0:0:
128,300,54273,1,2,0:0:0:0:
295,98,54425,5,0,0:0:0:0:
405,325,54577,2,0,L|528:340,1,107.999996704102,8|0,0:0|0:0,0:0:0:0:
295,98,54882,2,0,B|223:57|141:68|141:68|189:136,1,215.999993408203,10|0,0:0|0:0,0:0:0:0:
307,298,55339,2,0,P|320:246|303:191,1,107.999996704102,8|0,0:0|0:0,0:0:0:0:
173,113,55643,2,0,L|50:97,1,107.999996704102
243,244,55948,1,8,0:0:0:0:
435,54,56100,6,0,B|476:119|476:119|440:283,1,233.999989288331,2|0,0:0|0:0,0:0:0:0:
160,348,56557,2,0,P|151:272|173:223,1,107.999996704102,8|8,0:0|0:0,0:0:0:0:
235,298,56785,1,8,0:0:0:0:
242,310,56862,1,8,0:0:0:0:
43,232,57014,1,10,0:0:0:0:
265,124,57166,1,8,0:0:0:0:
33,40,57318,1,10,0:0:0:0:
279,138,57471,6,0,B|403:119,2,107.999996704102,2|0|2,0:0|0:0|0:0,0:0:0:0:
489,42,58385,1,0,0:0:0:0:
489,42,58537,2,0,L|483:156,1,107.999996704102,2|0,0:0|0:0,0:0:0:0:
483,149,58994,1,2,0:0:0:0:
252,204,59298,1,2,0:0:0:0:
452,332,59603,1,2,0:0:0:0:
452,332,59907,6,0,L|458:258,1,53.9999983520508,2|0,0:0|0:0,0:0:0:0:
439,357,60364,6,0,L|445:281,1,71.9999978027344,2|0,0:0|0:0,0:0:0:0:
420,383,60821,6,0,L|428:280,1,80.9999975280763,2|0,0:0|0:0,0:0:0:0:
140,58,61735,6,0,B|112:97|112:97|133:209,1,157.499995193482
218,237,62192,6,0,P|194:186|64:195,1,198.000006042481,8|0,3:0|0:0,0:0:0:0:
330,354,62648,2,0,L|449:339,1,99.0000030212403,8|0,0:0|0:0,0:0:0:0:
378,105,62953,1,0,0:0:0:0:
286,276,63105,1,0,0:0:0:0:
488,193,63258,1,8,0:0:0:0:
257,103,63410,1,0,0:0:0:0:
463,290,63562,6,0,L|360:282,1,99.0000030212403
286,276,63791,1,0,0:0:0:0:
268,274,63867,1,8,0:0:0:0:
479,97,64019,2,0,P|494:163|481:206,1,99.0000030212403
250,271,64324,1,0,0:0:0:0:
461,372,64476,1,8,0:0:0:0:
411,47,64628,6,0,B|349:28|349:28|210:68,1,198.000006042481,4|0,0:0|0:0,0:0:0:0:
335,311,65085,2,0,B|344:256|344:256|324:210,1,99.0000030212403,8|0,0:0|0:0,0:0:0:0:
94,275,65390,1,0,0:0:0:0:
192,69,65542,2,0,L|196:171,1,99.0000030212403,0|8,0:0|0:0,0:0:0:0:
273,351,65846,1,0,0:0:0:0:
369,83,65999,6,0,L|266:75,1,99.0000030212403,0|2,0:0|0:0,0:0:0:0:
192,69,66228,1,2,0:0:0:0:
174,67,66304,1,10,0:0:0:0:
273,351,66456,2,0,P|288:292|264:240,1,99.0000030212403
59,135,66760,2,0,L|49:74,1,49.5000015106202
180,252,66912,2,0,B|195:151,1,99.0000030212403,8|0,0:0|0:0,0:0:0:0:
32,336,67217,6,0,L|139:356,1,99.0000030212403,4|0,0:0|0:0,0:0:0:0:
402,164,67522,2,0,L|304:182,1,99.0000030212403,8|0,0:0|0:0,0:0:0:0:
50,86,67826,1,0,0:0:0:0:
50,86,67978,1,0,0:0:0:0:
303,53,68131,1,8,0:0:0:0:
178,273,68283,1,0,0:0:0:0:
178,69,68435,5,4,0:0:0:0:
434,156,68587,1,0,0:0:0:0:
434,156,68664,1,0,0:0:0:0:
434,156,68740,1,8,0:0:0:0:
257,260,68892,1,0,0:0:0:0:
303,53,69044,5,0,0:0:0:0:
358,266,69197,1,0,0:0:0:0:
504,116,69349,1,8,0:0:0:0:
346,281,69501,1,0,0:0:0:0:
443,48,69653,6,0,B|412:98|412:98|437:236,1,198.000006042481,4|8,0:0|0:0,0:0:0:0:
463,367,70110,1,0,0:0:0:0:
277,249,70263,1,0,0:0:0:0:
507,191,70415,1,0,0:0:0:0:
349,349,70567,1,8,0:0:0:0:
330,152,70719,1,0,0:0:0:0:
192,351,70872,6,0,L|83:338,1,99.0000030212403,4|2,0:0|0:0,0:0:0:0:
93,339,71100,1,2,0:0:0:0:
93,339,71176,1,10,0:0:0:0:
123,31,71329,1,0,1:0:0:0:
91,61,71405,1,0,1:0:0:0:
80,104,71481,1,0,1:0:0:0:
96,145,71557,1,0,1:0:0:0:
128,176,71633,5,0,1:0:0:0:
160,192,71709,1,0,1:0:0:0:
208,192,71785,1,0,1:0:0:0:
256,176,71862,1,0,1:0:0:0:
304,176,71938,6,0,B|366:305|366:305|339:286|305:291,1,198.000006042481,8|0,3:0|0:0,0:0:0:0:
85,146,72395,6,0,L|193:154,1,99.0000030212403,8|0,0:0|0:0,0:0:0:0:
365,126,72699,1,0,0:0:0:0:
168,38,72851,1,0,0:0:0:0:
318,223,73004,1,8,0:0:0:0:
406,29,73156,1,0,0:0:0:0:
416,230,73308,6,0,L|313:222,1,99.0000030212403,0|2,0:0|0:0,0:0:0:0:
239,216,73537,1,2,0:0:0:0:
221,214,73613,1,10,0:0:0:0:
33,321,73765,1,0,0:0:0:0:
297,362,73917,1,0,0:0:0:0:
98,182,74070,1,0,0:0:0:0:
284,366,74222,1,8,0:0:0:0:
377,118,74374,6,0,B|179:147,1,198.000006042481,4|0,0:0|0:0,0:0:0:0:
348,323,74831,2,0,L|358:216,1,99.0000030212403,8|0,0:0|0:0,0:0:0:0:
140,272,75136,1,0,0:0:0:0:
140,272,75288,1,0,0:0:0:0:
345,350,75440,5,8,0:0:0:0:
76,243,75593,1,0,0:0:0:0:
418,184,75745,5,8,0:0:0:0:
76,315,75897,1,0,0:0:0:0:
418,335,76049,5,8,0:0:0:0:
76,170,76202,1,0,0:0:0:0:
325,348,76354,6,0,L|334:293,1,49.5000015106202,8|0,0:0|0:0,0:0:0:0:
356,31,76506,1,0,1:0:0:0:
322,67,76582,1,0,1:0:0:0:
314,116,76659,1,0,1:0:0:0:
346,153,76735,1,0,1:0:0:0:
394,161,76811,1,0,1:0:0:0:
436,136,76887,1,0,1:0:0:0:
465,96,76963,2,0,P|471:51|448:-2,1,99.0000030212403,12|0,0:0|0:0,0:0:0:0:
183,141,77268,5,0,0:0:0:0:
421,353,77420,2,0,B|440:235,1,99.0000030212403,8|0,0:0|0:0,0:0:0:0:
61,248,77725,5,0,0:0:0:0:
299,36,77877,2,0,B|314:133,1,99.0000030212403,8|0,0:0|0:0,0:0:0:0:
324,212,78105,1,0,0:0:0:0:
324,212,78181,1,12,0:0:0:0:
141,82,78334,5,0,0:0:0:0:
387,164,78486,1,0,0:0:0:0:
172,231,78638,1,10,0:0:0:0:
299,36,78791,1,0,0:0:0:0:
332,273,78943,1,10,0:0:0:0:
42,75,79095,6,0,B|159:83,1,99.0000030212403,8|0,0:0|0:0,0:0:0:0:
220,87,79324,1,0,0:0:0:0:
220,87,79400,1,12,0:0:0:0:
217,311,79552,5,0,0:0:0:0:
140,81,79704,1,8,0:0:0:0:
370,240,79857,5,0,0:0:0:0:
463,29,80009,1,8,0:0:0:0:
181,24,80161,5,0,0:0:0:0:
461,192,80313,1,8,0:0:0:0:
188,287,80466,5,0,0:0:0:0:
447,55,80618,1,8,0:0:0:0:
377,355,80770,5,0,1:0:0:0:
409,317,80846,1,0,1:0:0:0:
409,266,80923,1,0,1:0:0:0:
368,238,80999,1,0,1:0:0:0:
319,247,81075,1,0,1:0:0:0:
298,291,81151,1,0,1:0:0:0:
273,344,81227,5,2,0:0:0:0:
217,365,81303,1,2,0:0:0:0:
158,353,81379,1,2,0:0:0:0:
115,312,81456,1,0,0:0:0:0:
110,256,81532,2,0,P|107:226|123:185,1,49.5000015106202
69,53,81684,6,0,B|118:38|161:61|161:61|218:39|218:39|279:59,1,215.999993408203,4|0,0:0|0:0,0:0:0:0:
190,331,82141,2,0,L|81:343,1,90,12|0,0:0|0:0,0:0:0:0:
108,128,82445,1,0,0:0:0:0:
281,334,82598,1,0,0:0:0:0:
75,240,82750,1,8,0:0:0:0:
269,158,82902,1,0,0:0:0:0:
80,329,83054,6,0,L|74:222,1,90
179,44,83359,1,8,0:0:0:0:
372,229,83511,6,0,L|263:235,1,90
46,144,83816,1,0,0:0:0:0:
258,61,83968,1,8,0:0:0:0:
157,372,84120,6,0,B|175:321|175:321|153:194,1,180,6|0,0:0|0:0,0:0:0:0:
274,74,84577,2,0,L|373:85,1,90,10|0,0:0|0:0,0:0:0:0:
122,68,84881,5,2,0:0:0:0:
377,109,85034,1,0,0:0:0:0:
166,182,85186,1,10,0:0:0:0:
248,8,85338,1,0,0:0:0:0:
326,195,85491,6,0,L|316:300,1,90,2|0,0:0|0:0,0:0:0:0:
101,351,85796,1,10,0:0:0:0:
107,33,85948,6,0,L|97:138,1,90,2|2,0:0|0:0,0:0:0:0:
206,319,86252,1,2,0:0:0:0:
316,166,86404,1,10,0:0:0:0:
23,217,86557,6,0,B|237:238,1,180,6|0,0:0|0:0,0:0:0:0:
483,344,87014,2,0,L|379:353,1,90,8|0,0:0|0:0,0:0:0:0:
208,250,87318,1,0,0:0:0:0:
404,178,87471,1,0,0:0:0:0:
293,358,87623,1,8,0:0:0:0:
242,170,87775,1,0,0:0:0:0:
465,116,87928,6,0,P|487:169|454:248,1,135
442,269,88232,1,8,0:0:0:0:
232,99,88384,1,0,0:0:0:0:
203,306,88537,5,0,0:0:0:0:
243,80,88689,1,0,0:0:0:0:
361,231,88841,1,8,0:0:0:0:
175,33,88994,6,0,B|-20:76,1,180,6|0,0:0|0:0,0:0:0:0:
48,294,89450,2,0,L|153:316,1,90,10|0,0:0|0:0,0:0:0:0:
304,92,89755,2,0,L|199:114,1,90,2|0,0:0|0:0,0:0:0:0:
390,355,90060,2,0,L|301:336,1,90,10|0,0:0|0:0,0:0:0:0:
104,191,90364,5,2,0:0:0:0:
383,144,90516,1,0,0:0:0:0:
136,312,90669,1,8,0:0:0:0:
234,62,90821,1,8,0:0:0:0:
234,62,90897,1,8,0:0:0:0:
234,62,90973,1,8,0:0:0:0:
462,55,91126,5,8,0:0:0:0:
216,211,91278,1,8,0:0:0:0:
470,310,91430,1,8,0:0:0:0:
462,55,91735,5,2,0:0:0:0:
397,270,91887,1,0,0:0:0:0:
462,55,92039,1,0,0:0:0:0:
293,335,92192,5,2,0:0:0:0:
212,102,92344,1,2,0:0:0:0:
293,335,92496,1,2,0:0:0:0:
490,202,92648,6,0,B|435:180|435:180|258:215,1,215.999993408203,0|8,3:0|0:0,0:0:0:0:
57,360,93105,2,0,L|51:302,1,53.9999983520508
85,234,93258,1,0,0:0:0:0:
85,234,93334,1,0,0:0:0:0:
85,234,93410,1,8,0:0:0:0:
225,316,93562,5,8,0:0:0:0:
57,360,93714,1,0,0:0:0:0:
225,316,93867,5,0,0:0:0:0:
225,316,93943,1,0,0:0:0:0:
225,316,94019,6,0,L|318:327,1,90
479,272,94324,1,8,0:0:0:0:
396,187,94476,2,0,P|368:231|370:295,1,90
420,354,94780,5,8,0:0:0:0:
258,232,94933,2,0,L|155:247,1,90
37,58,95237,5,8,0:0:0:0:
123,79,95390,1,0,0:0:0:0:
210,101,95542,1,0,0:0:0:0:
365,210,95694,5,8,0:0:0:0:
263,239,95847,1,0,0:0:0:0:
160,268,95999,1,0,0:0:0:0:
331,290,96151,5,8,0:0:0:0:
500,365,96303,1,0,0:0:0:0:
368,113,96456,6,0,B|263:139,1,90,8|0,0:0|0:0,0:0:0:0:
79,234,96760,1,0,0:0:0:0:
418,311,96912,6,0,B|313:285,1,90,8|0,0:0|0:0,0:0:0:0:
133,181,97216,1,0,0:0:0:0:
302,47,97369,6,0,B|276:152,1,90,8|0,0:0|0:0,0:0:0:0:
188,339,97673,1,0,0:0:0:0:
358,191,97826,5,8,0:0:0:0:
140,152,97978,1,2,0:0:0:0:
302,47,98131,1,0,0:0:0:0:
254,278,98283,5,10,0:0:0:0:
215,105,98435,1,2,0:0:0:0:
396,356,98587,5,8,0:0:0:0:
435,183,98739,1,2,0:0:0:0:
254,354,98892,6,0,L|155:364,1,90,10|0,0:0|0:0,0:0:0:0:
2,267,99197,1,0,0:0:0:0:
168,69,99349,6,0,L|178:168,1,90,10|0,0:0|0:0,0:0:0:0:
81,321,99654,1,0,0:0:0:0:
294,172,99806,6,0,L|383:181,1,90,10|0,0:0|0:0,0:0:0:0:
504,313,100110,1,0,0:0:0:0:
460,54,100263,6,0,L|450:143,1,90,10|0,0:0|0:0,0:0:0:0:
319,264,100567,1,0,0:0:0:0:
488,351,100719,5,10,0:0:0:0:
298,264,100872,1,0,0:0:0:0:
499,197,101024,5,10,0:0:0:0:
277,264,101177,1,0,0:0:0:0:
373,30,101329,6,0,P|343:69|338:124,1,90,10|0,0:0|0:0,0:0:0:0:
250,335,101633,1,0,0:0:0:0:
130,132,101785,6,0,L|32:151,1,90,10|0,0:0|0:0,0:0:0:0:
259,351,102089,1,0,0:0:0:0:
398,144,102242,6,0,L|486:161,1,90,10|0,0:0|0:0,0:0:0:0:
267,366,102546,1,0,0:0:0:0:
215,99,102699,5,0,0:0:0:0:
215,99,102775,1,0,0:0:0:0:
215,99,102851,2,0,L|203:164,1,53.9999983520508
182,358,103004,1,0,1:0:0:0:
224,361,103080,1,0,1:0:0:0:
261,340,103156,1,0,1:0:0:0:
279,302,103232,1,0,1:0:0:0:
273,260,103308,1,0,1:0:0:0:
243,229,103384,1,0,1:0:0:0:
191,212,103461,5,0,1:0:0:0:
201,264,103537,1,0,1:0:0:0:
246,292,103613,1,0,1:0:0:0:
296,272,103689,1,0,1:0:0:0:
314,221,103765,6,0,L|302:122,1,90,4|8,0:0|0:0,0:0:0:0:
126,40,104070,1,0,0:0:0:0:
120,65,104146,1,0,0:0:0:0:
116,91,104222,1,8,0:0:0:0:
272,32,104374,2,0,L|365:55,1,90,0|8,0:0|0:0,0:0:0:0:
186,185,104679,6,0,L|175:247,2,45,0|0|8,0:0|0:0|0:0,0:0:0:0:
359,53,104983,2,0,B|371:98|371:98|356:151,1,90,0|8,0:0|0:0,0:0:0:0:
198,27,105288,1,0,0:0:0:0:
198,27,105364,1,0,0:0:0:0:
198,27,105440,1,8,0:0:0:0:
178,229,105593,6,0,L|88:212,1,90,0|8,0:0|0:0,0:0:0:0:
359,139,105897,1,0,0:0:0:0:
354,165,105973,1,0,0:0:0:0:
349,191,106049,1,8,0:0:0:0:
349,336,106202,6,0,L|437:352,1,90,4|8,0:0|0:0,0:0:0:0:
210,127,106506,1,0,0:0:0:0:
210,127,106582,1,0,0:0:0:0:
210,127,106659,2,0,L|121:143,1,90,8|0,0:0|0:0,0:0:0:0:
277,34,106963,1,8,0:0:0:0:
344,263,107115,1,0,0:0:0:0:
335,236,107192,1,0,0:0:0:0:
328,210,107268,1,8,0:0:0:0:
129,53,107420,6,0,L|121:144,1,90,0|8,0:0|0:0,0:0:0:0:
344,263,107725,2,0,L|335:316,2,45,0|0|8,0:0|0:0|0:0,0:0:0:0:
277,106,108029,1,0,0:0:0:0:
194,280,108181,1,8,0:0:0:0:
409,151,108334,5,0,0:0:0:0:
382,153,108410,1,0,0:0:0:0:
356,156,108486,1,8,0:0:0:0:
94,276,108638,6,0,L|194:289,1,90,0|8,0:0|0:0,0:0:0:0:
366,94,108943,1,0,0:0:0:0:
366,94,109019,1,0,0:0:0:0:
366,94,109095,2,0,L|276:105,1,90,8|0,0:0|0:0,0:0:0:0:
34,49,109400,5,8,0:0:0:0:
208,213,109552,1,0,0:0:0:0:
208,213,109628,1,0,0:0:0:0:
208,213,109704,1,8,0:0:0:0:
182,13,109857,6,0,P|151:48|142:98,1,90,0|8,0:0|0:0,0:0:0:0:
377,183,110161,1,0,0:0:0:0:
377,183,110237,1,0,0:0:0:0:
377,183,110313,2,0,L|369:73,1,90,8|0,0:0|0:0,0:0:0:0:
147,162,110618,2,0,L|153:251,1,90,8|0,0:0|0:0,0:0:0:0:
318,330,110923,5,8,0:0:0:0:
59,210,111075,1,0,0:0:0:0:
258,138,111227,1,8,0:0:0:0:
162,345,111379,1,0,0:0:0:0:
162,345,111456,1,0,0:0:0:0:
162,345,111532,1,8,0:0:0:0:
189,80,111684,6,0,P|170:142|176:170,1,90,0|8,0:0|0:0,0:0:0:0:
437,340,111989,2,0,L|424:239,1,90,0|8,0:0|0:0,0:0:0:0:
269,39,112293,6,0,L|274:91,1,45
294,354,112445,1,0,1:0:0:0:
320,317,112522,1,0,1:0:0:0:
332,273,112598,1,0,1:0:0:0:
313,231,112674,1,0,1:0:0:0:
274,208,112750,1,0,1:0:0:0:
229,208,112826,1,0,1:0:0:0:
196,237,112902,1,0,1:0:0:0:
170,273,112978,1,0,1:0:0:0:
132,299,113054,1,0,1:0:0:0:
87,287,113131,1,0,1:0:0:0:
55,254,113207,6,0,L|61:190,1,45,2|2,0:0|0:0,0:0:0:0:
269,39,113359,2,0,L|273:83,1,45,2|2,0:0|0:0,0:0:0:0:
155,350,113511,6,0,P|142:290|176:231,1,107.999996704102,8|0,3:0|0:0,0:0:0:0:
321,136,113816,2,0,B|440:147,1,107.999996704102,10|0,0:0|0:0,0:0:0:0:
485,199,114044,1,0,0:0:0:0:
485,199,114120,1,0,0:0:0:0:
245,287,114273,1,0,0:0:0:0:
320,36,114425,1,8,0:0:0:0:
306,235,114577,6,0,B|327:289|327:289|301:345,1,107.999996704102,2|0,0:0|0:0,0:0:0:0:
459,257,114882,1,0,0:0:0:0:
218,152,115034,1,10,0:0:0:0:
385,354,115186,1,0,0:0:0:0:
202,143,115339,5,10,0:0:0:0:
440,34,115491,2,0,B|452:144,1,107.999996704102,0|8,0:0|0:0,0:0:0:0:
241,262,115796,2,0,B|300:257|300:257|371:299|371:299|465:290,1,215.999993408203,2|0,0:0|0:0,0:0:0:0:
147,43,116252,2,0,L|138:152,1,107.999996704102,10|0,0:0|0:0,0:0:0:0:
137,227,116481,1,0,0:0:0:0:
137,259,116557,1,0,0:0:0:0:
295,126,116709,1,2,0:0:0:0:
59,57,116862,1,8,0:0:0:0:
247,350,117014,6,0,P|234:290|249:230,1,107.999996704102,2|0,0:0|0:0,0:0:0:0:
247,31,117318,1,2,0:0:0:0:
397,177,117471,2,0,B|285:219|299:114|184:169,1,202.500007724762,8|0,0:0|0:0,0:0:0:0:
143,199,117775,1,0,0:0:0:0:
430,285,117928,1,0,0:0:0:0:
430,285,118004,1,0,0:0:0:0:
430,285,118080,1,8,0:0:0:0:
345,30,118232,1,0,0:0:0:0:
229,357,118384,6,0,L|240:254,1,90,2|0,0:0|0:0,0:0:0:0:
476,131,118689,2,0,P|492:186|484:221,1,90,8|2,0:0|0:0,0:0:0:0:
430,285,118917,1,2,0:0:0:0:
430,285,118994,2,0,L|330:275,1,90,2|0,0:0|0:0,0:0:0:0:
110,154,119298,1,8,0:0:0:0:
302,38,119450,6,0,L|292:138,1,90,2|0,0:0|0:0,0:0:0:0:
171,358,119754,1,0,0:0:0:0:
385,284,119907,1,10,0:0:0:0:
125,148,120060,1,0,0:0:0:0:
125,148,120136,1,0,0:0:0:0:
125,148,120212,2,0,P|114:195|125:250,1,90,2|0,0:0|0:0,0:0:0:0:
336,194,120516,5,8,0:0:0:0:
132,50,120669,2,0,L|39:68,1,90,2|0,0:0|0:0,0:0:0:0:
112,341,120973,5,0,0:0:0:0:
256,137,121126,2,0,L|238:44,1,90,10|0,0:0|0:0,0:0:0:0:
119,235,121430,5,0,0:0:0:0:
119,235,121582,1,0,0:0:0:0:
406,40,121735,1,10,0:0:0:0:
255,360,121887,6,0,B|223:293|223:293|257:131,1,233.999989288331,2|0,0:0|0:0,0:0:0:0:
490,32,122344,2,0,P|499:108|477:157,1,107.999996704102,8|8,0:0|0:0,0:0:0:0:
414,83,122572,1,8,0:0:0:0:
402,64,122649,1,8,0:0:0:0:
169,157,122801,1,8,0:0:0:0:
405,273,122953,1,8,0:0:0:0:
226,40,123105,1,8,0:0:0:0:
289,243,123258,6,0,L|300:368,2,107.999996704102,2|2|2,0:0|0:0|0:0,0:0:0:0:
186,41,124171,1,0,0:0:0:0:
75,234,124324,6,0,L|200:245,1,107.999996704102,2|0,0:0|0:0,0:0:0:0:
182,243,124780,1,2,0:0:0:0:
414,194,125085,1,2,0:0:0:0:
199,90,125390,1,2,0:0:0:0:
259,278,125694,5,2,0:0:0:0:
208,72,125846,1,0,0:0:0:0:
182,243,125999,1,0,0:0:0:0:
354,191,126151,1,0,0:0:0:0:
187,142,126303,5,0,0:0:0:0:
366,209,126456,1,0,0:0:0:0:
181,262,126608,1,0,0:0:0:0:
391,293,126760,1,0,0:0:0:0:
321,21,126912,6,0,L|327:81,1,45
343,342,127065,5,0,1:0:0:0:
382,362,127141,1,0,1:0:0:0:
425,353,127217,1,0,1:0:0:0:
453,318,127293,1,0,1:0:0:0:
448,273,127369,1,0,1:0:0:0:
415,240,127445,1,0,1:0:0:0:
369,244,127522,6,0,L|319:260,1,45,2|2,0:0|0:0,0:0:0:0:
154,84,127674,2,0,L|196:97,1,45,2|2,0:0|0:0,0:0:0:0:
359,267,127826,6,0,L|309:283,1,45,10|2,0:0|0:0,0:0:0:0:
137,52,127978,6,0,B|339:97,1,198.000006042481,8|0,3:0|0:0,0:0:0:0:
174,295,128435,2,0,P|153:249|159:200,1,99.0000030212403,8|0,0:0|0:0,0:0:0:0:
399,236,128740,1,0,0:0:0:0:
169,181,128892,1,0,0:0:0:0:
346,86,129044,1,8,0:0:0:0:
257,332,129197,1,0,0:0:0:0:
285,24,129349,6,0,P|260:69|272:132,1,99.0000030212403
297,182,129578,1,0,0:0:0:0:
297,211,129654,1,8,0:0:0:0:
115,356,129806,2,0,L|103:251,1,99.0000030212403
297,211,130110,1,0,0:0:0:0:
115,111,130263,1,8,0:0:0:0:
295,326,130415,6,0,B|373:317|373:317|411:332|411:332|494:327,1,198.000006042481,4|0,0:0|0:0,0:0:0:0:
213,87,130872,2,0,B|196:136|196:136|205:189,1,99.0000030212403,8|0,0:0|0:0,0:0:0:0:
400,111,131176,1,0,0:0:0:0:
278,350,131329,6,0,L|294:236,1,99.0000030212403,0|8,0:0|0:0,0:0:0:0:
415,105,131633,1,0,0:0:0:0:
116,30,131785,6,0,L|124:133,1,99.0000030212403,0|2,0:0|0:0,0:0:0:0:
134,207,132014,1,2,0:0:0:0:
136,225,132090,1,10,0:0:0:0:
386,134,132242,2,0,P|345:107|283:106,1,99.0000030212403
64,274,132547,6,0,L|75:333,1,49.5000015106202
214,268,132699,2,0,L|224:165,1,99.0000030212403,8|0,0:0|0:0,0:0:0:0:
58,37,133004,6,0,B|44:88|44:88|54:136,1,99.0000030212403,4|0,0:0|0:0,0:0:0:0:
204,283,133308,2,0,B|322:271,1,99.0000030212403,8|0,0:0|0:0,0:0:0:0:
121,205,133613,5,0,0:0:0:0:
121,205,133765,1,0,0:0:0:0:
305,143,133917,1,8,0:0:0:0:
124,87,134070,1,0,0:0:0:0:
342,207,134222,5,4,0:0:0:0:
274,40,134374,1,0,0:0:0:0:
274,40,134450,1,0,0:0:0:0:
274,40,134527,1,8,0:0:0:0:
204,283,134679,1,0,0:0:0:0:
445,310,134831,5,0,0:0:0:0:
237,165,134984,1,0,0:0:0:0:
438,139,135136,1,8,0:0:0:0:
288,313,135288,1,0,0:0:0:0:
393,64,135440,6,0,B|349:109|349:109|372:267,1,198.000006042481,4|8,0:0|0:0,0:0:0:0:
255,97,135897,1,0,0:0:0:0:
450,131,136049,1,0,0:0:0:0:
261,233,136202,1,0,0:0:0:0:
468,130,136354,5,8,0:0:0:0:
240,94,136506,1,0,0:0:0:0:
405,364,136659,6,0,P|415:316|393:264,1,99.0000030212403,4|0,0:0|0:0,0:0:0:0:
398,270,136887,1,0,0:0:0:0:
398,270,136963,1,8,0:0:0:0:
410,3,137115,5,0,1:0:0:0:
394,45,137192,1,0,1:0:0:0:
357,71,137268,1,0,1:0:0:0:
312,74,137344,1,0,1:0:0:0:
272,64,137420,5,0,1:0:0:0:
224,64,137496,1,0,1:0:0:0:
192,96,137572,1,0,1:0:0:0:
176,128,137648,1,0,1:0:0:0:
176,160,137725,6,0,B|164:295|164:295|184:251|233:241,1,198.000006042481,8|0,3:0|0:0,0:0:0:0:
404,97,138181,6,0,P|346:71|291:81,1,99.0000030212403,8|0,0:0|0:0,0:0:0:0:
135,220,138486,1,0,0:0:0:0:
343,144,138638,1,0,0:0:0:0:
111,83,138791,1,8,0:0:0:0:
300,279,138943,1,0,0:0:0:0:
130,345,139095,6,0,L|137:246,1,99.0000030212403
142,168,139324,1,0,0:0:0:0:
144,150,139400,1,8,0:0:0:0:
313,294,139552,5,0,0:0:0:0:
68,206,139704,1,0,0:0:0:0:
278,160,139857,1,0,0:0:0:0:
124,349,140009,1,8,0:0:0:0:
212,70,140161,6,0,B|264:51|264:51|427:95,1,198.000006042481,4|0,0:0|0:0,0:0:0:0:
191,298,140618,2,0,P|181:243|203:195,1,99.0000030212403,8|0,0:0|0:0,0:0:0:0:
401,311,140923,1,0,0:0:0:0:
257,252,141075,1,0,0:0:0:0:
399,171,141227,1,8,0:0:0:0:
302,347,141379,1,0,0:0:0:0:
82,128,141532,5,8,0:0:0:0:
462,266,141684,1,0,0:0:0:0:
73,262,141836,5,8,0:0:0:0:
462,142,141989,1,0,0:0:0:0:
256,34,142141,6,0,L|256:92,1,49.5000015106202,8|0,0:0|0:0,0:0:0:0:
257,342,142293,1,0,1:0:0:0:
305,355,142369,1,0,1:0:0:0:
353,346,142445,1,0,1:0:0:0:
391,315,142521,1,0,1:0:0:0:
411,270,142597,1,0,1:0:0:0:
409,221,142673,1,0,1:0:0:0:
386,176,142750,6,0,L|280:169,1,99.0000030212403,12|0,0:0|0:0,0:0:0:0:
147,165,143054,5,0,0:0:0:0:
380,49,143207,2,0,B|483:74,1,99.0000030212403,8|0,0:0|0:0,0:0:0:0:
348,361,143511,5,0,0:0:0:0:
232,128,143664,2,0,B|257:25,1,99.0000030212403,8|0,0:0|0:0,0:0:0:0:
329,25,143892,1,0,0:0:0:0:
329,25,143968,6,0,B|381:38|381:38|444:15,1,99.0000030212403,12|0,0:0|0:0,0:0:0:0:
313,260,144273,1,0,0:0:0:0:
255,31,144425,1,8,0:0:0:0:
466,157,144577,1,0,0:0:0:0:
202,198,144730,1,0,0:0:0:0:
395,26,144882,6,0,B|380:82|380:82|393:137,1,99.0000030212403,8|0,0:0|0:0,0:0:0:0:
389,197,145111,1,0,0:0:0:0:
389,221,145187,1,12,0:0:0:0:
215,75,145339,5,0,0:0:0:0:
389,249,145491,1,8,0:0:0:0:
480,31,145643,5,0,0:0:0:0:
389,271,145796,1,8,0:0:0:0:
203,56,145948,5,0,0:0:0:0:
389,291,146100,1,8,0:0:0:0:
490,16,146252,1,0,0:0:0:0:
389,321,146405,6,0,B|333:330|333:330|274:309,1,99.0000030212403,12|8,0:0|0:0,0:0:0:0:
222,290,146634,1,8,0:0:0:0:
222,290,146710,1,8,0:0:0:0:
425,325,146862,1,0,0:0:0:0:
309,186,147014,1,8,0:0:0:0:
293,315,147166,1,0,0:0:0:0:
419,251,147318,1,0,0:0:0:0:
254,246,147471,6,0,P|233:158|326:107,1,198.000006042481,4|0,0:0|0:0,0:0:0:0:
254,246,147928,6,0,B|193:257|193:257|140:235|140:235|65:248,1,180
202,152,148384,1,0,0:0:0:0:
285,326,148537,2,0,L|379:313,1,90
302,184,148841,6,0,B|107:164,1,180,2|0,0:0|0:0,0:0:0:0:
122,165,149298,1,2,0:0:0:0:
195,325,149450,2,0,L|288:326,1,90
81,94,149755,6,0,P|50:133|49:204,1,90,2|0,0:0|0:0,0:0:0:0:
42,194,149983,1,0,0:0:0:0:
41,216,150060,1,4,0:0:0:0:
254,252,150212,1,2,0:0:0:0:
122,165,150364,1,2,0:0:0:0:
122,165,150669,5,2,0:0:0:0:
219,181,150821,1,2,0:0:0:0:
316,198,150973,1,0,0:0:0:0:
215,285,151126,5,2,0:0:0:0:
120,313,151278,1,2,0:0:0:0:
26,340,151430,1,0,0:0:0:0:
133,75,151582,6,0,L|120:176,1,90,2|0,0:0|0:0,0:0:0:0:
326,237,151887,2,0,P|335:188|323:148,1,90,2|2,0:0|0:0,0:0:0:0:
171,233,152192,2,0,P|161:281|173:321,1,90,0|2,0:0|0:0,0:0:0:0:
172,319,152420,1,0,0:0:0:0:
172,319,152496,1,2,0:0:0:0:
268,275,152648,1,2,0:0:0:0:
98,232,152801,1,0,0:0:0:0:
266,185,152953,5,2,0:0:0:0:
183,250,153105,1,2,0:0:0:0:
242,342,153258,1,0,0:0:0:0:
275,151,153410,5,2,0:0:0:0:
270,168,153714,5,0,0:0:0:0:
266,185,154019,5,0,0:0:0:0:
236,359,154171,1,2,0:0:0:0:
401,286,154324,1,0,0:0:0:0:
296,267,154476,1,2,0:0:0:0:
353,373,154628,2,0,L|456:371,1,90
442,371,154857,1,0,0:0:0:0:
442,371,154933,1,4,0:0:0:0:
285,343,155085,5,0,0:0:0:0:
453,299,155237,1,2,0:0:0:0:
335,205,155390,1,2,0:0:0:0:
335,205,155694,5,2,0:0:0:0:
453,299,155846,1,2,0:0:0:0:
285,343,155999,1,2,0:0:0:0:
422,185,156151,5,2,0:0:0:0:
422,185,156303,1,0,0:0:0:0:
251,241,156456,5,2,0:0:0:0:
251,241,156608,1,2,0:0:0:0:
251,241,156760,2,0,L|246:177,2,60,2|0|0,0:0|0:0|0:0,0:0:0:0:
335,205,157065,2,0,L|330:141,2,60,2|0|0,0:0|0:0|0:0,0:0:0:0:
422,185,157369,6,0,L|416:93,1,90,6|0,0:0|0:0,0:0:0:0:
246,181,157674,1,8,0:0:0:0:
393,255,157826,1,0,0:0:0:0:
324,50,157978,6,0,L|328:142,1,90,0|8,0:0|0:0,0:0:0:0:
327,176,158207,1,0,0:0:0:0:
327,176,158283,1,0,0:0:0:0:
490,128,158435,1,0,0:0:0:0:
425,311,158587,6,0,L|421:219,1,90,8|0,0:0|0:0,0:0:0:0:
422,185,158816,1,0,0:0:0:0:
422,185,158892,1,0,0:0:0:0:
205,298,159044,6,0,L|303:312,1,90,8|0,0:0|0:0,0:0:0:0:
72,341,159349,1,0,0:0:0:0:
142,144,159501,2,0,P|151:204|142:236,1,90,8|0,0:0|0:0,0:0:0:0:
143,231,159730,1,0,0:0:0:0:
143,231,159806,1,4,0:0:0:0:
300,313,159958,5,0,0:0:0:0:
142,144,160110,2,0,L|42:160,1,90,8|0,0:0|0:0,0:0:0:0:
297,70,160415,2,0,L|385:84,1,90,0|8,0:0|0:0,0:0:0:0:
224,228,160719,1,0,0:0:0:0:
174,53,160872,1,0,0:0:0:0:
367,201,161024,6,0,L|475:182,1,90,8|0,0:0|0:0,0:0:0:0:
318,298,161329,1,0,0:0:0:0:
198,139,161481,1,8,0:0:0:0:
306,316,161633,1,0,0:0:0:0:
471,182,161785,1,0,0:0:0:0:
304,50,161938,6,0,L|315:153,1,90,8|0,0:0|0:0,0:0:0:0:
318,215,162166,1,0,0:0:0:0:
318,215,162242,2,0,B|270:203|270:203|215:220,1,90,4|0,0:0|0:0,0:0:0:0:
22,95,162547,2,0,B|60:106|60:106|108:94,1,90,8|0,0:0|0:0,0:0:0:0:
108,94,162775,1,0,0:0:0:0:
108,94,162851,1,0,0:0:0:0:
285,130,163004,1,8,0:0:0:0:
125,208,163156,1,0,0:0:0:0:
205,57,163308,1,0,0:0:0:0:
220,232,163461,6,0,L|205:327,1,90,8|0,0:0|0:0,0:0:0:0:
45,188,163765,1,0,0:0:0:0:
310,138,163917,6,0,L|296:48,1,90,8|0,0:0|0:0,0:0:0:0:
68,189,164222,1,0,0:0:0:0:
386,303,164374,6,0,L|289:296,1,90,8|0,0:0|0:0,0:0:0:0:
296,296,164603,1,0,0:0:0:0:
296,296,164679,1,4,0:0:0:0:
147,287,164831,5,0,0:0:0:0:
347,208,164983,1,8,0:0:0:0:
158,122,165136,1,0,0:0:0:0:
221,334,165288,6,0,P|234:290|226:243,1,90,0|8,0:0|0:0,0:0:0:0:
116,53,165593,1,0,0:0:0:0:
116,53,165745,1,0,0:0:0:0:
157,282,165897,5,12,0:0:0:0:
287,94,166049,1,0,0:0:0:0:
116,129,166202,5,8,0:0:0:0:
221,334,166354,1,4,0:0:0:0:
318,186,166506,6,0,P|355:183|385:192,2,60
221,334,166811,2,0,P|191:340|162:336,2,60
248,101,167115,6,0,L|97:132,1,135,4|0,0:0|0:0,0:0:0:0:
50,204,167420,2,0,B|42:252|42:252|62:295,1,90,8|0,0:0|0:0,0:0:0:0:
296,220,167725,2,0,L|206:201,1,90,0|8,0:0|0:0,0:0:0:0:
39,131,168029,1,0,0:0:0:0:
154,354,168181,6,0,L|143:240,1,90,0|8,0:0|0:0,0:0:0:0:
254,38,168486,2,0,L|245:127,1,90
154,354,168791,5,8,0:0:0:0:
244,127,168943,2,0,L|345:144,1,90
496,235,169247,1,8,0:0:0:0:
323,320,169400,1,0,0:0:0:0:
447,58,169552,6,0,P|431:107|440:149,1,90,4|0,0:0|0:0,0:0:0:0:
323,320,169857,2,0,P|329:275|313:234,1,90,8|0,0:0|0:0,0:0:0:0:
81,245,170161,1,0,0:0:0:0:
255,282,170313,1,8,0:0:0:0:
165,72,170466,2,0,L|155:172,1,90
119,343,170770,5,8,0:0:0:0:
266,151,170923,2,0,L|366:164,1,90
82,108,171227,5,8,0:0:0:0:
274,255,171380,2,0,L|261:355,1,90,0|8,0:0|0:0,0:0:0:0:
82,108,171684,6,0,L|93:197,1,90,8|8,0:0|0:0,0:0:0:0:
93,197,171912,1,0,0:0:0:0:
93,197,171989,1,8,0:0:0:0:
340,56,172141,5,0,0:0:0:0:
340,56,172217,1,0,0:0:0:0:
340,56,172293,2,0,L|329:145,1,90,0|8,0:0|0:0,0:0:0:0:
220,361,172598,5,0,0:0:0:0:
175,353,172674,1,0,0:0:0:0:
145,318,172750,1,0,0:0:0:0:
141,273,172826,1,0,0:0:0:0:
162,233,172902,2,0,L|219:246,1,45,8|0,0:0|0:0,0:0:0:0:
456,287,173054,5,0,0:0:0:0:
412,300,173131,1,0,0:0:0:0:
369,286,173207,1,0,0:0:0:0:
346,246,173283,1,0,0:0:0:0:
355,202,173359,1,8,0:0:0:0:
393,178,173435,1,0,0:0:0:0:
433,159,173511,5,0,0:0:0:0:
456,120,173587,1,0,0:0:0:0:
449,75,173664,1,0,0:0:0:0:
412,48,173740,1,0,0:0:0:0:
367,53,173816,1,8,0:0:0:0:
337,86,173892,1,0,0:0:0:0:
316,125,173968,6,0,B|267:134|267:134|209:118,1,90,0|8,0:0|0:0,0:0:0:0:
32,197,174273,1,0,0:0:0:0:
186,37,174425,5,0,1:0:0:0:
142,68,174501,1,0,1:0:0:0:
131,120,174577,1,0,1:0:0:0:
153,168,174653,1,0,1:0:0:0:
198,198,174730,1,0,1:0:0:0:
236,235,174806,1,0,1:0:0:0:
245,288,174882,1,0,1:0:0:0:
217,334,174958,1,0,1:0:0:0:
166,351,175034,5,0,1:0:0:0:
114,336,175110,1,0,1:0:0:0:
90,287,175186,1,0,1:0:0:0:
106,235,175263,1,0,1:0:0:0:
157,218,175339,1,0,1:0:0:0:
208,233,175415,1,0,1:0:0:0:
231,281,175491,2,0,L|225:335,1,45,0|0,1:0|0:0,0:0:0:0:
90,287,175643,5,2,0:0:0:0:
248,235,175796,1,2,0:0:0:0:
102,164,175948,1,2,0:0:0:0:
312,177,176100,6,0,P|336:227|328:273,1,90,2|2,0:0|0:0,0:0:0:0:
170,205,176405,1,2,0:0:0:0:
441,87,177471,6,0,B|391:74|391:74|284:101,1,157.499995193482
237,181,177928,6,0,B|233:250|296:296|296:296|298:260|340:230,1,198.000006042481,8|0,3:0|0:0,0:0:0:0:
169,86,178384,2,0,L|69:106,1,99.0000030212403,8|0,0:0|0:0,0:0:0:0:
151,263,178689,1,0,0:0:0:0:
280,97,178841,1,0,0:0:0:0:
111,184,178994,1,8,0:0:0:0:
260,242,179146,1,0,0:0:0:0:
232,26,179298,6,0,P|198:76|201:124,1,99.0000030212403
195,187,179527,1,0,0:0:0:0:
193,205,179603,1,8,0:0:0:0:
321,144,179755,1,0,0:0:0:0:
86,71,179907,1,0,0:0:0:0:
192,224,180060,1,0,0:0:0:0:
246,21,180212,1,8,0:0:0:0:
171,137,180364,6,0,B|226:126|264:173|264:173|309:161|309:161|354:178,1,198.000006042481,4|0,0:0|0:0,0:0:0:0:
108,202,180821,2,0,P|84:158|100:92,1,99.0000030212403,8|0,0:0|0:0,0:0:0:0:
305,237,181126,1,0,0:0:0:0:
123,318,181278,1,0,0:0:0:0:
284,84,181430,6,0,L|387:111,1,99.0000030212403,8|0,0:0|0:0,0:0:0:0:
208,281,181735,1,0,0:0:0:0:
185,47,181887,1,2,0:0:0:0:
185,47,181963,1,2,0:0:0:0:
185,47,182039,2,0,L|197:160,1,99.0000030212403,8|0,0:0|0:0,0:0:0:0:
369,192,182344,1,0,0:0:0:0:
210,305,182496,1,0,0:0:0:0:
382,208,182648,1,8,0:0:0:0:
195,145,182801,1,0,0:0:0:0:
305,351,182953,6,0,B|320:302|320:302|310:254,1,99.0000030212403,4|0,0:0|0:0,0:0:0:0:
262,28,183258,2,0,B|252:74|252:74|267:123,1,99.0000030212403,8|0,0:0|0:0,0:0:0:0:
472,120,183562,1,0,0:0:0:0:
472,120,183714,1,0,0:0:0:0:
270,16,183867,1,8,0:0:0:0:
393,209,184019,1,0,0:0:0:0:
405,38,184171,5,4,0:0:0:0:
310,255,184324,1,0,0:0:0:0:
310,255,184400,1,0,0:0:0:0:
310,255,184476,1,8,0:0:0:0:
191,122,184628,1,0,0:0:0:0:
332,147,184780,5,0,0:0:0:0:
106,223,184933,1,0,0:0:0:0:
181,48,185085,5,8,0:0:0:0:
296,212,185237,1,0,0:0:0:0:
106,223,185390,6,0,B|225:258|199:162|321:224,1,198.000006042481,4|8,0:0|0:0,0:0:0:0:
459,270,185846,1,0,0:0:0:0:
252,304,185999,1,0,0:0:0:0:
476,283,186151,1,0,0:0:0:0:
301,142,186303,1,8,0:0:0:0:
376,341,186456,1,0,0:0:0:0:
480,32,186608,6,0,P|454:71|456:128,1,99.0000030212403,4|0,0:0|0:0,0:0:0:0:
453,121,186836,1,0,0:0:0:0:
453,121,186912,1,0,0:0:0:0:
416,384,187065,5,0,1:0:0:0:
400,342,187141,1,0,1:0:0:0:
362,317,187217,1,0,1:0:0:0:
317,314,187293,1,0,1:0:0:0:
272,336,187369,5,0,1:0:0:0:
224,352,187445,1,0,1:0:0:0:
176,336,187521,1,0,1:0:0:0:
144,304,187597,1,0,1:0:0:0:
128,256,187674,6,0,B|157:121|157:121|133:148|98:147,1,198.000006042481,8|0,3:0|0:0,0:0:0:0:
376,190,188131,6,0,L|250:180,1,99.0000030212403,12|0,0:0|0:0,0:0:0:0:
394,71,188435,1,0,0:0:0:0:
204,213,188587,1,0,0:0:0:0:
358,274,188740,1,8,0:0:0:0:
203,46,188892,1,0,0:0:0:0:
203,46,189044,6,0,L|211:149,1,99.0000030212403
220,219,189273,1,0,0:0:0:0:
223,237,189349,1,8,0:0:0:0:
64,104,189501,5,0,0:0:0:0:
290,182,189653,1,0,0:0:0:0:
100,259,189806,1,0,0:0:0:0:
203,46,189958,1,8,0:0:0:0:
256,315,190110,6,0,L|457:342,1,198.000006042481,4|0,0:0|0:0,0:0:0:0:
414,102,190567,2,0,B|291:118,1,99.0000030212403,8|0,0:0|0:0,0:0:0:0:
91,194,190872,1,0,0:0:0:0:
256,315,191024,1,0,0:0:0:0:
254,22,191176,6,0,P|219:73|221:120,1,99.0000030212403,8|0,0:0|0:0,0:0:0:0:
224,183,191405,1,0,0:0:0:0:
227,201,191481,1,12,0:0:0:0:
454,139,191633,5,0,0:0:0:0:
231,225,191785,1,8,0:0:0:0:
444,320,191938,1,0,0:0:0:0:
195,225,192090,6,0,L|133:225,1,49.5000015106202,8|0,0:0|0:0,0:0:0:0:
299,49,192242,1,0,1:0:0:0:
343,27,192318,1,0,1:0:0:0:
392,29,192395,1,0,1:0:0:0:
431,58,192471,1,0,1:0:0:0:
446,104,192547,1,0,1:0:0:0:
432,151,192623,1,0,1:0:0:0:
411,195,192699,2,0,P|401:256|426:311,1,99.0000030212403,12|0,0:0|0:0,0:0:0:0:
134,193,193004,5,0,0:0:0:0:
343,27,193156,2,0,L|356:127,1,99.0000030212403,8|0,0:0|0:0,0:0:0:0:
34,126,193461,5,0,0:0:0:0:
243,292,193613,2,0,L|256:192,1,99.0000030212403,8|0,0:0|0:0,0:0:0:0:
264,120,193841,1,0,0:0:0:0:
266,90,193917,1,12,0:0:0:0:
457,248,194070,5,0,0:0:0:0:
182,161,194222,1,0,0:0:0:0:
423,79,194374,1,8,0:0:0:0:
344,353,194527,6,0,B|330:302|330:302|346:236,1,99.0000030212403
257,14,194831,2,0,B|267:58|267:58|253:109,1,99.0000030212403,8|0,0:0|0:0,0:0:0:0:
242,184,195060,1,0,0:0:0:0:
239,213,195136,1,12,0:0:0:0:
412,139,195288,5,0,0:0:0:0:
177,60,195441,1,0,0:0:0:0:
389,11,195593,1,8,0:0:0:0:
242,184,195745,1,0,0:0:0:0:
473,276,195897,5,0,0:0:0:0:
177,60,196049,2,0,L|61:76,1,99.0000030212403,12|0,0:0|0:0,0:0:0:0:
309,188,196354,6,0,L|361:194,1,49.5000015106202
177,60,196506,1,0,1:0:0:0:
127,65,196582,1,0,1:0:0:0:
91,99,196659,1,0,1:0:0:0:
81,147,196735,1,0,1:0:0:0:
104,190,196811,1,0,1:0:0:0:
148,210,196887,1,0,1:0:0:0:
195,224,196963,6,0,L|205:290,1,49.5000015106202
208,63,197115,2,0,L|218:-3,1,49.5000015106202
384,238,197268,6,0,L|394:304,1,49.5000015106202
397,77,197420,2,0,L|407:11,1,49.5000015106202
313,284,197572,5,12,0:0:0:0:
468,74,197725,1,0,0:0:0:0:
246,222,197877,5,8,0:0:0:0:
468,74,198029,1,0,0:0:0:0:
399,301,198181,5,8,0:0:0:0:
331,54,198334,1,0,0:0:0:0:
399,301,198486,5,8,0:0:0:0:
147,33,198638,1,0,0:0:0:0:
130,364,198791,5,12,0:0:0:0:
440,207,198943,1,0,0:0:0:0:
229,65,199095,5,8,0:0:0:0:
472,287,199247,1,0,0:0:0:0:
49,244,199400,6,0,L|152:236,1,99.0000030212403,8|0,0:0|0:0,0:0:0:0:
226,230,199629,1,0,0:0:0:0:
244,229,199705,1,8,0:0:0:0:
470,349,199857,1,0,0:0:0:0:
419,35,200009,5,4,1:2:0:0:
382,49,200085,1,0,1:0:0:0:
362,83,200161,1,0,1:0:0:0:
364,122,200237,1,0,1:0:0:0:
385,155,200313,1,0,1:0:0:0:
413,183,200390,1,0,1:0:0:0:
434,215,200466,1,0,1:0:0:0:
435,254,200542,1,0,1:0:0:0:
435,298,200618,5,0,1:0:0:0:
424,341,200694,1,0,1:0:0:0:
389,368,200770,1,0,1:0:0:0:
344,368,200846,1,0,1:0:0:0:
301,351,200923,1,0,1:0:0:0:
271,317,200999,1,0,1:0:0:0:
236,282,201075,1,0,1:0:0:0:
197,273,201151,1,0,1:0:0:0:
143,279,201227,5,2,1:2:0:0:
114,325,201303,1,2,1:2:0:0:
139,373,201379,1,2,1:2:0:0:
192,381,201455,1,2,1:2:0:0:
238,351,201532,1,2,1:2:0:0:
243,296,201608,1,2,1:2:0:0:
205,256,201684,1,2,1:2:0:0:
150,251,201760,1,2,1:2:0:0:
93,211,201836,5,0,1:0:0:0:
97,141,201912,1,0,1:0:0:0:
142,87,201989,1,0,1:0:0:0:
209,70,202065,1,0,1:0:0:0:
271,98,202141,1,0,1:0:0:0:
287,165,202217,1,0,1:0:0:0:
309,237,202293,6,0,B|389:283|461:261|461:261|412:212,1,215.999993408203,4|0,0:0|0:0,0:0:0:0:
142,87,202750,2,0,L|154:191,1,90,12|0,0:0|0:0,0:0:0:0:
309,237,203054,1,0,0:0:0:0:
140,348,203207,1,0,0:0:0:0:
326,237,203359,1,8,0:0:0:0:
152,176,203511,1,0,0:0:0:0:
400,298,203664,6,0,P|421:255|413:190,1,90
152,176,203969,1,8,0:0:0:0:
326,237,204120,1,0,0:0:0:0:
154,348,204274,5,0,0:0:0:0:
326,237,204425,1,0,0:0:0:0:
137,194,204578,5,8,0:0:0:0:
391,63,204730,2,0,B|423:102|423:102|403:235,1,180,6|0,0:0|0:0,0:0:0:0:
193,338,205187,2,0,L|209:219,1,90,10|0,0:0|0:0,0:0:0:0:
287,83,205491,5,2,0:0:0:0:
108,268,205644,1,0,0:0:0:0:
340,230,205796,1,10,0:0:0:0:
136,102,205948,1,0,0:0:0:0:
227,339,206101,6,0,P|236:278|212:228,1,90,2|0,0:0|0:0,0:0:0:0:
347,142,206405,1,10,0:0:0:0:
135,14,206557,2,0,P|125:57|135:101,1,90,0|2,0:0|0:0,0:0:0:0:
383,53,206862,5,2,0:0:0:0:
159,192,207014,1,10,0:0:0:0:
345,361,207167,6,0,B|373:316|373:316|347:186,1,180,6|0,0:0|0:0,0:0:0:0:
142,121,207623,1,8,0:0:0:0:
274,260,207776,1,0,0:0:0:0:
307,83,207928,1,0,0:0:0:0:
257,278,208080,5,0,0:0:0:0:
419,157,208233,1,8,0:0:0:0:
227,96,208385,1,0,0:0:0:0:
329,322,208537,6,0,P|339:263|325:230,1,90
161,54,208841,2,0,P|149:96|160:139,1,90,8|0,0:0|0:0,0:0:0:0:
421,74,209146,1,0,0:0:0:0:
167,159,209298,1,0,0:0:0:0:
412,278,209450,1,8,0:0:0:0:
279,45,209603,6,0,B|308:90|308:90|275:229,1,180,4|0,0:0|0:0,0:0:0:0:
64,339,210060,2,0,L|51:237,1,90,8|0,0:0|0:0,0:0:0:0:
290,302,210364,2,0,L|278:212,1,90
145,347,210669,1,8,0:0:0:0:
44,135,210821,1,0,0:0:0:0:
285,158,210973,5,0,0:0:0:0:
52,249,211126,1,0,0:0:0:0:
293,327,211278,1,8,0:0:0:0:
143,129,211429,1,0,0:0:0:0:
143,129,211506,1,0,0:0:0:0:
143,129,211581,1,0,0:0:0:0:
386,122,211735,5,0,1:0:0:0:
427,139,211811,1,0,1:0:0:0:
453,174,211887,1,0,1:0:0:0:
449,218,211963,1,0,1:0:0:0:
432,259,212039,1,0,1:0:0:0:
392,280,212115,1,0,1:0:0:0:
346,281,212192,6,0,B|299:267|299:267|214:285,1,135
134,331,212496,6,0,L|374:348,1,233.999989288331,12|0,0:0|0:0,0:0:0:0:
421,109,212953,1,0,0:0:0:0:
248,221,213105,1,8,0:0:0:0:
469,311,213258,1,0,0:0:0:0:
233,221,213410,5,0,0:0:0:0:
437,104,213562,1,0,0:0:0:0:
367,347,213714,1,8,0:0:0:0:
255,110,213867,1,0,0:0:0:0:
24,314,214019,6,0,L|133:329,1,90
205,61,214324,1,8,0:0:0:0:
356,191,214476,2,0,B|300:175|300:175|239:200|239:200|163:188,1,180,4|0,0:0|0:0,0:0:0:0:
23,260,214933,5,10,0:0:0:0:
356,118,215085,1,0,0:0:0:0:
22,131,215237,5,2,0:0:0:0:
356,262,215390,1,0,0:0:0:0:
213,47,215542,5,10,0:0:0:0:
181,345,215694,1,0,0:0:0:0:
455,132,215846,5,2,1:2:0:0:
405,110,215922,1,0,1:0:0:0:
351,110,215998,1,0,1:0:0:0:
312,147,216074,1,0,1:0:0:0:
296,198,216150,1,0,1:0:0:0:
252,230,216226,1,0,1:0:0:0:
198,228,216302,1,0,1:0:0:0:
160,189,216378,1,0,1:0:0:0:
120,150,216456,2,0,L|128:198,1,45,0|0,3:0|3:0,3:0:0:0:
279,356,216608,6,0,L|280:300,1,45,0|0,3:0|3:0,3:0:0:0:
206,41,216760,2,0,L|207:100,1,45,0|0,3:0|3:0,3:0:0:0:
222,204,216912,6,0,B|331:165|311:255|422:218,1,180,4|0,0:0|0:0,0:0:0:0:
206,41,217369,2,0,L|108:58,1,90,8|0,0:0|0:0,0:0:0:0:
31,194,217674,1,0,0:0:0:0:
268,273,217826,1,0,0:0:0:0:
70,123,217978,1,8,0:0:0:0:
45,330,218131,1,0,0:0:0:0:
302,90,218283,6,0,L|403:105,1,90
159,243,218587,2,0,L|58:258,1,90,8|0,0:0|0:0,0:0:0:0:
314,345,218892,1,0,0:0:0:0:
162,131,219044,1,0,0:0:0:0:
128,348,219197,1,8,0:0:0:0:
226,67,219349,6,0,P|251:125|230:192,1,107.999996704102,4|0,0:0|0:0,0:0:0:0:
128,348,219653,1,8,0:0:0:0:
128,348,219730,1,0,0:0:0:0:
128,348,219806,1,10,0:0:0:0:
206,47,219958,5,0,0:0:0:0:
137,320,220110,1,10,0:0:0:0:
61,30,220263,5,0,0:0:0:0:
122,369,220415,1,10,0:0:0:0:
417,258,220567,5,0,0:0:0:0:
37,137,220719,1,10,0:0:0:0:
462,117,220872,5,0,0:0:0:0:
82,237,221024,1,10,0:0:0:0:
331,348,221176,5,0,0:0:0:0:
202,34,221329,1,10,0:0:0:0:
470,184,221481,5,0,0:0:0:0:
44,51,221633,1,14,0:0:0:0:
414,339,221785,5,10,0:0:0:0:
