osu file format v14

[General]
AudioFilename: audio.mp3
AudioLeadIn: 0
PreviewTime: 61935
Countdown: 0
SampleSet: Normal
StackLeniency: 0.7
Mode: 1
LetterboxInBreaks: 0
WidescreenStoryboard: 0

[Editor]
Bookmarks: 5685,10685,20685,30685,40685,45685,73185
DistanceSpacing: 1.7
BeatDivisor: 2
GridSize: 32
TimelineZoom: 0.9999999

[Metadata]
Title:Born to be
TitleUnicode:Born to be
Artist:nano
ArtistUnicode:ナノ
Creator:-Sh1n1-
Version:Volta's Futsuu
Source:魔法戦争
Tags:Magical Warfare ending mahou sensou WEST GROUND Masato Kouda TV Size shini Volta Flying_Pan xtrem3x
BeatmapID:1459079
BeatmapSetID:689184

[Difficulty]
HPDrainRate:6
CircleSize:4
OverallDifficulty:4
ApproachRate:6
SliderMultiplier:1.4
SliderTickRate:1

[Events]
//Background and Video events
0,0,"BG.jpg",0,35
//Break Periods
//Storyboard Layer 0 (Background)
//Storyboard Layer 1 (Fail)
//Storyboard Layer 2 (Pass)
//Storyboard Layer 3 (Foreground)
//Storyboard Sound Samples

[TimingPoints]
685,312.5,4,1,0,50,1,0
5685,-100,4,1,0,95,0,0
63185,-100,4,1,0,95,0,1
83185,-100,4,1,0,95,0,0

[HitObjects]
256,192,3185,12,0,5060,0:0:0:0:
0,32,5685,5,12,0:0:0:0:
64,32,5997,1,8,0:0:0:0:
96,32,6153,1,8,0:0:0:0:
128,32,6310,1,0,0:0:0:0:
192,32,6622,1,8,0:0:0:0:
256,32,6935,1,0,0:0:0:0:
320,32,7247,1,8,0:0:0:0:
352,32,7403,1,0,0:0:0:0:
384,32,7560,1,8,0:0:0:0:
448,32,7872,1,8,0:0:0:0:
512,32,8185,1,0,0:0:0:0:
512,96,8810,1,0,0:0:0:0:
448,96,9122,1,8,0:0:0:0:
384,96,9435,1,0,0:0:0:0:
352,96,9591,1,0,0:0:0:0:
320,96,9747,1,8,0:0:0:0:
256,96,10060,1,8,0:0:0:0:
0,160,10685,1,12,0:0:0:0:
64,160,10997,1,8,0:0:0:0:
96,160,11153,1,8,0:0:0:0:
128,160,11310,1,0,0:0:0:0:
192,160,11622,1,8,0:0:0:0:
256,160,11935,1,0,0:0:0:0:
320,160,12247,1,8,0:0:0:0:
352,160,12403,1,0,0:0:0:0:
384,160,12560,1,8,0:0:0:0:
448,160,12872,1,8,0:0:0:0:
512,160,13185,1,0,0:0:0:0:
0,224,13810,1,0,0:0:0:0:
64,224,14122,1,8,0:0:0:0:
128,224,14435,1,0,0:0:0:0:
160,224,14591,1,0,0:0:0:0:
192,224,14747,1,8,0:0:0:0:
256,224,15060,1,0,0:0:0:0:
512,224,15372,1,8,0:0:0:0:
0,224,15685,1,12,0:0:0:0:
256,192,18185,5,8,0:0:0:0:
256,192,18810,1,8,0:0:0:0:
256,192,19435,5,8,0:0:0:0:
128,192,19747,1,0,0:0:0:0:
384,192,20060,1,8,0:0:0:0:
448,192,20372,1,8,0:0:0:0:
96,192,20685,1,4,0:0:0:0:
416,192,21310,1,8,0:0:0:0:
96,192,21778,1,0,0:0:0:0:
96,192,22247,1,0,0:0:0:0:
416,192,22560,1,8,0:0:0:0:
416,192,22872,1,8,0:0:0:0:
96,192,23185,1,0,0:0:0:0:
416,192,23810,1,8,0:0:0:0:
96,192,24278,1,0,0:0:0:0:
416,192,24747,1,8,0:0:0:0:
416,192,25060,1,8,0:0:0:0:
96,192,25372,1,0,0:0:0:0:
96,192,25685,1,0,0:0:0:0:
416,192,26310,1,8,0:0:0:0:
96,192,26778,1,0,0:0:0:0:
96,192,27247,1,0,0:0:0:0:
416,192,27560,1,8,0:0:0:0:
96,192,27872,1,0,0:0:0:0:
96,192,28185,1,0,0:0:0:0:
416,192,28810,1,8,0:0:0:0:
96,192,29278,1,0,0:0:0:0:
416,192,29747,1,8,0:0:0:0:
416,192,30060,1,8,0:0:0:0:
416,192,30372,1,8,0:0:0:0:
96,192,30685,1,4,0:0:0:0:
256,352,31310,1,8,0:0:0:0:
256,288,31622,1,8,0:0:0:0:
256,224,31935,1,0,0:0:0:0:
256,160,32247,1,0,0:0:0:0:
256,96,32560,1,8,0:0:0:0:
256,64,32716,1,8,0:0:0:0:
256,32,32872,1,0,0:0:0:0:
256,352,33185,1,8,0:0:0:0:
256,32,33810,1,0,0:0:0:0:
256,96,34122,1,0,0:0:0:0:
256,160,34435,1,8,0:0:0:0:
256,224,34747,1,8,0:0:0:0:
256,288,35060,1,0,0:0:0:0:
256,320,35216,1,0,0:0:0:0:
256,352,35372,1,8,0:0:0:0:
256,32,35685,1,0,0:0:0:0:
256,224,36310,1,8,0:0:0:0:
256,160,36622,1,0,0:0:0:0:
256,96,36935,1,8,0:0:0:0:
256,288,37247,1,0,0:0:0:0:
256,32,37560,1,0,0:0:0:0:
256,64,37716,1,0,0:0:0:0:
256,96,37872,1,0,0:0:0:0:
256,352,38185,1,8,0:0:0:0:
448,192,38810,1,0,0:0:0:0:
256,192,39122,1,8,0:0:0:0:
96,192,39435,1,0,0:0:0:0:
256,320,39747,1,8,0:0:0:0:
256,192,39903,1,8,0:0:0:0:
256,64,40060,1,8,0:0:0:0:
96,192,40372,1,0,0:0:0:0:
448,192,40685,5,4,0:0:0:0:
256,192,41310,1,0,0:0:0:0:
256,192,41622,1,8,0:0:0:0:
256,192,41935,1,0,0:0:0:0:
256,192,42560,1,0,0:0:0:0:
256,192,42872,1,0,0:0:0:0:
256,192,43185,1,8,0:0:0:0:
256,192,43497,1,8,0:0:0:0:
256,192,43653,1,0,0:0:0:0:
256,192,43810,1,8,0:0:0:0:
256,192,44122,1,8,0:0:0:0:
256,192,44435,1,0,0:0:0:0:
96,192,45060,1,8,0:0:0:0:
416,192,45372,1,8,0:0:0:0:
256,192,45685,1,4,0:0:0:0:
256,192,46310,1,0,0:0:0:0:
256,192,46622,1,8,0:0:0:0:
256,192,46935,1,0,0:0:0:0:
256,192,47560,1,0,0:0:0:0:
256,192,47872,1,8,0:0:0:0:
256,192,48185,1,8,0:0:0:0:
256,192,48341,1,8,0:0:0:0:
256,192,48497,1,0,0:0:0:0:
256,192,48810,1,8,0:0:0:0:
256,192,49122,1,0,0:0:0:0:
256,192,49435,1,0,0:0:0:0:
256,192,49591,1,8,0:0:0:0:
256,192,49747,1,0,0:0:0:0:
256,32,50060,1,8,0:0:0:0:
256,352,50372,1,8,0:0:0:0:
256,192,50685,1,4,0:0:0:0:
448,64,51310,1,8,0:0:0:0:
256,192,51778,1,0,0:0:0:0:
64,320,52091,1,8,0:0:0:0:
320,192,52403,1,0,0:0:0:0:
192,192,52560,1,8,0:0:0:0:
448,320,52872,1,8,0:0:0:0:
64,64,53185,1,0,0:0:0:0:
64,320,53810,1,8,0:0:0:0:
256,192,54278,1,0,0:0:0:0:
416,64,54591,1,8,0:0:0:0:
192,192,54903,1,0,0:0:0:0:
320,192,55060,1,8,0:0:0:0:
64,64,55372,1,0,0:0:0:0:
416,320,55685,1,4,0:0:0:0:
256,192,56310,1,8,0:0:0:0:
256,192,56622,1,8,0:0:0:0:
256,192,56935,1,0,0:0:0:0:
256,192,57247,1,0,0:0:0:0:
256,192,57560,1,8,0:0:0:0:
256,192,58185,1,0,0:0:0:0:
384,192,58497,1,8,0:0:0:0:
128,192,58810,1,8,0:0:0:0:
256,192,59122,1,0,0:0:0:0:
320,256,59435,1,8,0:0:0:0:
192,256,59591,1,8,0:0:0:0:
256,256,59747,1,0,0:0:0:0:
256,320,60060,1,0,0:0:0:0:
192,64,60372,1,8,0:0:0:0:
320,64,60528,1,8,0:0:0:0:
256,192,61935,1,8,0:0:0:0:
256,192,62560,1,8,0:0:0:0:
512,352,63185,5,4,0:0:0:0:
448,352,63497,1,8,0:0:0:0:
384,352,63810,1,8,0:0:0:0:
352,352,63966,1,0,0:0:0:0:
320,352,64122,1,8,0:0:0:0:
256,352,64435,1,0,0:0:0:0:
192,352,64747,1,8,0:0:0:0:
128,352,65060,1,0,0:0:0:0:
0,352,65685,1,8,0:0:0:0:
0,288,65997,1,0,0:0:0:0:
32,288,66153,1,0,0:0:0:0:
64,288,66310,1,8,0:0:0:0:
128,288,66622,1,0,0:0:0:0:
192,288,66935,1,8,0:0:0:0:
256,288,67247,1,8,0:0:0:0:
288,288,67403,1,8,0:0:0:0:
320,288,67560,1,0,0:0:0:0:
384,288,67872,1,8,0:0:0:0:
448,288,68185,1,0,0:0:0:0:
512,224,68810,1,0,0:0:0:0:
448,224,69122,1,8,0:0:0:0:
384,224,69435,1,0,0:0:0:0:
256,224,70060,1,8,0:0:0:0:
192,224,70372,1,0,0:0:0:0:
160,224,70528,1,0,0:0:0:0:
128,224,70685,1,8,0:0:0:0:
64,224,70997,1,0,0:0:0:0:
0,224,71310,1,0,0:0:0:0:
0,192,71466,1,0,0:0:0:0:
0,32,71778,1,8,0:0:0:0:
256,192,72091,1,8,0:0:0:0:
512,352,72403,1,8,0:0:0:0:
0,192,73185,1,4,0:0:0:0:
64,192,73497,1,8,0:0:0:0:
128,192,73810,1,0,0:0:0:0:
160,192,73966,1,0,0:0:0:0:
192,192,74122,1,8,0:0:0:0:
256,192,74435,1,0,0:0:0:0:
320,192,74747,1,8,0:0:0:0:
384,192,75060,1,0,0:0:0:0:
512,192,75685,1,8,0:0:0:0:
448,192,75997,1,8,0:0:0:0:
256,128,76153,1,0,0:0:0:0:
384,192,76310,1,8,0:0:0:0:
320,192,76622,1,0,0:0:0:0:
256,192,76935,1,8,0:0:0:0:
192,192,77247,1,8,0:0:0:0:
288,192,77403,1,8,0:0:0:0:
128,192,77560,1,0,0:0:0:0:
64,192,77872,1,8,0:0:0:0:
0,192,78185,1,0,0:0:0:0:
128,192,78810,1,0,0:0:0:0:
256,192,79122,1,8,0:0:0:0:
384,192,79435,1,0,0:0:0:0:
512,192,80060,1,8,0:0:0:0:
256,192,80372,1,0,0:0:0:0:
0,192,80685,1,0,0:0:0:0:
512,192,80997,1,8,0:0:0:0:
256,64,81310,1,0,0:0:0:0:
256,192,81466,1,0,0:0:0:0:
256,320,81622,1,0,0:0:0:0:
480,192,81935,1,8,0:0:0:0:
96,192,83185,1,4,0:0:0:0:
416,192,83810,1,8,0:0:0:0:
96,192,84278,1,0,0:0:0:0:
96,192,84747,1,0,0:0:0:0:
416,192,85060,1,8,0:0:0:0:
96,192,85685,1,0,0:0:0:0:
416,192,86310,1,8,0:0:0:0:
96,192,86778,1,0,0:0:0:0:
96,192,87247,1,0,0:0:0:0:
416,192,87560,1,8,0:0:0:0:
256,192,88028,1,4,0:0:0:0:
