osu file format v14

[General]
AudioFilename: audio.mp3
AudioLeadIn: 0
PreviewTime: 46920
Countdown: 0
SampleSet: Normal
StackLeniency: 0.8
Mode: 1
LetterboxInBreaks: 0
WidescreenStoryboard: 1

[Editor]
Bookmarks: 1095,10415,19735,29056,38376,47696,57017,68667,77988,87308
DistanceSpacing: 0.5
BeatDivisor: 4
GridSize: 32
TimelineZoom: 0.8999999

[Metadata]
Title:Kien Romance (TV Size)
TitleUnicode:奇縁ロマンス (TV Size)
Artist:nanawoakari
ArtistUnicode:ナナヲアカリ
Creator:iRedi
Version:Kantan
Source:江戸前エルフ
Tags:edomae erufu 江戶前精靈 otaku shut-in A Sloven Elf Who Have Been from the Edo Period nanaoakari nanawo akari 七音茜璃 和ぬか wanuka 100回嘔吐 100outo hyakkai outo 十八番茶 niyoru mado opening anime japanese jpop j-pop pop swing
BeatmapID:4529960
BeatmapSetID:2150213

[Difficulty]
HPDrainRate:9
CircleSize:2
OverallDifficulty:2.5
ApproachRate:10
SliderMultiplier:1.8
SliderTickRate:1

[Events]
//Background and Video events
0,0,"chill.jpg",0,10
//Break Periods
//Storyboard Layer 0 (Background)
//Storyboard Layer 1 (Fail)
//Storyboard Layer 2 (Pass)
//Storyboard Layer 3 (Foreground)
//Storyboard Layer 4 (Overlay)
//Storyboard Sound Samples

[TimingPoints]
1095,582.52427184466,4,1,0,55,1,0
1095,-100,4,1,0,55,0,0
9245,-100,4,1,0,65,0,0
10410,-100,4,1,0,80,0,0
19803,-100,4,1,0,65,0,0
38371,-100,4,1,0,75,0,0
47109,-100,4,1,0,80,0,0
47696,-100,4,1,0,90,0,1
66337,-100,4,1,0,90,0,0
66405,-100,4,1,0,65,0,0
68662,-100,4,1,0,75,0,0
86721,-100,4,1,0,60,0,0

[HitObjects]
256,192,1095,5,0,0:1:0:0:
256,192,2260,1,0,0:1:0:0:
256,192,3425,1,8,0:1:0:0:
256,192,4590,1,0,0:1:0:0:
256,192,5755,1,8,0:1:0:0:
256,192,6920,1,0,0:1:0:0:
256,192,8085,1,8,0:1:0:0:
256,192,8667,1,8,0:1:0:0:
256,192,9250,1,0,0:1:0:0:
512,0,10415,1,4,0:1:0:0:
256,192,11580,1,8,0:1:0:0:
256,192,12745,1,8,0:1:0:0:
256,192,13328,1,8,0:1:0:0:
256,192,13910,1,0,0:1:0:0:
256,192,14493,1,8,0:1:0:0:
256,192,15075,1,0,0:1:0:0:
256,192,16240,1,0,0:1:0:0:
256,192,17405,1,0,0:1:0:0:
256,192,17988,1,0,0:1:0:0:
256,192,18570,1,8,0:1:0:0:
256,192,19153,1,8,0:1:0:0:
512,0,19735,1,4,0:1:0:0:
256,192,20900,1,8,0:1:0:0:
256,192,22065,1,0,0:1:0:0:
256,192,23230,1,8,0:1:0:0:
256,192,23813,1,8,0:1:0:0:
256,192,24395,1,0,0:1:0:0:
256,192,25561,1,8,0:1:0:0:
256,192,26726,1,0,0:1:0:0:
256,192,27891,1,8,0:1:0:0:
256,192,28473,1,0,0:1:0:0:
512,0,29056,1,12,0:1:0:0:
256,192,30221,1,8,0:1:0:0:
256,192,31386,1,0,0:1:0:0:
256,192,32551,1,0,0:1:0:0:
256,192,33133,1,0,0:1:0:0:
256,192,33716,1,8,0:1:0:0:
256,192,34882,1,0,0:1:0:0:
256,192,36047,1,8,0:1:0:0:
256,192,37212,1,0,0:1:0:0:
512,0,37794,1,12,0:1:0:0:
512,0,38376,1,12,0:1:0:0:
256,192,39541,1,0,0:1:0:0:
256,192,40706,1,8,0:1:0:0:
256,192,41289,1,0,0:1:0:0:
256,192,41871,1,8,0:1:0:0:
256,192,43036,1,0,0:1:0:0:
256,192,44201,1,0,0:1:0:0:
256,192,45366,1,8,0:1:0:0:
256,192,45949,1,8,0:1:0:0:
256,192,46531,1,0,0:1:0:0:
512,0,47696,1,4,0:1:0:0:
256,192,48861,1,8,0:1:0:0:
256,192,49444,1,8,0:1:0:0:
256,192,50026,1,0,0:1:0:0:
256,192,50609,1,8,0:1:0:0:
256,192,51192,1,0,0:1:0:0:
256,192,52357,1,8,0:1:0:0:
256,192,53521,1,8,0:1:0:0:
256,192,54104,1,8,0:1:0:0:
256,192,54686,1,0,0:1:0:0:
256,192,55269,1,0,0:1:0:0:
256,192,55852,1,8,0:1:0:0:
512,0,57017,1,4,0:1:0:0:
256,192,58181,1,0,0:1:0:0:
256,192,58764,1,8,0:1:0:0:
256,192,59346,1,8,0:1:0:0:
256,192,59929,1,8,0:1:0:0:
256,192,60512,1,0,0:1:0:0:
256,192,61677,1,8,0:1:0:0:
256,192,62841,1,8,0:1:0:0:
256,192,63424,1,0,0:1:0:0:
256,192,64006,1,8,0:1:0:0:
256,192,64589,1,8,0:1:0:0:
256,192,65172,1,0,0:1:0:0:
512,0,66337,1,4,0:1:0:0:
512,0,68667,1,12,0:1:0:0:
256,192,69832,1,8,0:1:0:0:
256,192,70415,1,8,0:1:0:0:
256,192,70997,1,0,0:1:0:0:
256,192,72162,1,8,0:1:0:0:
256,192,72745,1,0,0:1:0:0:
256,192,73327,1,8,0:1:0:0:
256,192,74493,1,0,0:1:0:0:
256,192,75075,1,8,0:1:0:0:
256,192,75657,1,0,0:1:0:0:
256,192,76240,1,0,0:1:0:0:
256,192,76822,1,8,0:1:0:0:
512,0,77988,1,4,0:1:0:0:
256,192,79153,1,0,0:1:0:0:
256,192,79736,1,8,0:1:0:0:
256,192,80318,1,0,0:1:0:0:
256,192,81483,1,8,0:1:0:0:
256,192,82066,1,8,0:1:0:0:
256,192,82648,1,0,0:1:0:0:
256,192,83813,1,8,0:1:0:0:
256,192,84395,1,8,0:1:0:0:
256,192,84978,1,0,0:1:0:0:
256,192,85561,1,0,0:1:0:0:
512,0,86143,1,12,0:1:0:0:
