osu file format v14

[General]
AudioFilename: audio.mp3
AudioLeadIn: 0
PreviewTime: 46920
Countdown: 0
SampleSet: Normal
StackLeniency: 0.8
Mode: 1
LetterboxInBreaks: 0
WidescreenStoryboard: 0

[Editor]
Bookmarks: 1095,10415,19735,29056,38376,47696,57017,68667,77988,87308
DistanceSpacing: 0.5
BeatDivisor: 6
GridSize: 32
TimelineZoom: 1.6

[Metadata]
Title:Kien Romance (TV Size)
TitleUnicode:奇縁ロマンス (TV Size)
Artist:nanawoakari
ArtistUnicode:ナナヲアカリ
Creator:iRedi
Version:Connection
Source:江戸前エルフ
Tags:edomae erufu 江戶前精靈 otaku shut-in A Sloven Elf Who Have Been from the Edo Period nanaoakari nanawo akari 七音茜璃 和ぬか wanuka 100回嘔吐 100outo hyakkai outo 十八番茶 niyoru mado opening anime japanese jpop j-pop pop swing
BeatmapID:4529958
BeatmapSetID:2150213

[Difficulty]
HPDrainRate:6
CircleSize:2
OverallDifficulty:5.5
ApproachRate:10
SliderMultiplier:2.4
SliderTickRate:1

[Events]
//Background and Video events
0,0,"chill.jpg",0,10
//Break Periods
//Storyboard Layer 0 (Background)
//Storyboard Layer 1 (Fail)
//Storyboard Layer 2 (Pass)
//Storyboard Layer 3 (Foreground)
//Storyboard Layer 4 (Overlay)
//Storyboard Sound Samples

[TimingPoints]
1095,582.52427184466,4,1,0,55,1,0
1095,-100,4,1,0,55,0,0
9245,-100,4,1,0,65,0,0
10410,-100,4,1,0,80,0,0
19803,-100,4,1,0,65,0,0
38371,-100,4,1,0,75,0,0
47109,-100,4,1,0,80,0,0
47696,-100,4,1,0,90,0,1
66337,-100,4,1,0,90,0,0
66405,-100,4,1,0,65,0,0
68662,-100,4,1,0,75,0,0
86721,-100,4,1,0,60,0,0

[HitObjects]
256,192,1095,5,0,0:1:0:0:
256,192,1677,1,8,0:1:0:0:
256,192,1871,1,0,0:1:0:0:
256,192,1968,1,0,0:1:0:0:
256,192,2162,1,8,0:1:0:0:
256,192,2260,1,0,0:1:0:0:
256,192,2842,1,0,0:1:0:0:
256,192,3036,1,8,0:1:0:0:
256,192,3133,1,0,0:1:0:0:
256,192,3328,1,8,0:1:0:0:
256,192,3425,1,8,0:1:0:0:
256,192,3716,1,0,0:1:0:0:
256,192,3861,1,0,0:1:0:0:
256,192,4007,1,8,0:1:0:0:
256,192,4298,1,8,0:1:0:0:
256,192,4590,1,0,0:1:0:0:
256,192,5172,1,8,0:1:0:0:
256,192,5366,1,0,0:1:0:0:
256,192,5463,1,0,0:1:0:0:
256,192,5755,1,8,0:1:0:0:
256,192,6337,1,0,0:1:0:0:
256,192,6531,1,8,0:1:0:0:
256,192,6628,1,0,0:1:0:0:
256,192,6920,1,0,0:1:0:0:
256,192,7502,1,8,0:1:0:0:
256,192,7696,1,0,0:1:0:0:
256,192,7891,1,0,0:1:0:0:
256,192,8085,1,8,0:1:0:0:
256,192,8279,1,0,0:1:0:0:
256,192,8473,1,0,0:1:0:0:
256,192,8667,1,8,0:1:0:0:
256,192,8861,1,8,0:1:0:0:
256,192,9056,1,8,0:1:0:0:
256,192,9250,1,0,0:1:0:0:
256,192,9541,1,8,0:1:0:0:
256,192,9638,1,8,0:1:0:0:
256,192,9735,1,8,0:1:0:0:
256,192,9832,1,0,0:1:0:0:
256,192,10124,1,8,0:1:0:0:
512,0,10415,1,4,0:1:0:0:
256,192,10706,1,0,0:1:0:0:
256,192,10803,1,0,0:1:0:0:
256,192,10900,1,0,0:1:0:0:
256,192,10997,1,8,0:1:0:0:
256,192,11289,1,8,0:1:0:0:
512,0,11580,1,4,0:1:0:0:
256,192,11774,1,8,0:1:0:0:
256,192,11871,1,8,0:1:0:0:
256,192,12065,1,0,0:1:0:0:
256,192,12162,1,8,0:1:0:0:
256,192,12454,1,0,0:1:0:0:
512,0,12745,1,12,0:1:0:0:
256,192,13036,1,0,0:1:0:0:
256,192,13230,1,8,0:1:0:0:
256,192,13328,1,0,0:1:0:0:
256,192,13619,1,0,0:1:0:0:
512,0,13910,1,12,0:1:0:0:
256,192,14201,1,0,0:1:0:0:
256,192,14395,1,8,0:1:0:0:
256,192,14493,1,8,0:1:0:0:
256,192,14687,1,0,0:1:0:0:
256,192,14784,1,8,0:1:0:0:
512,0,15075,1,4,0:1:0:0:
256,192,15366,1,8,0:1:0:0:
256,192,15463,1,8,0:1:0:0:
256,192,15561,1,8,0:1:0:0:
256,192,15658,1,0,0:1:0:0:
256,192,15949,1,0,0:1:0:0:
512,0,16240,1,12,0:1:0:0:
256,192,16434,1,0,0:1:0:0:
256,192,16531,1,8,0:1:0:0:
256,192,16725,1,8,0:1:0:0:
256,192,16822,1,0,0:1:0:0:
256,192,17114,1,0,0:1:0:0:
512,0,17405,1,12,0:1:0:0:
256,192,17696,1,0,0:1:0:0:
512,0,17988,1,12,0:1:0:0:
256,192,18279,1,0,0:1:0:0:
512,0,18570,1,12,0:1:0:0:
256,192,18861,1,0,0:1:0:0:
256,192,19055,1,8,0:1:0:0:
256,192,19153,1,0,0:1:0:0:
256,192,19347,1,8,0:1:0:0:
256,192,19444,1,8,0:1:0:0:
512,0,19735,1,4,0:1:0:0:
256,192,20221,1,8,0:1:0:0:
256,192,20318,1,8,0:1:0:0:
256,192,20512,1,0,0:1:0:0:
256,192,20803,1,8,0:1:0:0:
256,192,20900,1,0,0:1:0:0:
256,192,21094,1,8,0:1:0:0:
256,192,21192,1,0,0:1:0:0:
256,192,21386,1,8,0:1:0:0:
256,192,21483,1,8,0:1:0:0:
256,192,21774,1,0,0:1:0:0:
256,192,22065,1,8,0:1:0:0:
256,192,22551,1,0,0:1:0:0:
256,192,22648,1,8,0:1:0:0:
256,192,22842,1,0,0:1:0:0:
256,192,22939,1,8,0:1:0:0:
256,192,23230,1,8,0:1:0:0:
256,192,23522,1,0,0:1:0:0:
256,192,23716,1,0,0:1:0:0:
256,192,23813,1,8,0:1:0:0:
256,192,24007,1,8,0:1:0:0:
256,192,24104,1,0,0:1:0:0:
256,192,24395,1,8,0:1:0:0:
256,192,24881,1,0,0:1:0:0:
256,192,24978,1,8,0:1:0:0:
256,192,25463,1,0,0:1:0:0:
256,192,25561,1,8,0:1:0:0:
256,192,25755,1,8,0:1:0:0:
256,192,25852,1,0,0:1:0:0:
256,192,26046,1,0,0:1:0:0:
256,192,26143,1,8,0:1:0:0:
256,192,26337,1,8,0:1:0:0:
256,192,26434,1,0,0:1:0:0:
256,192,26628,1,0,0:1:0:0:
256,192,26726,1,8,0:1:0:0:
256,192,27211,1,0,0:1:0:0:
256,192,27308,1,0,0:1:0:0:
256,192,27599,1,8,0:1:0:0:
256,192,27794,1,0,0:1:0:0:
256,192,27891,1,8,0:1:0:0:
256,192,28085,1,0,0:1:0:0:
256,192,28182,1,0,0:1:0:0:
256,192,28473,1,0,0:1:0:0:
512,0,29056,1,12,0:1:0:0:
256,192,29493,1,0,0:1:0:0:
256,192,29784,1,8,0:1:0:0:
256,192,29929,1,8,0:1:0:0:
256,192,30075,1,0,0:1:0:0:
256,192,30221,1,8,0:1:0:0:
256,192,30513,1,8,0:1:0:0:
256,192,30707,1,8,0:1:0:0:
256,192,30804,1,0,0:1:0:0:
256,192,31095,1,8,0:1:0:0:
256,192,31386,1,0,0:1:0:0:
256,192,31872,1,0,0:1:0:0:
256,192,31969,1,8,0:1:0:0:
256,192,32162,1,0,0:1:0:0:
256,192,32260,1,8,0:1:0:0:
256,192,32551,1,8,0:1:0:0:
256,192,32843,1,0,0:1:0:0:
256,192,33037,1,0,0:1:0:0:
256,192,33134,1,8,0:1:0:0:
256,192,33328,1,0,0:1:0:0:
256,192,33425,1,0,0:1:0:0:
256,192,33716,1,8,0:1:0:0:
256,192,34202,1,8,0:1:0:0:
256,192,34298,1,0,0:1:0:0:
256,192,34590,1,0,0:1:0:0:
256,192,34882,1,8,0:1:0:0:
256,192,35367,1,8,0:1:0:0:
256,192,35464,1,0,0:1:0:0:
256,192,35755,1,8,0:1:0:0:
256,192,36047,1,0,0:1:0:0:
256,192,36532,1,8,0:1:0:0:
256,192,36629,1,8,0:1:0:0:
256,192,36920,1,0,0:1:0:0:
256,192,37212,1,0,0:1:0:0:
256,192,37405,1,8,0:1:0:0:
256,192,37599,1,0,0:1:0:0:
512,0,37794,1,12,0:1:0:0:
256,192,38085,1,0,0:1:0:0:
512,0,38376,1,12,0:1:0:0:
256,192,38570,1,0,0:1:0:0:
256,192,38667,1,8,0:1:0:0:
256,192,38861,1,8,0:1:0:0:
256,192,38958,1,0,0:1:0:0:
256,192,39250,1,0,0:1:0:0:
256,192,39444,1,8,0:1:0:0:
256,192,39541,1,0,0:1:0:0:
256,192,39735,1,0,0:1:0:0:
256,192,39832,1,8,0:1:0:0:
256,192,40124,1,8,0:1:0:0:
256,192,40318,1,0,0:1:0:0:
256,192,40415,1,8,0:1:0:0:
256,192,40609,1,0,0:1:0:0:
256,192,40706,1,0,0:1:0:0:
256,192,40997,1,0,0:1:0:0:
256,192,41192,1,0,0:1:0:0:
256,192,41289,1,8,0:1:0:0:
256,192,41580,1,0,0:1:0:0:
256,192,41871,1,8,0:1:0:0:
256,192,42162,1,0,0:1:0:0:
256,192,42357,1,0,0:1:0:0:
256,192,42454,1,8,0:1:0:0:
256,192,42745,1,8,0:1:0:0:
256,192,43036,1,0,0:1:0:0:
256,192,43230,1,8,0:1:0:0:
256,192,43327,1,0,0:1:0:0:
256,192,43521,1,0,0:1:0:0:
256,192,43618,1,8,0:1:0:0:
256,192,43910,1,8,0:1:0:0:
256,192,44104,1,0,0:1:0:0:
256,192,44201,1,8,0:1:0:0:
256,192,44395,1,8,0:1:0:0:
256,192,44492,1,0,0:1:0:0:
256,192,44784,1,8,0:1:0:0:
256,192,44978,1,8,0:1:0:0:
256,192,45075,1,0,0:1:0:0:
256,192,45366,1,8,0:1:0:0:
256,192,45561,1,0,0:1:0:0:
256,192,45657,1,0,0:1:0:0:
256,192,45852,1,8,0:1:0:0:
256,192,45949,1,0,0:1:0:0:
256,192,46240,1,8,0:1:0:0:
256,192,46531,1,0,0:1:0:0:
256,192,47114,1,8,0:1:0:0:
256,192,47405,1,8,0:1:0:0:
512,0,47696,1,4,0:1:0:0:
256,192,47988,1,8,0:1:0:0:
256,192,48182,1,0,0:1:0:0:
256,192,48279,1,8,0:1:0:0:
256,192,48473,1,0,0:1:0:0:
256,192,48570,1,0,0:1:0:0:
256,192,48764,1,8,0:1:0:0:
256,192,48861,1,0,0:1:0:0:
256,192,49153,1,8,0:1:0:0:
256,192,49347,1,0,0:1:0:0:
256,192,49444,1,0,0:1:0:0:
256,192,49638,1,8,0:1:0:0:
256,192,49735,1,0,0:1:0:0:
256,192,49929,1,8,0:1:0:0:
256,192,50026,1,8,0:1:0:0:
256,192,50318,1,0,0:1:0:0:
256,192,50512,1,0,0:1:0:0:
256,192,50609,1,8,0:1:0:0:
256,192,50900,1,8,0:1:0:0:
256,192,51192,1,0,0:1:0:0:
256,192,51483,1,0,0:1:0:0:
256,192,51677,1,0,0:1:0:0:
256,192,51774,1,8,0:1:0:0:
256,192,52065,1,0,0:1:0:0:
256,192,52357,1,8,0:1:0:0:
256,192,52648,1,0,0:1:0:0:
256,192,52842,1,8,0:1:0:0:
256,192,52939,1,0,0:1:0:0:
256,192,53133,1,8,0:1:0:0:
256,192,53230,1,8,0:1:0:0:
256,192,53424,1,0,0:1:0:0:
256,192,53521,1,8,0:1:0:0:
256,192,53813,1,0,0:1:0:0:
256,192,54007,1,8,0:1:0:0:
256,192,54104,1,0,0:1:0:0:
256,192,54298,1,8,0:1:0:0:
256,192,54395,1,8,0:1:0:0:
256,192,54493,1,0,0:1:0:0:
256,192,54686,1,8,0:1:0:0:
256,192,54881,1,0,0:1:0:0:
256,192,54978,1,0,0:1:0:0:
256,192,55075,1,8,0:1:0:0:
256,192,55269,1,0,0:1:0:0:
256,192,55463,1,8,0:1:0:0:
256,192,55561,1,8,0:1:0:0:
256,192,55658,1,8,0:1:0:0:
256,192,55852,1,0,0:1:0:0:
256,192,56143,1,0,0:1:0:0:
256,192,56434,1,8,0:1:0:0:
256,192,56725,1,8,0:1:0:0:
512,0,57017,1,4,0:1:0:0:
256,192,57308,1,8,0:1:0:0:
256,192,57502,1,0,0:1:0:0:
256,192,57599,1,0,0:1:0:0:
256,192,57793,1,8,0:1:0:0:
256,192,57890,1,0,0:1:0:0:
256,192,58084,1,0,0:1:0:0:
256,192,58181,1,8,0:1:0:0:
256,192,58473,1,0,0:1:0:0:
256,192,58667,1,8,0:1:0:0:
256,192,58764,1,0,0:1:0:0:
256,192,58958,1,0,0:1:0:0:
256,192,59055,1,8,0:1:0:0:
256,192,59249,1,0,0:1:0:0:
256,192,59346,1,0,0:1:0:0:
256,192,59638,1,8,0:1:0:0:
256,192,59832,1,0,0:1:0:0:
256,192,59929,1,8,0:1:0:0:
256,192,60220,1,0,0:1:0:0:
256,192,60512,1,8,0:1:0:0:
256,192,60803,1,8,0:1:0:0:
256,192,60997,1,8,0:1:0:0:
256,192,61094,1,0,0:1:0:0:
256,192,61385,1,8,0:1:0:0:
256,192,61677,1,0,0:1:0:0:
256,192,61968,1,8,0:1:0:0:
256,192,62162,1,0,0:1:0:0:
256,192,62259,1,8,0:1:0:0:
256,192,62453,1,8,0:1:0:0:
256,192,62550,1,0,0:1:0:0:
256,192,62744,1,8,0:1:0:0:
256,192,62841,1,8,0:1:0:0:
256,192,63133,1,0,0:1:0:0:
256,192,63328,1,8,0:1:0:0:
256,192,63424,1,0,0:1:0:0:
256,192,63618,1,8,0:1:0:0:
256,192,63715,1,0,0:1:0:0:
256,192,63813,1,8,0:1:0:0:
256,192,64006,1,0,0:1:0:0:
256,192,64201,1,8,0:1:0:0:
256,192,64298,1,8,0:1:0:0:
256,192,64395,1,0,0:1:0:0:
256,192,64589,1,8,0:1:0:0:
256,192,64783,1,0,0:1:0:0:
256,192,64881,1,0,0:1:0:0:
256,192,64978,1,8,0:1:0:0:
256,192,65172,1,0,0:1:0:0:
256,192,65463,1,0,0:1:0:0:
256,192,65754,1,8,0:1:0:0:
256,192,66045,1,8,0:1:0:0:
512,0,66337,1,4,0:1:0:0:
256,192,66920,1,8,0:1:0:0:
256,192,67502,1,8,0:1:0:0:
256,192,67794,1,0,0:1:0:0:
256,192,68085,1,8,0:1:0:0:
256,192,68376,1,0,0:1:0:0:
512,0,68667,1,12,0:1:0:0:
256,192,68959,1,0,0:1:0:0:
256,192,69153,1,0,0:1:0:0:
256,192,69250,1,8,0:1:0:0:
256,192,69541,1,0,0:1:0:0:
256,192,69735,1,8,0:1:0:0:
256,192,69832,1,0,0:1:0:0:
256,192,70027,1,0,0:1:0:0:
256,192,70221,1,0,0:1:0:0:
256,192,70415,1,8,0:1:0:0:
256,192,70609,1,0,0:1:0:0:
256,192,70706,1,8,0:1:0:0:
256,192,70900,1,8,0:1:0:0:
256,192,70997,1,0,0:1:0:0:
256,192,71289,1,8,0:1:0:0:
256,192,71483,1,0,0:1:0:0:
256,192,71580,1,0,0:1:0:0:
256,192,71871,1,8,0:1:0:0:
256,192,72065,1,0,0:1:0:0:
256,192,72162,1,8,0:1:0:0:
256,192,72357,1,8,0:1:0:0:
256,192,72551,1,8,0:1:0:0:
256,192,72745,1,0,0:1:0:0:
256,192,72939,1,8,0:1:0:0:
256,192,73036,1,0,0:1:0:0:
256,192,73230,1,8,0:1:0:0:
256,192,73327,1,8,0:1:0:0:
256,192,73619,1,0,0:1:0:0:
256,192,73813,1,8,0:1:0:0:
256,192,73910,1,0,0:1:0:0:
256,192,74201,1,8,0:1:0:0:
256,192,74395,1,8,0:1:0:0:
256,192,74492,1,0,0:1:0:0:
256,192,74687,1,0,0:1:0:0:
256,192,74881,1,0,0:1:0:0:
256,192,75075,1,8,0:1:0:0:
256,192,75269,1,0,0:1:0:0:
256,192,75366,1,8,0:1:0:0:
256,192,75560,1,0,0:1:0:0:
256,192,75657,1,8,0:1:0:0:
256,192,75852,1,0,0:1:0:0:
256,192,76046,1,0,0:1:0:0:
256,192,76240,1,8,0:1:0:0:
256,192,76434,1,0,0:1:0:0:
256,192,76628,1,0,0:1:0:0:
256,192,76822,1,8,0:1:0:0:
256,192,77114,1,0,0:1:0:0:
256,192,77405,1,8,0:1:0:0:
256,192,77696,1,8,0:1:0:0:
512,0,77988,1,4,0:1:0:0:
256,192,78280,1,8,0:1:0:0:
256,192,78474,1,0,0:1:0:0:
256,192,78571,1,8,0:1:0:0:
256,192,78862,1,0,0:1:0:0:
256,192,79056,1,8,0:1:0:0:
256,192,79153,1,0,0:1:0:0:
256,192,79348,1,0,0:1:0:0:
256,192,79542,1,0,0:1:0:0:
256,192,79736,1,8,0:1:0:0:
256,192,79930,1,0,0:1:0:0:
256,192,80027,1,0,0:1:0:0:
256,192,80221,1,8,0:1:0:0:
256,192,80318,1,0,0:1:0:0:
256,192,80610,1,8,0:1:0:0:
256,192,80804,1,0,0:1:0:0:
256,192,80901,1,8,0:1:0:0:
256,192,81192,1,0,0:1:0:0:
256,192,81386,1,8,0:1:0:0:
256,192,81483,1,0,0:1:0:0:
256,192,81678,1,0,0:1:0:0:
256,192,81872,1,0,0:1:0:0:
256,192,82066,1,8,0:1:0:0:
256,192,82260,1,0,0:1:0:0:
256,192,82357,1,8,0:1:0:0:
256,192,82551,1,0,0:1:0:0:
256,192,82648,1,0,0:1:0:0:
256,192,82940,1,8,0:1:0:0:
256,192,83134,1,0,0:1:0:0:
256,192,83231,1,0,0:1:0:0:
256,192,83522,1,8,0:1:0:0:
256,192,83716,1,0,0:1:0:0:
256,192,83813,1,8,0:1:0:0:
256,192,84008,1,8,0:1:0:0:
256,192,84202,1,8,0:1:0:0:
256,192,84396,1,0,0:1:0:0:
256,192,84590,1,8,0:1:0:0:
256,192,84687,1,0,0:1:0:0:
256,192,84881,1,8,0:1:0:0:
256,192,84978,1,8,0:1:0:0:
256,192,85173,1,0,0:1:0:0:
256,192,85367,1,0,0:1:0:0:
256,192,85561,1,8,0:1:0:0:
256,192,85755,1,0,0:1:0:0:
256,192,85949,1,0,0:1:0:0:
256,192,86143,1,8,0:1:0:0:
256,192,86726,1,8,0:1:0:0:
256,192,87308,1,8,0:1:0:0:
